Today is a free download without charge Download

Discovery. World\'s TOP 5. Super Planes / Пятёрка лучших. Супер самолёты (2012) HDTVRip [H.264/720p-LQ]

Reply to topic
 
Author
Message

UndegraundMen ®

Longevity: 7 years 7 months

Posts: 25145

Торрент-статистика

Post 27-Jul-2013 23:00

[Quote]

Discovery. World's TOP 5. Super Planes / Пятёрка лучших. Супер самолёты (2012) HDTVRip [H.264/720p-LQ]- Русское название: Пятёрка лучших. Супер самолёты
Оригинальное название: World's TOP 5. Super Planes
Производство: США, Discovery Channel
Год выпуска: 2012
Режиссер: Элйес Габель
Жанр: Документальный, научно-познавательный, техника
Перевод: Одноголосый закадровый (профессиональный)
Описание фильма: "Пятерка лучших" - это новый документальный цикл на канале Дискавери, в котором представлены самые мощные, самые быстрые, самые совершенные автомобили, самолеты и поезда. В каждом новом выпуске встретятся пять представителей своего класса, чтобы начать беспрецедентное состязание. В этом соревновании участвуют не только транспортные средства, но и крупнейшие заводы и высочайшие небоскребы так же выступят в отдельном зачете. Экспертное жюри сравнит пять их основных характеристик и определит лучшего из лучших! Пять дисциплин по пять участников в каждой оцениваются по пяти критериям – и пять победителей в итоге!
Познакомьтесь с лучшими самолетами мира, включая Еврофайтер Тайфун, Антонов-225 и Аэробус 380. Какой самолет окажется самым крутым?
Продолжительность: 00:43:59
Качество: HDTVRip [720p-LQ]
Видео кодек: MPEG-4 AVC/H.264
Битрейт видео: 3390 Кбит/сек
Размер кадра: 1280 x 720
Аудио#1: [Русский] АС3, 5.1 ch, 384 Кбит/с
Аудио#2: [Английский] АС3, 5.1 ch, 384 Кбит/с

MediaInfo

General
Unique ID : 224641814253172524903179521180255523795 (0xA900708F1372B659B50EFB02080613D3)
Complete name : A:\Релизы\Discovery.World's.Top.5.(S01.E01).SuperPlanes.HDTVip.720p.mkv
Format : Matroska
Format version : Version 1
File size : 1.21 GiB
Duration : 43mn 59s
Overall bit rate : 3 922 Kbps
Encoded date : UTC 2013-01-15 08:06:31
Writing application : mkvmerge v2.1.0 ('Another Place To Fall') built on Aug 19 2007 13:40:07
Writing library : libebml v0.7.7 + libmatroska v0.8.1
Video
ID : 1
Format : AVC
Format/Info : Advanced Video Codec
Format profile : [url=mailto:[email protected]][email protected][/url]
Format settings, CABAC : Yes
Format settings, ReFrames : 5 frames
Codec ID : V_MPEG4/ISO/AVC
Duration : 43mn 59s
Bit rate : 3 150 Kbps
Width : 1 280 pixels
Height : 720 pixels
Display aspect ratio : 16:9
Frame rate mode : Constant
Frame rate : 25.000 fps
Color space : YUV
Chroma subsampling : 4:2:0
Bit depth : 8 bits
Scan type : Progressive
Bits/(Pixel*Frame) : 0.137
Stream size : 968 MiB (78%)
Title : Rip by Fандорин [Кинозал.ТВ]
Writing library : x264 core 98 r1649 c54c47d
Encoding settings : cabac=1 / ref=5 / deblock=1:-3:-3 / analyse=0x3:0x133 / me=umh / subme=10 / psy=1 / psy_rd=1.00:0.10 / mixed_ref=1 / me_range=48 / chroma_me=1 / trellis=2 / 8x8dct=1 / cqm=0 / deadzone=21,11 / fast_pskip=0 / chroma_qp_offset=-3 / threads=6 / sliced_threads=0 / nr=0 / decimate=1 / interlaced=0 / constrained_intra=0 / bframes=3 / b_pyramid=2 / b_adapt=2 / b_bias=0 / direct=3 / weightb=1 / weightp=2 / keyint=250 / keyint_min=25 / scenecut=40 / intra_refresh=0 / rc_lookahead=40 / rc=2pass / mbtree=1 / bitrate=3150 / ratetol=1.0 / qcomp=0.60 / qpmin=10 / qpmax=51 / qpstep=4 / cplxblur=20.0 / qblur=0.5 / ip_ratio=1.40 / aq=1:1.00
Default : Yes
Forced : No
Audio #1
ID : 2
Format : AC-3
Format/Info : Audio Coding 3
Mode extension : CM (complete main)
Format settings, Endianness : Big
Codec ID : A_AC3
Duration : 43mn 59s
Bit rate mode : Constant
Bit rate : 384 Kbps
Channel(s) : 6 channels
Channel positions : Front: L C R, Side: L R, LFE
Sampling rate : 48.0 KHz
Bit depth : 16 bits
Compression mode : Lossy
Stream size : 121 MiB (10%)
Language : Russian
Default : Yes
Forced : No
Audio #2
ID : 3
Format : AC-3
Format/Info : Audio Coding 3
Mode extension : CM (complete main)
Format settings, Endianness : Big
Codec ID : A_AC3
Duration : 43mn 59s
Bit rate mode : Constant
Bit rate : 384 Kbps
Channel(s) : 6 channels
Channel positions : Front: L C R, Side: L R, LFE
Sampling rate : 48.0 KHz
Bit depth : 16 bits
Compression mode : Lossy
Stream size : 121 MiB (10%)
Language : English
Default : No
Forced : No
Скриншоты:
         
         
Other forum [Profile] [PM]
Display posts from previous:    
Reply to topic

The time now is: Today 03:29

All times are GMT + 3 Hours



You cannot post new topics in this forum
You cannot reply to topics in this forum
You cannot edit your posts in this forum
You cannot delete your posts in this forum
You cannot vote in polls in this forum
You cannot attach files in this forum
You cannot download files in this forum