Today is a free download without charge Download

Доберман / Dobermann (Ян Каунен) [1997 г., триллер, драма, криминал, BDRip1080p]

Reply to topic
 
Author
Message

Delia ®

Gender:

Longevity: 9 years 6 months

Posts: 1821

Торрент-статистика

Post 04-Sep-2011 09:10

[Quote]

ДоберманDobermann Год выпуска: 1997
Страна: Франция
Жанр: триллер, драма, криминал
Продолжительность: 01:43:06
Перевод: Профессиональный (многоголосый, закадровый)
Режиссер: Ян Каунен
Продюссер: Фредерик Дюма-Зайделья, Эрик Нивё
Сценарий: Джоэль Хуссин
Бюджет: FRF 33 000 000
Премьера в мире: 18 июня 1997
В ролях: Венсан Кассель, Чеки Карио, Моника Беллуччи, Антуан Баслер, Доминик Беттенфельд, Паскаль Демолон, Марк Дюре, Ромен Дюри, Франсуа Леванталь, Иван Мерат-Барбофф
Описание: Герою фильма уже в день крестин один из друзей отца дарит Магнум-357. Мальчик вырос и стал супернаглым и дерзким грабителем по кличке Доберман. 357-й магнум заменили самые современные виды огнестрельного оружия, включая даже небольшие ракеты, которыми можно стрелять, навинчивая их на ствол пистолета.Вместе с ним всегда его глухая подруга, спокойно красящая ногти во время ограбления инкассаторов. Все члены банды — еще те типажи! Ловит же его жестокий полицейский рядом с которым Грязный Гарри — просто бойскаут. Он одержимо хочет поймать или убить Добермана и для достижения своей цели готов пойти на все и даже преступить закон.
Качество: BDRip1080p
Формат: MKV
Видео кодек: H.264
Аудио кодек: AC3
Видео: English, 5623 Кбит/сек, 1920*816 (2,35:1), в 24,000 кадр/сек, AVC ([email protected])
Аудио:Russian, 448 Кбит/сек, 48,0 КГц, 16 бит, 6 канала(ов), AC-3
Отдельно:
АО Сербин (448 Кбит/сек, 48,0 КГц, 16 бит, 6 канала(ов), AC-3 )
АО Володарский (448 Кбит/сек, 48,0 КГц, 16 бит, 6 канала(ов), AC-3 )
French оригинал (320 Кбит/сек, 48,0 КГц, 16 бит, 6 канала(ов), AC-3 )
Субтитры:Russian, English - srt

MI:

Общее
Уникальный идентификатор : 173463946838173307425487620445861279395 (0x827FF0E203FA064BACD8A93CE0AB76A3)
Полное имя : E:\торрент\Doberman.1997.BDRip.1080p\Doberman.1997.BDRip.1080p.mkv
Формат : Matroska
Размер файла : 4,37 Гбайт
Продолжительность : 1 ч. 43 м.
Общий поток : 6068 Кбит/сек
Дата кодирования : UTC 2011-09-04 04:59:58
Программа кодирования : mkvmerge v4.9.1 ('Ich will') built on Jul 11 2011 23:53:15
Библиотека кодирования : libebml v1.2.1 + libmatroska v1.1.1
Видео
Идентификатор : 1
Формат : AVC
Формат/Информация : Advanced Video Codec
Профиль формата : [email protected]
Параметр CABAC формата : Да
Параметр ReFrames формата : 5 кадры
Параметры GOP формата : M=1, N=16
Идентификатор кодека : V_MPEG4/ISO/AVC
Продолжительность : 1 ч. 43 м.
Битрейт : 5623 Кбит/сек
Ширина : 1920 пикс.
Высота : 816 пикс.
Соотношение сторон : 2,35:1
Частота кадров : 24,000 кадр/сек
Цветовое пространство : YUV
Подвыборка цветности : 4:2:0
Битовая глубина : 8 бит
Тип развёртки : Прогрессивная
Бит/(Пиксели*Кадры) : 0.150
Размер потока : 3,96 Гбайт (91%)
Библиотека кодирования : x264 core 116 r2074 2641b9e
Настройки программы : cabac=1 / ref=5 / deblock=1:-3:-3 / analyse=0x3:0x133 / me=esa / subme=9 / psy=1 / psy_rd=1.00:0.25 / mixed_ref=1 / me_range=32 / chroma_me=1 / trellis=2 / 8x8dct=1 / cqm=0 / deadzone=21,11 / fast_pskip=0 / chroma_qp_offset=-4 / threads=6 / sliced_threads=0 / nr=0 / decimate=1 / interlaced=0 / bluray_compat=0 / constrained_intra=0 / bframes=6 / b_pyramid=2 / b_adapt=2 / b_bias=0 / direct=3 / weightb=1 / open_gop=0 / weightp=2 / keyint=250 / keyint_min=23 / scenecut=40 / intra_refresh=0 / rc_lookahead=50 / rc=2pass / mbtree=1 / bitrate=5623 / ratetol=1.0 / qcomp=0.80 / qpmin=10 / qpmax=55 / qpstep=4 / cplxblur=20.0 / qblur=0.5 / ip_ratio=1.40 / aq=1:1.00
Язык : English
Аудио
Идентификатор : 2
Формат : AC-3
Формат/Информация : Audio Coding 3
Расширение режима : CM (complete main)
Идентификатор кодека : A_AC3
Продолжительность : 1 ч. 43 м.
Вид битрейта : Постоянный
Битрейт : 448 Кбит/сек
Канал(ы) : 6 канала(ов)
Расположение каналов : Front: L C R, Side: L R, LFE
Частота : 48,0 КГц
Битовая глубина : 16 бит
Метод сжатия : С потерями
Размер потока : 330 Мбайт (7%)
Текст #1
Идентификатор : 3
Формат : UTF-8
Идентификатор кодека : S_TEXT/UTF8
Идентификатор кодека/Информация : UTF-8 Plain Text
Язык : Russian
Текст #2
Идентификатор : 4
Формат : UTF-8
Идентификатор кодека : S_TEXT/UTF8
Идентификатор кодека/Информация : UTF-8 Plain Text
Язык : English
Меню
00:00:00.000 : en:00:00:00.000
00:07:57.042 : en:00:07:57.042
00:14:38.167 : en:00:14:38.167
00:21:39.125 : en:00:21:39.125
00:29:36.292 : en:00:29:36.292
00:37:09.167 : en:00:37:09.167
00:45:07.667 : en:00:45:07.667
00:52:10.125 : en:00:52:10.125
00:57:08.375 : en:00:57:08.375
01:03:44.000 : en:01:03:44.000
01:10:01.583 : en:01:10:01.583
01:15:33.875 : en:01:15:33.875
01:20:44.542 : en:01:20:44.542
01:26:28.875 : en:01:26:28.875
01:31:54.667 : en:01:31:54.667
01:38:03.917 : en:01:38:03.917

Скриншоты

       

_________________
Человек – это канат, натянутый между животным и сверхчеловеком, – канат над пропастью.
В человеке ценно то, что он мост, а не цель. Фридрих Ницше
Other forum [Profile] [PM]
Display posts from previous:    
Reply to topic

The time now is: Today 08:24

All times are GMT + 3 Hours



You cannot post new topics in this forum
You cannot reply to topics in this forum
You cannot edit your posts in this forum
You cannot delete your posts in this forum
You cannot vote in polls in this forum
You cannot attach files in this forum
You cannot download files in this forum