Today is a free download without charge Download

Дар / The Gift (Сэм Рэйми) [2000 г., триллер, драма, криминал, детектив, BDRip720p]

Reply to topic
 
Author
Message

Delia ®

Gender:

Longevity: 9 years 6 months

Posts: 1821

Торрент-статистика

Post 03-Sep-2011 10:20

[Quote]

ДарThe Gift Год выпуска: 2000
Страна: США
Жанр: триллер, мистика, драма, криминал, детектив
Продолжительность: 01:51:49
Перевод: Профессиональный (многоголосый, закадровый)
Режиссер: Сэм Рэйми
Продюссер: Грант Кертис, Шон Дэниэл, Грегори Гудман
Сценарий: Билли Боб Торнтон, Том Эпперсон
Бюджет: $10 000 000
Премьера в мире: 22 декабря 2000
В ролях: Кейт Бланшетт, Джованни Рибизи, Киану Ривз, Кэти Холмс, Грег Киннер, Хилари Суэнк, Майкл Джитер, Ким Диккенс, Гэри Коул, Розмари Харрис
Описание: Вдова Энни Уилсон наделена редким даром ясновидения. И когда происходит таинственное убийство девушки из богатой семьи, ее талант приходится как нельзя кстати в установлении личности убийцы. Но все не так просто, как кажется. Дар опасен для своего носителя, разрушает психику героини и не дает однозначных ответов.Тем временем круг подозреваемых расширяется с каждым днем, вовлекая в эпицентр событий все новых персонажей, каждый из которых может быть убийцей. И чем дальше продвигается Энни в своем расследовании, тем четче осознает, что поиск правды может сокрушить ее разум.
Качество: BDRip720p
Формат: MKV
Видео кодек: H.264
Аудио кодек: AC3
Видео: English, 5149 Кбит/сек, 1280*688 (1,860), в 24,000 кадр/сек, AVC ([email protected])
Аудио: Russian, 448 Кбит/сек, 48,0 КГц, 16 бит, 6 канала(ов), AC-3
Дополнительно отдельными файлами :
Russian, 448 Кбит/сек, 48,0 КГц, 16 бит, 6 канала(ов), AC-3 , Авторский одноголосый (Ю.Живов)
English,320 Кбит/сек, 48,0 КГц, 16 бит, 6 канала(ов), AC-3 , оригинал
Субтитры:Russian, English - VobSub

MI:

Общее
Уникальный идентификатор : 246445741125141215264411826514778302509 (0xB967B926E8D331B8BEC4B1E74EF2A82D)
Полное имя : E:\торрент\Dar.2000.x264.BDRip720p\Dar.2000.x264.BDRip720p.mkv
Формат : Matroska
Размер файла : 4,38 Гбайт
Продолжительность : 1 ч. 51 м.
Общий поток : 5605 Кбит/сек
Дата кодирования : UTC 2011-09-03 05:34:56
Программа кодирования : mkvmerge v4.9.1 ('Ich will') built on Jul 11 2011 23:53:15
Библиотека кодирования : libebml v1.2.1 + libmatroska v1.1.1
Видео
Идентификатор : 1
Формат : AVC
Формат/Информация : Advanced Video Codec
Профиль формата : [email protected]
Параметр CABAC формата : Да
Параметр ReFrames формата : 9 кадры
Идентификатор кодека : V_MPEG4/ISO/AVC
Продолжительность : 1 ч. 51 м.
Битрейт : 5149 Кбит/сек
Ширина : 1280 пикс.
Высота : 688 пикс.
Соотношение сторон : 1,860
Частота кадров : 24,000 кадр/сек
Цветовое пространство : YUV
Подвыборка цветности : 4:2:0
Битовая глубина : 8 бит
Тип развёртки : Прогрессивная
Бит/(Пиксели*Кадры) : 0.244
Размер потока : 3,94 Гбайт (90%)
Библиотека кодирования : x264 core 116 r2074 2641b9e
Настройки программы : cabac=1 / ref=9 / deblock=1:-3:-3 / analyse=0x3:0x133 / me=umh / subme=9 / psy=1 / psy_rd=1.00:0.25 / mixed_ref=1 / me_range=32 / chroma_me=1 / trellis=2 / 8x8dct=1 / cqm=0 / deadzone=21,11 / fast_pskip=0 / chroma_qp_offset=-4 / threads=6 / sliced_threads=0 / nr=0 / decimate=1 / interlaced=0 / bluray_compat=0 / constrained_intra=0 / bframes=8 / b_pyramid=2 / b_adapt=2 / b_bias=0 / direct=3 / weightb=1 / open_gop=0 / weightp=2 / keyint=250 / keyint_min=23 / scenecut=40 / intra_refresh=0 / rc_lookahead=50 / rc=2pass / mbtree=1 / bitrate=5149 / ratetol=1.0 / qcomp=0.70 / qpmin=10 / qpmax=55 / qpstep=4 / cplxblur=20.0 / qblur=0.5 / ip_ratio=1.40 / aq=1:1.00
Язык : English
Аудио
Идентификатор : 2
Формат : AC-3
Формат/Информация : Audio Coding 3
Расширение режима : CM (complete main)
Идентификатор кодека : A_AC3
Продолжительность : 1 ч. 51 м.
Вид битрейта : Постоянный
Битрейт : 448 Кбит/сек
Канал(ы) : 6 канала(ов)
Расположение каналов : Front: L C R, Side: L R, LFE
Частота : 48,0 КГц
Битовая глубина : 16 бит
Метод сжатия : С потерями
Размер потока : 358 Мбайт (8%)
Язык : Russian
Текст #1
Идентификатор : 3
Формат : VobSub
Режим смешивания : zlib
Идентификатор кодека : S_VOBSUB
Идентификатор кодека/Информация : The same subtitle format used on DVDs
Язык : Russian
Текст #2
Идентификатор : 4
Формат : VobSub
Режим смешивания : zlib
Идентификатор кодека : S_VOBSUB
Идентификатор кодека/Информация : The same subtitle format used on DVDs
Язык : English
Меню
00:00:00.000 : en:00:00:00.000
00:05:43.083 : en:00:05:43.083
00:11:11.625 : en:00:11:11.625
00:15:20.208 : en:00:15:20.208
00:21:10.417 : en:00:21:10.417
00:25:53.042 : en:00:25:53.042
00:30:23.208 : en:00:30:23.208
00:36:01.333 : en:00:36:01.333
00:41:58.833 : en:00:41:58.833
00:46:40.042 : en:00:46:40.042
00:51:30.208 : en:00:51:30.208
01:02:01.833 : en:01:02:01.833
01:11:18.625 : en:01:11:18.625
01:19:52.208 : en:01:19:52.208
01:30:05.208 : en:01:30:05.208
01:48:03.042 : en:01:48:03.042

Скриншоты

           

_________________
Человек – это канат, натянутый между животным и сверхчеловеком, – канат над пропастью.
В человеке ценно то, что он мост, а не цель. Фридрих Ницше


Last edited by Delia on 2011-09-03 10:23; edited 1 time in total
Other forum [Profile] [PM]
Display posts from previous:    
Reply to topic

The time now is: Today 08:52

All times are GMT + 3 Hours



You cannot post new topics in this forum
You cannot reply to topics in this forum
You cannot edit your posts in this forum
You cannot delete your posts in this forum
You cannot vote in polls in this forum
You cannot attach files in this forum
You cannot download files in this forum