Сегодня идет свободное скачивание без начисления Download

Carved Souls - Dismantle (2013) [MP3|160-320 кб/с]

Ответить на тему
 
Автор
Сообщение

UndegraundMen ®

Стаж: 5 лет 9 месяцев

Сообщений: 25860

Торрент-статистика

Пост 25-Июл-2013 17:00

[Цитировать]

Carved Souls - Dismantle (2013)-

Год: 2013
Жанр: Synthpop
Продолжительность: 00:49:18
Кодек: MP3
Битрейт: 160-320 кб/с
Тип битрейта: VBR

Треклист:
01. Shaken (05:08)
02. Only Lies (03:24)
03. On My Own (03:40)
04. Until Then (05:05)
05. Save Me (04:03)
06. Restart (03:41)
07. Drenched In Dreams (03:22)
08. Forgive My Ways (04:04)
09. Hold On (03:28)
10. Pieces (04:45)
11. Corrupt Idiot (04:11)
12. Down But Not Out (04:23)

MediaInfo

Carved Souls - Dismantle - 2013\01. Carved Souls - Shaken.mp3
Формат : MPEG Audio
Размер файла : 9,15 Мбайт
Продолжительность : 5 м. 8 с.
Режим общего битрейта : Переменный
Общий поток : 248 Кбит/сек
Альбом : Dismantle
Трек : Shaken
Трек/Положение : 01
Исполнитель : Carved Souls
Кодирование произвёл : I'm Too Lame to Change the Default Settings
Жанр : electro | synthpop
Дата записи : 2013
Библиотека кодирования : LAME3.98r
Обложка : Yes
Тип обложки : Cover (front)
MIME-тип обложки : image/jpeg
Аудио
Формат : MPEG Audio
Версия формата : Version 1
Профиль формата : Layer 3
Режим : Joint stereo
Продолжительность : 5 м. 8 с.
Вид битрейта : Переменный
Битрейт : 248 Кбит/сек
Минимальный битрейт : 32,0 Кбит/сек
Каналы : 2 канала
Частота : 44,1 КГц
Метод сжатия : С потерями
Размер потока : 9,11 Мбайт (100%)
Библиотека кодирования : LAME3.98r
Настройки программы : -m j -V 0 -q 0 -lowpass 19.5 --vbr-new -b 32
Язык : English
Общее
Carved Souls - Dismantle - 2013\02. Carved Souls - Only Lies.mp3
Формат : MPEG Audio
Размер файла : 6,22 Мбайт
Продолжительность : 3 м. 24 с.
Режим общего битрейта : Переменный
Общий поток : 254 Кбит/сек
Альбом : Dismantle
Трек : Only Lies
Трек/Положение : 02
Исполнитель : Carved Souls
Кодирование произвёл : I'm Too Lame to Change the Default Settings
Жанр : electro | synthpop
Дата записи : 2013
Библиотека кодирования : LAME3.98r
Обложка : Yes
Тип обложки : Cover (front)
MIME-тип обложки : image/jpeg
Аудио
Формат : MPEG Audio
Версия формата : Version 1
Профиль формата : Layer 3
Режим : Joint stereo
Продолжительность : 3 м. 24 с.
Вид битрейта : Переменный
Битрейт : 254 Кбит/сек
Минимальный битрейт : 32,0 Кбит/сек
Каналы : 2 канала
Частота : 44,1 КГц
Метод сжатия : С потерями
Размер потока : 6,18 Мбайт (99%)
Библиотека кодирования : LAME3.98r
Настройки программы : -m j -V 0 -q 0 -lowpass 19.5 --vbr-new -b 32
Язык : English
Общее
Carved Souls - Dismantle - 2013\03. Carved Souls - On My Own.mp3
Формат : MPEG Audio
Размер файла : 6,46 Мбайт
Продолжительность : 3 м. 40 с.
Режим общего битрейта : Переменный
Общий поток : 245 Кбит/сек
Альбом : Dismantle
Трек : On My Own
Трек/Положение : 03
Исполнитель : Carved Souls
Кодирование произвёл : I'm Too Lame to Change the Default Settings
Жанр : electro | synthpop
Дата записи : 2013
Библиотека кодирования : LAME3.98r
Обложка : Yes
Тип обложки : Cover (front)
MIME-тип обложки : image/jpeg
Аудио
Формат : MPEG Audio
Версия формата : Version 1
Профиль формата : Layer 3
Режим : Joint stereo
Продолжительность : 3 м. 40 с.
Вид битрейта : Переменный
Битрейт : 245 Кбит/сек
Минимальный битрейт : 32,0 Кбит/сек
Каналы : 2 канала
Частота : 44,1 КГц
Метод сжатия : С потерями
Размер потока : 6,41 Мбайт (99%)
Библиотека кодирования : LAME3.98r
Настройки программы : -m j -V 0 -q 0 -lowpass 19.5 --vbr-new -b 32
Язык : English
Общее
Carved Souls - Dismantle - 2013\04. Carved Souls - Until Then.mp3
Формат : MPEG Audio
Размер файла : 8,39 Мбайт
Продолжительность : 5 м. 5 с.
Режим общего битрейта : Переменный
Общий поток : 230 Кбит/сек
Альбом : Dismantle
Трек : Until Then
Трек/Положение : 04
Исполнитель : Carved Souls
Кодирование произвёл : I'm Too Lame to Change the Default Settings
Жанр : electro | synthpop
Дата записи : 2013
Библиотека кодирования : LAME3.98r
Обложка : Yes
Тип обложки : Cover (front)
MIME-тип обложки : image/jpeg
Аудио
Формат : MPEG Audio
Версия формата : Version 1
Профиль формата : Layer 3
Режим : Joint stereo
Продолжительность : 5 м. 5 с.
Вид битрейта : Переменный
Битрейт : 230 Кбит/сек
Минимальный битрейт : 32,0 Кбит/сек
Каналы : 2 канала
Частота : 44,1 КГц
Метод сжатия : С потерями
Размер потока : 8,35 Мбайт (99%)
Библиотека кодирования : LAME3.98r
Настройки программы : -m j -V 0 -q 0 -lowpass 19.5 --vbr-new -b 32
Язык : English
Общее
Carved Souls - Dismantle - 2013\05. Carved Souls - Save Me.mp3
Формат : MPEG Audio
Размер файла : 7,11 Мбайт
Продолжительность : 4 м. 3 с.
Режим общего битрейта : Переменный
Общий поток : 244 Кбит/сек
Альбом : Dismantle
Трек : Save Me
Трек/Положение : 05
Исполнитель : Carved Souls
Кодирование произвёл : I'm Too Lame to Change the Default Settings
Жанр : electro | synthpop
Дата записи : 2013
Библиотека кодирования : LAME3.98r
Обложка : Yes
Тип обложки : Cover (front)
MIME-тип обложки : image/jpeg
Аудио
Формат : MPEG Audio
Версия формата : Version 1
Профиль формата : Layer 3
Режим : Joint stereo
Продолжительность : 4 м. 3 с.
Вид битрейта : Переменный
Битрейт : 244 Кбит/сек
Минимальный битрейт : 32,0 Кбит/сек
Каналы : 2 канала
Частота : 44,1 КГц
Метод сжатия : С потерями
Размер потока : 7,07 Мбайт (99%)
Библиотека кодирования : LAME3.98r
Настройки программы : -m j -V 0 -q 0 -lowpass 19.5 --vbr-new -b 32
Язык : English
Общее
Carved Souls - Dismantle - 2013\06. Carved Souls - Restart.mp3
Формат : MPEG Audio
Размер файла : 6,62 Мбайт
Продолжительность : 3 м. 41 с.
Режим общего битрейта : Переменный
Общий поток : 248 Кбит/сек
Альбом : Dismantle
Трек : Restart
Трек/Положение : 06
Исполнитель : Carved Souls
Кодирование произвёл : I'm Too Lame to Change the Default Settings
Жанр : electro | synthpop
Дата записи : 2013
Библиотека кодирования : LAME3.98r
Обложка : Yes
Тип обложки : Cover (front)
MIME-тип обложки : image/jpeg
Аудио
Формат : MPEG Audio
Версия формата : Version 1
Профиль формата : Layer 3
Режим : Joint stereo
Продолжительность : 3 м. 41 с.
Вид битрейта : Переменный
Битрейт : 248 Кбит/сек
Минимальный битрейт : 32,0 Кбит/сек
Каналы : 2 канала
Частота : 44,1 КГц
Метод сжатия : С потерями
Размер потока : 6,57 Мбайт (99%)
Библиотека кодирования : LAME3.98r
Настройки программы : -m j -V 0 -q 0 -lowpass 19.5 --vbr-new -b 32
Язык : English
Общее
Carved Souls - Dismantle - 2013\07. Carved Souls - Drenched In Dreams.mp3
Формат : MPEG Audio
Размер файла : 6,08 Мбайт
Продолжительность : 3 м. 22 с.
Режим общего битрейта : Переменный
Общий поток : 250 Кбит/сек
Альбом : Dismantle
Трек : Drenched In Dreams
Трек/Положение : 07
Исполнитель : Carved Souls
Кодирование произвёл : I'm Too Lame to Change the Default Settings
Жанр : electro | synthpop
Дата записи : 2013
Библиотека кодирования : LAME3.98r
Обложка : Yes
Тип обложки : Cover (front)
MIME-тип обложки : image/jpeg
Аудио
Формат : MPEG Audio
Версия формата : Version 1
Профиль формата : Layer 3
Режим : Joint stereo
Продолжительность : 3 м. 22 с.
Вид битрейта : Переменный
Битрейт : 250 Кбит/сек
Минимальный битрейт : 32,0 Кбит/сек
Каналы : 2 канала
Частота : 44,1 КГц
Метод сжатия : С потерями
Размер потока : 6,03 Мбайт (99%)
Библиотека кодирования : LAME3.98r
Настройки программы : -m j -V 0 -q 0 -lowpass 19.5 --vbr-new -b 32
Язык : English
Общее
Carved Souls - Dismantle - 2013\08. Carved Souls - Forgive My Ways.mp3
Формат : MPEG Audio
Размер файла : 7,39 Мбайт
Продолжительность : 4 м. 4 с.
Режим общего битрейта : Переменный
Общий поток : 252 Кбит/сек
Альбом : Dismantle
Трек : Forgive My Ways
Трек/Положение : 08
Исполнитель : Carved Souls
Кодирование произвёл : I'm Too Lame to Change the Default Settings
Жанр : electro | synthpop
Дата записи : 2013
Библиотека кодирования : LAME3.98r
Обложка : Yes
Тип обложки : Cover (front)
MIME-тип обложки : image/jpeg
Аудио
Формат : MPEG Audio
Версия формата : Version 1
Профиль формата : Layer 3
Режим : Joint stereo
Продолжительность : 4 м. 4 с.
Вид битрейта : Переменный
Битрейт : 252 Кбит/сек
Минимальный битрейт : 32,0 Кбит/сек
Каналы : 2 канала
Частота : 44,1 КГц
Метод сжатия : С потерями
Размер потока : 7,34 Мбайт (99%)
Библиотека кодирования : LAME3.98r
Настройки программы : -m j -V 0 -q 0 -lowpass 19.5 --vbr-new -b 32
Язык : English
Общее
Carved Souls - Dismantle - 2013\09. Carved Souls - Hold On.mp3
Формат : MPEG Audio
Размер файла : 5,91 Мбайт
Продолжительность : 3 м. 28 с.
Режим общего битрейта : Переменный
Общий поток : 236 Кбит/сек
Альбом : Dismantle
Трек : Hold On
Трек/Положение : 09
Исполнитель : Carved Souls
Кодирование произвёл : I'm Too Lame to Change the Default Settings
Жанр : electro | synthpop
Дата записи : 2013
Библиотека кодирования : LAME3.98r
Обложка : Yes
Тип обложки : Cover (front)
MIME-тип обложки : image/jpeg
Аудио
Формат : MPEG Audio
Версия формата : Version 1
Профиль формата : Layer 3
Режим : Joint stereo
Расширение режима : MS Stereo
Продолжительность : 3 м. 28 с.
Вид битрейта : Переменный
Битрейт : 236 Кбит/сек
Минимальный битрейт : 32,0 Кбит/сек
Каналы : 2 канала
Частота : 44,1 КГц
Метод сжатия : С потерями
Размер потока : 5,86 Мбайт (99%)
Библиотека кодирования : LAME3.98r
Настройки программы : -m j -V 0 -q 0 -lowpass 19.5 --vbr-new -b 32
Язык : English
Общее
Carved Souls - Dismantle - 2013\10. Carved Souls - Pieces.mp3
Формат : MPEG Audio
Размер файла : 8,74 Мбайт
Продолжительность : 4 м. 45 с.
Режим общего битрейта : Переменный
Общий поток : 255 Кбит/сек
Альбом : Dismantle
Трек : Pieces
Трек/Положение : 10
Исполнитель : Carved Souls
Кодирование произвёл : I'm Too Lame to Change the Default Settings
Жанр : electro | synthpop
Дата записи : 2013
Библиотека кодирования : LAME3.98r
Обложка : Yes
Тип обложки : Cover (front)
MIME-тип обложки : image/jpeg
Аудио
Формат : MPEG Audio
Версия формата : Version 1
Профиль формата : Layer 3
Режим : Joint stereo
Продолжительность : 4 м. 45 с.
Вид битрейта : Переменный
Битрейт : 255 Кбит/сек
Минимальный битрейт : 32,0 Кбит/сек
Каналы : 2 канала
Частота : 44,1 КГц
Метод сжатия : С потерями
Размер потока : 8,70 Мбайт (100%)
Библиотека кодирования : LAME3.98r
Настройки программы : -m j -V 0 -q 0 -lowpass 19.5 --vbr-new -b 32
Язык : English
Общее
Carved Souls - Dismantle - 2013\11. Carved Souls - Corrupt Idiot.mp3
Формат : MPEG Audio
Размер файла : 7,13 Мбайт
Продолжительность : 4 м. 11 с.
Режим общего битрейта : Переменный
Общий поток : 236 Кбит/сек
Альбом : Dismantle
Трек : Corrupt Idiot
Трек/Положение : 11
Исполнитель : Carved Souls
Кодирование произвёл : I'm Too Lame to Change the Default Settings
Жанр : electro | synthpop
Дата записи : 2013
Библиотека кодирования : LAME3.98r
Обложка : Yes
Тип обложки : Cover (front)
MIME-тип обложки : image/jpeg
Аудио
Формат : MPEG Audio
Версия формата : Version 1
Профиль формата : Layer 3
Режим : Joint stereo
Продолжительность : 4 м. 11 с.
Вид битрейта : Переменный
Битрейт : 236 Кбит/сек
Минимальный битрейт : 32,0 Кбит/сек
Каналы : 2 канала
Частота : 44,1 КГц
Метод сжатия : С потерями
Размер потока : 7,08 Мбайт (99%)
Библиотека кодирования : LAME3.98r
Настройки программы : -m j -V 0 -q 0 -lowpass 19.5 --vbr-new -b 32
Язык : English
Общее
Carved Souls - Dismantle - 2013\12. Carved Souls - Down But Not Out.mp3
Формат : MPEG Audio
Размер файла : 7,33 Мбайт
Продолжительность : 4 м. 23 с.
Режим общего битрейта : Переменный
Общий поток : 232 Кбит/сек
Альбом : Dismantle
Трек : Down But Not Out
Трек/Положение : 12
Исполнитель : Carved Souls
Кодирование произвёл : I'm Too Lame to Change the Default Settings
Жанр : electro | synthpop
Дата записи : 2013
Библиотека кодирования : LAME3.98r
Обложка : Yes
Тип обложки : Cover (front)
MIME-тип обложки : image/jpeg
Аудио
Формат : MPEG Audio
Версия формата : Version 1
Профиль формата : Layer 3
Режим : Joint stereo
Расширение режима : MS Stereo
Продолжительность : 4 м. 23 с.
Вид битрейта : Переменный
Битрейт : 232 Кбит/сек
Минимальный битрейт : 32,0 Кбит/сек
Каналы : 2 канала
Частота : 44,1 КГц
Метод сжатия : С потерями
Размер потока : 7,29 Мбайт (99%)
Библиотека кодирования : LAME3.98r
Настройки программы : -m j -V 0 -q 0 -lowpass 19.5 --vbr-new -b 32
Язык : English
Общее
Carved Souls - Dismantle - 2013\Carved Souls - Dismantle (2013).jpeg
Формат : JPEG
Размер файла : 48,2 Кбайт
Изображения
Формат : JPEG
Ширина : 500 пикселей
Высота : 500 пикселей
Цветовое пространство : YUV
Субдискретизация насыщенности : 4:2:0
Битовая глубина : 8 бит
Метод сжатия : С потерями
Размер потока : 48,2 Кбайт (100%)

Carved Souls - Waveform (2012) (FLAC|Lossless)

[url=/forum/viewtopic.php?t=508029]http:///*spam*//forum/viewtopic.php?t=508029[/url]
- -Время раздачи: c 09:00 до 16:00 до 5 скачавших (кроме сб/вс)
Вне форума [Профиль] [ЛС]
Показать сообщения:    
Ответить на тему

Текущее время: Сегодня 06:36

Часовой пояс: GMT + 3



Вы не можете начинать темы
Вы не можете отвечать на сообщения
Вы не можете редактировать свои сообщения
Вы не можете удалять свои сообщения
Вы не можете голосовать в опросах
Вы не можете прикреплять файлы к сообщениям
Вы не можете скачивать файлы