Today is a free download without charge Download

Discovery: Цирк. Серия №4 / Circus (2011) HDTVRip

Reply to topic
 
Author
Message

UndegraundMen ®

Longevity: 7 years 7 months

Posts: 25145

Торрент-статистика

Post 24-Jul-2013 05:06

[Quote]

Discovery: Цирк. Серия №4 / Circus (2011) HDTVRip - Режиссер / Телекомпания: Discovery
Русское название: Цирк
Оригинальное название: Circus
Год выпуска: 2011
Жанр: Документальный, познавательный, шоу
Выпущено: США, Publiс Broadcasting Service
Описание:
В этой передачи вы увидите, как в разные цирки готовятся к выступлениям, увидите всё от начала до конца как они устроены и узнаете все секреты цирка.
Режиссёр: Маро Шермейеф, Джеф Дупр
В выпуске: 4 Серия - Выживает Сильнейший
В этой серии вы знакомитесь с грумом, воздушным акробатом и основателем цирка. Всем им предстоит решить трудный вопрос -остаться в цирке или расстаться с ним ради "реальной жизни".
Перевод: Одноголосый закадровый
Продолжительность: ~ 00:44:03
Видеокодек: XVID
Битрейт видео: ~1800 kb/s
Размер кадра: 720 x 400
Качество видео: HDTVRip
Аудиокодек: MP3, 2ch.
Битрейт аудио: 192 kb/s

MediaInfo

Format : AVI
Format/Info : Audio Video Interleave
File size : 630 MiB
Duration : 44mn 3s
Overall bit rate : 1 998 Kbps
Writing application : VirtualDubMod 1.5.10.3 | www.virtualdub-fr.org || (build 2550/release)
Writing library : VirtualDubMod build 2550/release
Video
ID : 0
Format : MPEG-4 Visual
Format profile : Advanced [email protected]
Format settings, BVOP : 1
Format settings, QPel : No
Format settings, GMC : No warppoints
Format settings, Matrix : Default (H.263)
Codec ID : XVID
Codec ID/Hint : XviD
Duration : 44mn 3s
Bit rate : 1 796 Kbps
Width : 720 pixels
Height : 400 pixels
Display aspect ratio : 16:9
Frame rate : 25.000 fps
Color space : YUV
Chroma subsampling : 4:2:0
Bit depth : 8 bits
Scan type : Progressive
Compression mode : Lossy
Bits/(Pixel*Frame) : 0.249
Stream size : 566 MiB (90%)
Writing library : XviD 1.2.1 (UTC 2008-12-04)
Audio
ID : 1
Format : MPEG Audio
Format version : Version 1
Format profile : Layer 3
Codec ID : 55
Codec ID/Hint : MP3
Duration : 44mn 3s
Bit rate mode : Constant
Bit rate : 192 Kbps
Channel(s) : 2 channels
Sampling rate : 48.0 KHz
Compression mode : Lossy
Stream size : 60.5 MiB (10%)
Alignment : Aligned on interleaves
Interleave, duration : 40 ms (1.00 video frame)
Interleave, preload duration : 504 ms
Writing library : LAME3.99r
Encoding settings : -m s -V 4 -q 2 -lowpass 18.6 -b 192
Скриншоты:          
Other forum [Profile] [PM]
Display posts from previous:    
Reply to topic

The time now is: Today 02:31

All times are GMT + 3 Hours



You cannot post new topics in this forum
You cannot reply to topics in this forum
You cannot edit your posts in this forum
You cannot delete your posts in this forum
You cannot vote in polls in this forum
You cannot attach files in this forum
You cannot download files in this forum