Today is a free download without charge Download

Авиаторы / The Aviators. Cезон 2. серии 3-13 (2011) HDTV [H.264/1080i]

Reply to topic
 
Author
Message

UndegraundMen ®

Longevity: 7 years 7 months

Posts: 25145

Торрент-статистика

Post 22-Jul-2013 11:00

[Quote]

Авиаторы - сезон 2 (серии 3-13) / The Aviators (2011) HDTV [H.264/1080i]- Русское название: Авиаторы
Оригинальное название: The Aviators
Режиссер / Телекомпания: Fourpoints MMC (Discovery HD Showcase)
Год выпуска: 2011
Жанр: Документальный
Описание:
Во втором сезоне программа "Авиаторы" продолжает следить за приключениями группы летчиков и специалистов в области авиации, которые поведают нам новые увлекательные истории обо всем, что с ней связано.

Содержание:

3-я серия:12 летний ребёнок в авиасимуляторе Боинга-737.Будет ли это для него большой видеоигрой или серьёзным испытанием?Авиадиспетчер Кёртисс посетит службы обеспечения полётов и выяснит кто же занимается авиационными прогнозами погоды?
4-я серия: Кёртисс в авиасимуляторе с одним двигателем терпит фиаско.На авиабазе морской пехоты в Мира-Маре Кёртисс узнает каково это летать на FA-18.
5-я серия: День из жизни авиашоу. Эксклюзивный взгляд изнутри на работу одного из крупнейших авиашоу Америки.(часть первая)
6-я серия: День из жизни авиашоу. Пилотажная группа "Голубые ангелы"(часть вторая)
7-я серия: Кертис рассказывает о самом большом одномоторном биплане в мире. Энтони объясняет, как летчики используют iPad в качестве летного инструмента.
8-я серия: Сара совершает увлекательный полет на тренировочном самолете советской эпохи. "Голубые ангелы" показывают C-130. Мы посетим аэродром с невероятной травяной взлетной полосой.
9-я серия: Сара пробует полетать на малогабаритных самолетах, Рэлин встречается с командой воздушных акробатов, а один летчик выигрывает право полетать на истребителе Т 33.
10-я серия: От простых до роскошных: Кертис рассказывает о разных частных самолетах. Насколько два мотора лучше одного? Сара ведет расследование.
11-я серия:Энтони показывает, что купить подержанный самолет так же просто, как подержанный автомобиль! Рэлин посещает самый удобный для женщин аэропорт.
12 -я серия:Кертис посещает воздушное подразделение полиции Лос-Анджелеса, а Джефф беседует с авиагонщиком Питом МакЛеодом о жизни на больших скоростях.
13-я серия:Рассказ об истории самолета Цессна 195. Мы посетим самый загруженный диспетчерский пункт в мире и вместе с Кертисом отправимся в великолепное авиапутешествие.
Продолжительность: 11 серий х ~ 00:22:00
Качество видео: HDTV
Перевод: Одноголосый закадровый, профессиональный
Видеокодек: MPEG-4 AVC/H.264
Битрейт видео: ~5500-6500 kb/s
Размер кадра: 1920х1080
Аудиокодек: AC3 5.1
Битрейт аудио: 384 kb/s

MediaInfo

Серии 3-4

Format : MPEG-TS
  • File size : 2.18 GiB
  • Duration : 44mn 10s
  • Overall bit rate mode : Variable
  • Overall bit rate : 7 067 Kbps
    Video #325
  • ID : 325 (0x145)
  • Menu ID : 12105 (0x2F49)
  • Format : AVC
  • Format/Info : Advanced Video Codec
  • Format profile : [url=mailto:[email protected]][email protected][/url]
  • Format settings, CABAC : Yes
  • Format settings, ReFrames : 4 frames
  • Codec ID : 27
  • Duration : 44mn 11s
  • Bit rate : 5 942 Kbps
  • Width : 1 920 pixels
  • Height : 1 080 pixels
  • Display aspect ratio : 16:9
  • Frame rate : 25.000 fps
  • Standard : Component
  • Color space : YUV
  • Chroma subsampling : 4:2:0
  • Bit depth : 8 bits
  • Scan type : Interlaced
  • Scan order : Top Field First
  • Bits/(Pixel*Frame) : 0.115
  • Stream size : 1.83 GiB (84%)
  • Color primaries : BT.709
  • Transfer characteristics : BT.709
  • Matrix coefficients : BT.709
    Audio #405
  • ID : 405 (0x195)
  • Menu ID : 12105 (0x2F49)
  • Format : AC-3
  • Format/Info : Audio Coding 3
  • Mode extension : CM (complete main)
  • Format settings, Endianness : Big
  • Codec ID : 6
  • Duration : 44mn 11s
  • Bit rate mode : Constant
  • Bit rate : 384 Kbps
  • Channel(s) : 6 channels
  • Channel positions : Front: L C R, Side: L R, LFE
  • Sampling rate : 48.0 KHz
  • Bit depth : 16 bits
  • Compression mode : Lossy
  • Delay relative to video : 18ms
  • Stream size : 121 MiB (5%)
  • Language : Russian
  • Language, more info : Clean effects
    Audio #425
  • ID : 425 (0x1A9)
  • Menu ID : 12105 (0x2F49)
  • Format : AC-3
  • Format/Info : Audio Coding 3
  • Mode extension : CM (complete main)
  • Format settings, Endianness : Big
  • Codec ID : 6
  • Duration : 44mn 10s
  • Bit rate mode : Constant
  • Bit rate : 384 Kbps
  • Channel(s) : 6 channels
  • Channel positions : Front: L C R, Side: L R, LFE
  • Sampling rate : 48.0 KHz
  • Bit depth : 16 bits
  • Compression mode : Lossy
  • Delay relative to video : 50ms
  • Stream size : 121 MiB (5%)
  • Language : English
  • Language, more info : Clean effects

Серии 5-6

Format : MPEG-TS
  • File size : 2.17 GiB
  • Duration : 44mn 9s
  • Overall bit rate mode : Variable
  • Overall bit rate : 7 040 Kbps
    Video #325
  • ID : 325 (0x145)
  • Menu ID : 12105 (0x2F49)
  • Format : AVC
  • Format/Info : Advanced Video Codec
  • Format profile : [url=mailto:[email protected]][email protected][/url]
  • Format settings, CABAC : Yes
  • Format settings, ReFrames : 4 frames
  • Codec ID : 27
  • Duration : 44mn 10s
  • Bit rate : 5 917 Kbps
  • Width : 1 920 pixels
  • Height : 1 080 pixels
  • Display aspect ratio : 16:9
  • Frame rate : 25.000 fps
  • Standard : Component
  • Color space : YUV
  • Chroma subsampling : 4:2:0
  • Bit depth : 8 bits
  • Scan type : Interlaced
  • Scan order : Top Field First
  • Bits/(Pixel*Frame) : 0.114
  • Stream size : 1.83 GiB (84%)
  • Color primaries : BT.709
  • Transfer characteristics : BT.709
  • Matrix coefficients : BT.709
    Audio #405
  • ID : 405 (0x195)
  • Menu ID : 12105 (0x2F49)
  • Format : AC-3
  • Format/Info : Audio Coding 3
  • Mode extension : CM (complete main)
  • Format settings, Endianness : Big
  • Codec ID : 6
  • Duration : 44mn 10s
  • Bit rate mode : Constant
  • Bit rate : 384 Kbps
  • Channel(s) : 6 channels
  • Channel positions : Front: L C R, Side: L R, LFE
  • Sampling rate : 48.0 KHz
  • Bit depth : 16 bits
  • Compression mode : Lossy
  • Delay relative to video : 106ms
  • Stream size : 121 MiB (5%)
  • Language : Russian
  • Language, more info : Clean effects
    Audio #425
  • ID : 425 (0x1A9)
  • Menu ID : 12105 (0x2F49)
  • Format : AC-3
  • Format/Info : Audio Coding 3
  • Mode extension : CM (complete main)
  • Format settings, Endianness : Big
  • Codec ID : 6
  • Duration : 44mn 10s
  • Bit rate mode : Constant
  • Bit rate : 384 Kbps
  • Channel(s) : 6 channels
  • Channel positions : Front: L C R, Side: L R, LFE
  • Sampling rate : 48.0 KHz
  • Bit depth : 16 bits
  • Compression mode : Lossy
  • Delay relative to video : 74ms
  • Stream size : 121 MiB (5%)
  • Language : English
  • Language, more info : Clean effects

Серии 7-8

Format : MPEG-TS
  • File size : 2.09 GiB
  • Duration : 44mn 12s
  • Overall bit rate mode : Variable
  • Overall bit rate : 6 768 Kbps
    Video #325
  • ID : 325 (0x145)
  • Menu ID : 12105 (0x2F49)
  • Format : AVC
  • Format/Info : Advanced Video Codec
  • Format profile : [url=mailto:[email protected]][email protected][/url]
  • Format settings, CABAC : Yes
  • Format settings, ReFrames : 4 frames
  • Codec ID : 27
  • Duration : 44mn 13s
  • Bit rate : 5 658 Kbps
  • Width : 1 920 pixels
  • Height : 1 080 pixels
  • Display aspect ratio : 16:9
  • Frame rate : 25.000 fps
  • Standard : Component
  • Color space : YUV
  • Chroma subsampling : 4:2:0
  • Bit depth : 8 bits
  • Scan type : Interlaced
  • Scan order : Top Field First
  • Bits/(Pixel*Frame) : 0.109
  • Stream size : 1.75 GiB (84%)
  • Color primaries : BT.709
  • Transfer characteristics : BT.709
  • Matrix coefficients : BT.709
    Audio #405
  • ID : 405 (0x195)
  • Menu ID : 12105 (0x2F49)
  • Format : AC-3
  • Format/Info : Audio Coding 3
  • Mode extension : CM (complete main)
  • Format settings, Endianness : Big
  • Codec ID : 6
  • Duration : 44mn 13s
  • Bit rate mode : Constant
  • Bit rate : 384 Kbps
  • Channel(s) : 6 channels
  • Channel positions : Front: L C R, Side: L R, LFE
  • Sampling rate : 48.0 KHz
  • Bit depth : 16 bits
  • Compression mode : Lossy
  • Delay relative to video : 105ms
  • Stream size : 121 MiB (6%)
  • Language : Russian
  • Language, more info : Clean effects
    Audio #425
  • ID : 425 (0x1A9)
  • Menu ID : 12105 (0x2F49)
  • Format : AC-3
  • Format/Info : Audio Coding 3
  • Mode extension : CM (complete main)
  • Format settings, Endianness : Big
  • Codec ID : 6
  • Duration : 44mn 13s
  • Bit rate mode : Constant
  • Bit rate : 384 Kbps
  • Channel(s) : 6 channels
  • Channel positions : Front: L C R, Side: L R, LFE
  • Sampling rate : 48.0 KHz
  • Bit depth : 16 bits
  • Compression mode : Lossy
  • Delay relative to video : 73ms
  • Stream size : 121 MiB (6%)
  • Language : English
  • Language, more info : Clean effects

Серии 9-10

Format : MPEG-TS
  • File size : 2.16 GiB
  • Duration : 43mn 22s
  • Overall bit rate mode : Variable
  • Overall bit rate : 7 143 Kbps
    Video #325
  • ID : 325 (0x145)
  • Menu ID : 12105 (0x2F49)
  • Format : AVC
  • Format/Info : Advanced Video Codec
  • Format profile : [url=mailto:[email protected]][email protected][/url]
  • Format settings, CABAC : Yes
  • Format settings, ReFrames : 4 frames
  • Codec ID : 27
  • Duration : 43mn 23s
  • Bit rate : 6 014 Kbps
  • Width : 1 920 pixels
  • Height : 1 080 pixels
  • Display aspect ratio : 16:9
  • Frame rate : 25.000 fps
  • Standard : Component
  • Color space : YUV
  • Chroma subsampling : 4:2:0
  • Bit depth : 8 bits
  • Scan type : Interlaced
  • Scan order : Top Field First
  • Bits/(Pixel*Frame) : 0.116
  • Stream size : 1.82 GiB (84%)
  • Color primaries : BT.709
  • Transfer characteristics : BT.709
  • Matrix coefficients : BT.709
    Audio #405
  • ID : 405 (0x195)
  • Menu ID : 12105 (0x2F49)
  • Format : AC-3
  • Format/Info : Audio Coding 3
  • Mode extension : CM (complete main)
  • Format settings, Endianness : Big
  • Codec ID : 6
  • Duration : 43mn 23s
  • Bit rate mode : Constant
  • Bit rate : 384 Kbps
  • Channel(s) : 6 channels
  • Channel positions : Front: L C R, Side: L R, LFE
  • Sampling rate : 48.0 KHz
  • Bit depth : 16 bits
  • Compression mode : Lossy
  • Delay relative to video : 105ms
  • Stream size : 119 MiB (5%)
  • Language : Russian
  • Language, more info : Clean effects
    Audio #425
  • ID : 425 (0x1A9)
  • Menu ID : 12105 (0x2F49)
  • Format : AC-3
  • Format/Info : Audio Coding 3
  • Mode extension : CM (complete main)
  • Format settings, Endianness : Big
  • Codec ID : 6
  • Duration : 43mn 23s
  • Bit rate mode : Constant
  • Bit rate : 384 Kbps
  • Channel(s) : 6 channels
  • Channel positions : Front: L C R, Side: L R, LFE
  • Sampling rate : 48.0 KHz
  • Bit depth : 16 bits
  • Compression mode : Lossy
  • Delay relative to video : 73ms
  • Stream size : 119 MiB (5%)
  • Language : English
  • Language, more info : Clean effects

Серии 11-12

Format : MPEG-TS
  • File size : 2.38 GiB
  • Duration : 43mn 38s
  • Overall bit rate mode : Variable
  • Overall bit rate : 7 790 Kbps
    Video #325
  • ID : 325 (0x145)
  • Menu ID : 12105 (0x2F49)
  • Format : AVC
  • Format/Info : Advanced Video Codec
  • Format profile : [url=mailto:[email protected]][email protected][/url]
  • Format settings, CABAC : Yes
  • Format settings, ReFrames : 4 frames
  • Codec ID : 27
  • Duration : 43mn 38s
  • Bit rate : 6 629 Kbps
  • Width : 1 920 pixels
  • Height : 1 080 pixels
  • Display aspect ratio : 16:9
  • Frame rate : 25.000 fps
  • Standard : Component
  • Color space : YUV
  • Chroma subsampling : 4:2:0
  • Bit depth : 8 bits
  • Scan type : Interlaced
  • Scan order : Top Field First
  • Bits/(Pixel*Frame) : 0.128
  • Stream size : 2.02 GiB (85%)
  • Color primaries : BT.709
  • Transfer characteristics : BT.709
  • Matrix coefficients : BT.709
    Audio #405
  • ID : 405 (0x195)
  • Menu ID : 12105 (0x2F49)
  • Format : AC-3
  • Format/Info : Audio Coding 3
  • Mode extension : CM (complete main)
  • Format settings, Endianness : Big
  • Codec ID : 6
  • Duration : 43mn 38s
  • Bit rate mode : Constant
  • Bit rate : 384 Kbps
  • Channel(s) : 6 channels
  • Channel positions : Front: L C R, Side: L R, LFE
  • Sampling rate : 48.0 KHz
  • Bit depth : 16 bits
  • Compression mode : Lossy
  • Delay relative to video : 126ms
  • Stream size : 120 MiB (5%)
  • Language : Russian
  • Language, more info : Clean effects
    Audio #425
  • ID : 425 (0x1A9)
  • Menu ID : 12105 (0x2F49)
  • Format : AC-3
  • Format/Info : Audio Coding 3
  • Mode extension : CM (complete main)
  • Format settings, Endianness : Big
  • Codec ID : 6
  • Duration : 43mn 39s
  • Bit rate mode : Constant
  • Bit rate : 384 Kbps
  • Channel(s) : 6 channels
  • Channel positions : Front: L C R, Side: L R, LFE
  • Sampling rate : 48.0 KHz
  • Bit depth : 16 bits
  • Compression mode : Lossy
  • Delay relative to video : 94ms
  • Stream size : 120 MiB (5%)
  • Language : English
  • Language, more info : Clean effects

Серия 13

Format : MPEG-TS
  • File size : 1.02 GiB
  • Duration : 21mn 53s
  • Overall bit rate mode : Variable
  • Overall bit rate : 6 662 Kbps
    Video #325
  • ID : 325 (0x145)
  • Menu ID : 12105 (0x2F49)
  • Format : AVC
  • Format/Info : Advanced Video Codec
  • Format profile : [url=mailto:[email protected]][email protected][/url]
  • Format settings, CABAC : Yes
  • Format settings, ReFrames : 4 frames
  • Codec ID : 27
  • Duration : 21mn 54s
  • Bit rate : 5 557 Kbps
  • Width : 1 920 pixels
  • Height : 1 080 pixels
  • Display aspect ratio : 16:9
  • Frame rate : 25.000 fps
  • Standard : Component
  • Color space : YUV
  • Chroma subsampling : 4:2:0
  • Bit depth : 8 bits
  • Scan type : Interlaced
  • Scan order : Top Field First
  • Bits/(Pixel*Frame) : 0.107
  • Stream size : 871 MiB (83%)
  • Color primaries : BT.709
  • Transfer characteristics : BT.709
  • Matrix coefficients : BT.709
    Audio #405
  • ID : 405 (0x195)
  • Menu ID : 12105 (0x2F49)
  • Format : AC-3
  • Format/Info : Audio Coding 3
  • Mode extension : CM (complete main)
  • Format settings, Endianness : Big
  • Codec ID : 6
  • Duration : 21mn 54s
  • Bit rate mode : Constant
  • Bit rate : 384 Kbps
  • Channel(s) : 6 channels
  • Channel positions : Front: L C R, Side: L R, LFE
  • Sampling rate : 48.0 KHz
  • Bit depth : 16 bits
  • Compression mode : Lossy
  • Delay relative to video : 105ms
  • Stream size : 60.2 MiB (6%)
  • Language : Russian
  • Language, more info : Clean effects
    Audio #425
  • ID : 425 (0x1A9)
  • Menu ID : 12105 (0x2F49)
  • Format : AC-3
  • Format/Info : Audio Coding 3
  • Mode extension : CM (complete main)
  • Format settings, Endianness : Big
  • Codec ID : 6
  • Duration : 21mn 54s
  • Bit rate mode : Constant
  • Bit rate : 384 Kbps
  • Channel(s) : 6 channels
  • Channel positions : Front: L C R, Side: L R, LFE
  • Sampling rate : 48.0 KHz
  • Bit depth : 16 bits
  • Compression mode : Lossy
  • Delay relative to video : 73ms
  • Stream size : 60.2 MiB (6%)
  • Language : English
  • Language, more info : Clean effects
Скриншоты:
                 
Other forum [Profile] [PM]
Display posts from previous:    
Reply to topic

The time now is: Today 13:39

All times are GMT + 3 Hours



You cannot post new topics in this forum
You cannot reply to topics in this forum
You cannot edit your posts in this forum
You cannot delete your posts in this forum
You cannot vote in polls in this forum
You cannot attach files in this forum
You cannot download files in this forum