Today is a free download without charge Download

Прикованный (Валерий Рыбарев) (Драма 2002) TVRip

Reply to topic
 
Author
Message

Omen ®

Longevity: 8 years

Posts: 181087

Торрент-статистика

Post 20-Jul-2013 11:46

[Quote]

Прикованный - Год выпуска: 2002
Жанр: Драма
Описание фильма:
Бывший афганец Павел никак не может найти себе место в мирной жизни. В бесконечной череде запоев и мучительных воспоминаний появляется просвет, когда рядом с ним оказывается Анна - молодая скрипачка. Она представляется дочерью его давней подруги и селится вместе с ним в здании заброшенного причала. Девушку не пугает суровый нрав бывшего афганца, она хочет остаться у него насовсем. Похоже, девушка знает о нем что-то такое, о чем он и не подозревает. Настоящая причина ее появления откроется не сразу...
Режиссер: Валерий Рыбарев
Актеры: Владимир Гостюхин, Алла Клюка, Татьяна Титова, Татьяна Кулиш, Ирина Основина, Юрий Серов, Игорь Клочков, Федор Колосов. Руслан Смирнов, Светлана Головина
Продолжительность: 01:43:46

Видеокодек: XviD
Битрейт видео: ~1687 Kбит/сек
Размер кадра: 720 x 544
Качество видео: TVRip
Аудиокодек: АС3 2.0
Битрейт аудио: 192 Kбит/сек

MediaInfo

Общее
Полное имя : Прикованный.2002.TVRip.avi
Формат : AVI
Формат/Информация : Audio Video Interleave
Размер файла : 1,37 Гбайт
Продолжительность : 1 ч. 43 м.
Общий поток : 1883 Кбит/сек
Программа кодирования : VirtualDubMod 1.5.4.1 (build 2178/release)
Библиотека кодирования : VirtualDubMod build 2178/release
Видео
Идентификатор : 0
Формат : MPEG-4 Visual
Профиль формата : Advanced [email protected]
Параметр BVOP формата : 1
Параметр QPel формата : Нет
Параметр GMC формата : Без точки перехода
Параметр матрицы формата : Выборочная
Идентификатор кодека : XVID
Идентификатор кодека/Подсказка : XviD
Продолжительность : 1 ч. 43 м.
Битрейт : 1685 Кбит/сек
Ширина : 720 пикселей
Высота : 544 пикселя
Соотношение сторон : 4:3
Частота кадров : 25,000 кадров/сек
Цветовое пространство : YUV
Субдискретизация насыщенности : 4:2:0
Битовая глубина : 8 бит
Тип развёртки : Прогрессивная
Метод сжатия : С потерями
Бит/(Пиксели*Кадры) : 0.172
Размер потока : 1,22 Гбайт (89%)
Библиотека кодирования : XviD 1.2.0.dev47 (UTC 2006-11-01)
Аудио
Идентификатор : 1
Формат : AC-3
Формат/Информация : Audio Coding 3
Расширение режима : CM (complete main)
Параметр Endianness формата : Big
Идентификатор кодека : 2000
Продолжительность : 1 ч. 43 м.
Вид битрейта : Постоянный
Битрейт : 192 Кбит/сек
Каналы : 2 канала
Расположение каналов : Front: L R
Частота : 48,0 КГц
Битовая глубина : 16 бит
Метод сжатия : С потерями
Размер потока : 142 Мбайт (10%)
Выравнивание : Разделение по промежуткам
Продолжительность промежутка : 96 мс. (2,40 видеокадра)
Время предзагрузки промежутка : 96 мс.
Язык : English
Скриншоты:
         
Other forum [Profile] [PM]
Display posts from previous:    
Reply to topic

The time now is: Today 12:26

All times are GMT + 3 Hours



You cannot post new topics in this forum
You cannot reply to topics in this forum
You cannot edit your posts in this forum
You cannot delete your posts in this forum
You cannot vote in polls in this forum
You cannot attach files in this forum
You cannot download files in this forum