Today is a free download without charge Download

Чикаго / Chicago (Роб Маршалл) [2002 г., мюзикл, драма, комедия, криминал, BDRip720p]

Reply to topic
 
Author
Message

Delia ®

Gender:

Longevity: 9 years 6 months

Posts: 1821

Торрент-статистика

Post 01-Sep-2011 16:04

[Quote]

ЧикагоChicago Год выпуска: 2002
Страна: США, Германия
Жанр: мюзикл, драма, комедия, криминал
Продолжительность: 01:53:26
Перевод: Профессиональный (многоголосый, закадровый)
Режиссер: Роб Маршалл
Продюссер: Мартин Ричардс, Дженнифер Берман, Харви Вайнштейн
Сценарий: Билл Кондон, Боб Фосси, Фред Эбб
Бюджет: $45 000 000
Премьера в мире: 10 декабря 2002
В ролях: Тэй Диггз, Рене Зеллвегер, Клифф Сондерс, Кэтрин Зета-Джонс, Ричард Гир, Куин Латифа, Джон Си Райли, Доминик Уэст, Кристин Барански, Джэйн Иствуд
Описание: Рокси Харт мечтает о песнях и танцах и о том, как сравняться с самой Велмой Келли, примадонной водевиля. И Рокси действительно оказывается с Велмой в одном положении, когда несколько очень неправильных шагов приводят обеих на скамью подсудимых.В угрюмых стенах тюрьмы Рокси встречает легендарного адвоката Билли Флинна, который соглашается взяться за ее дело. Карьера Рокси резко идет вверх. Но хитроумная мисс Келли приготовила всем большой сюрприз «под занавес»...
Качество: BDRip720p
Формат: MKV
Видео кодек: H.264
Аудио кодек: AC3
Видео: English, 4556 Кбит/сек, 1280*688 (1,860), в 23,976 кадр/сек, AVC ([email protected])
Аудио: Russian, 640 Кбит/сек, 48,0 КГц, 16 бит, 6 канала(ов), AC-3
Аудио:English, 320 Кбит/сек, 48,0 КГц, 16 бит, 6 канала(ов), AC-3

MI:

Общее
Уникальный идентификатор : 182213154031472059138563752312478974929 (0x8914FA1A1E7C3DF69AF4B44DC16543D1)
Полное имя : E:\торрент\Chikago.2002.x264.BDRip720p.mkv
Формат : Matroska
Размер файла : 4,37 Гбайт
Продолжительность : 1 ч. 53 м.
Общий поток : 5517 Кбит/сек
Дата кодирования : UTC 2011-09-01 04:00:10
Программа кодирования : mkvmerge v4.9.1 ('Ich will') built on Jul 11 2011 23:53:15
Библиотека кодирования : libebml v1.2.1 + libmatroska v1.1.1
Видео
Идентификатор : 1
Формат : AVC
Формат/Информация : Advanced Video Codec
Профиль формата : [email protected]
Параметр CABAC формата : Да
Параметр ReFrames формата : 9 кадры
Идентификатор кодека : V_MPEG4/ISO/AVC
Продолжительность : 1 ч. 53 м.
Битрейт : 4556 Кбит/сек
Ширина : 1280 пикс.
Высота : 688 пикс.
Соотношение сторон : 1,860
Частота кадров : 23,976 кадр/сек
Цветовое пространство : YUV
Подвыборка цветности : 4:2:0
Битовая глубина : 8 бит
Тип развёртки : Прогрессивная
Бит/(Пиксели*Кадры) : 0.216
Размер потока : 3,52 Гбайт (81%)
Библиотека кодирования : x264 core 116 r2074 2641b9e
Настройки программы : cabac=1 / ref=9 / deblock=1:-2:-2 / analyse=0x3:0x133 / me=umh / subme=8 / psy=1 / psy_rd=1.00:0.25 / mixed_ref=1 / me_range=32 / chroma_me=1 / trellis=2 / 8x8dct=1 / cqm=0 / deadzone=6,6 / fast_pskip=0 / chroma_qp_offset=-4 / threads=6 / sliced_threads=0 / nr=0 / decimate=0 / interlaced=0 / bluray_compat=0 / constrained_intra=0 / bframes=8 / b_pyramid=2 / b_adapt=2 / b_bias=0 / direct=3 / weightb=1 / open_gop=0 / weightp=2 / keyint=250 / keyint_min=23 / scenecut=40 / intra_refresh=0 / rc_lookahead=60 / rc=2pass / mbtree=1 / bitrate=4556 / ratetol=1.0 / qcomp=0.80 / qpmin=10 / qpmax=55 / qpstep=4 / cplxblur=20.0 / qblur=0.5 / ip_ratio=1.10 / aq=1:0.50
Язык : English
Аудио #1
Идентификатор : 2
Формат : AC-3
Формат/Информация : Audio Coding 3
Расширение режима : CM (complete main)
Идентификатор кодека : A_AC3
Продолжительность : 1 ч. 53 м.
Вид битрейта : Постоянный
Битрейт : 640 Кбит/сек
Канал(ы) : 6 канала(ов)
Расположение каналов : Front: L C R, Side: L R, LFE
Частота : 48,0 КГц
Битовая глубина : 16 бит
Метод сжатия : С потерями
Размер потока : 519 Мбайт (12%)
Язык : Russian
Аудио #2
Идентификатор : 3
Формат : AC-3
Формат/Информация : Audio Coding 3
Расширение режима : CM (complete main)
Идентификатор кодека : A_AC3
Продолжительность : 1 ч. 53 м.
Вид битрейта : Постоянный
Битрейт : 320 Кбит/сек
Канал(ы) : 6 канала(ов)
Расположение каналов : Front: L C R, Side: L R, LFE
Частота : 48,0 КГц
Битовая глубина : 16 бит
Метод сжатия : С потерями
Размер потока : 260 Мбайт (6%)
Язык : English

Скриншоты

       

_________________
Человек – это канат, натянутый между животным и сверхчеловеком, – канат над пропастью.
В человеке ценно то, что он мост, а не цель. Фридрих Ницше


Last edited by Delia on 2011-09-01 16:05; edited 1 time in total
Other forum [Profile] [PM]
Display posts from previous:    
Reply to topic

The time now is: Today 09:00

All times are GMT + 3 Hours



You cannot post new topics in this forum
You cannot reply to topics in this forum
You cannot edit your posts in this forum
You cannot delete your posts in this forum
You cannot vote in polls in this forum
You cannot attach files in this forum
You cannot download files in this forum