Today is a free download without charge Download

Перл Харбор / Pearl Harbor (Майкл Бэй) [2001 г., боевик, драма, мелодрама, военный, BDRip 1080p]

Reply to topic
 
Author
Message

zeke ®

Gender:

Longevity: 9 years 6 months

Posts: 66

Торрент-статистика

Post 01-Sep-2011 12:41

[Quote]

Перл Харбор / Pearl Harbor
«December 7, 1941 The day America stood still!»
- Год выпуска: 2001
Страна: США
Жанр: Боевик, драма, мелодрама, военный
Продолжительность: 03:03:05
Перевод:
■ Полный дублированный
■ Многоголосый закадровый
Субтитры:
■ Русские
■ Английские
Режиссер: Майкл Бэй
Продюссер: Майкл Бэй, Джерри Брукхаймер, Кенни Бейтс
Сценарий: Рэндалл Уоллес
Бюджет: $140 000 000
PG-13-Детям до 13 лет просмотр не желателен
Мировой рейтинг IMDB 5.50 (114 699)

В ролях: Бен Аффлек, Джош Хартнетт, Кейт Бекинсейл, Кьюба Гудинг мл., Джон Войт, Алек Болдуин, Том Сайзмор, Уильям Ли Скотт, Грег Зола, Юэн Бремн
Описание: Эта история двух друзей — летчиков. Их судьбы переплавились в топке Второй мировой войны. Их чувства были опалены языками великой страсти. Огонь стал для них вторым домом.Мир рушился, прошлое скрылось в сумерках пожарищ, и теперь за будущее должен был бороться каждый, на земле и на небе, в дружбе и вражде.
Качество: BDRip (1080p)
Формат: MKV
Видео кодек: H.264
Аудио кодек: AC3, DTS
Видео: [email protected], 1920x784 pix (16:9), 13.9 Mbps, 23.976 fps
Аудио:
■ 48.0 KHz, AC3, 6 channels, 640 Kbps [Дублированный]
■ 48.0 KHz, DTS, 6 channels, 755 Kbps [Закадровый]
■ 48.0 KHz, DTS, 6 channels, 755 Kbps [Закадровый, Карусель]
■ 48.0 KHz, DTS, 6 channels, 755 Kbps [Оригинал]
Релиз от:

MediaInfo

General
Unique ID : 206169634787380009349898695432863356728 (0x9B1AD3CBA3AAFFF0ACEFB830D00A1738)
Complete name : J:Pearl Harbor [BDRip 1080p] (2001).mkv
Format : Matroska
Format version : Version 2
File size : 21.5 GiB
Duration : 3h 3mn
Overall bit rate : 16.8 Mbps
Encoded date : UTC 2011-08-23 21:15:11
Writing application : mkvmerge v4.8.0 ('I Got The...') сборка от May 24 2011 03:12:58
Writing library : libebml v1.2.0 + libmatroska v1.1.0
Video
ID : 1
Format : AVC
Format/Info : Advanced Video Codec
Format profile : [email protected]
Format settings, CABAC : Yes
Format settings, ReFrames : 5 frames
Muxing mode : Header stripping
Codec ID : V_MPEG4/ISO/AVC
Duration : 3h 3mn
Bit rate : 13.9 Mbps
Width : 1 920 pixels
Height : 784 pixels
Display aspect ratio : 2.40:1
Frame rate : 23.976 fps
Color space : YUV
Chroma subsampling : 4:2:0
Bit depth : 8 bits
Scan type : Progressive
Bits/(Pixel*Frame) : 0.385
Stream size : 17.3 GiB (81%)
Title : for freeisland
Writing library : x264 core 115 r1995 c1e60b9
Encoding settings : cabac=1 / ref=5 / deblock=1:-1:-1 / analyse=0x3:0x133 / me=hex / subme=8 / psy=1 / psy_rd=1.00:0.15 / mixed_ref=1 / me_range=16 / chroma_me=1 / trellis=1 / 8x8dct=1 / cqm=0 / deadzone=21,11 / fast_pskip=1 / chroma_qp_offset=-3 / threads=6 / sliced_threads=0 / nr=0 / decimate=1 / interlaced=0 / bluray_compat=0 / constrained_intra=0 / bframes=10 / b_pyramid=2 / b_adapt=2 / b_bias=0 / direct=3 / weightb=1 / open_gop=0 / weightp=2 / keyint=250 / keyint_min=23 / scenecut=40 / intra_refresh=0 / rc_lookahead=50 / rc=2pass / mbtree=1 / bitrate=13909 / ratetol=1.0 / qcomp=0.60 / qpmin=0 / qpmax=69 / qpstep=4 / cplxblur=20.0 / qblur=0.5 / vbv_maxrate=50000 / vbv_bufsize=50000 / nal_hrd=none / ip_ratio=1.40 / aq=1:1.00
Language : English
Audio #1
ID : 2
Format : AC-3
Format/Info : Audio Coding 3
Mode extension : CM (complete main)
Muxing mode : Header stripping
Codec ID : A_AC3
Duration : 3h 3mn
Bit rate mode : Constant
Bit rate : 640 Kbps
Channel(s) : 6 channels
Channel positions : Front: L C R, Side: L R, LFE
Sampling rate : 48.0 KHz
Bit depth : 16 bits
Compression mode : Lossy
Stream size : 838 MiB (4%)
Title : 48.0 KHz, AC3, 6 channels, 640 Kbps [Дублированный]
Language : Russian
Audio #2
ID : 3
Format : DTS
Format/Info : Digital Theater Systems
Muxing mode : Header stripping
Codec ID : A_DTS
Duration : 3h 3mn
Bit rate mode : Constant
Bit rate : 755 Kbps
Channel(s) : 6 channels
Channel positions : Front: L C R, Side: L R, LFE
Sampling rate : 48.0 KHz
Bit depth : 24 bits
Compression mode : Lossy
Stream size : 988 MiB (4%)
Title : 48.0 KHz, DTS, 6 channels, 755 Kbps [Закадровый]
Language : Russian
Audio #3
ID : 4
Format : DTS
Format/Info : Digital Theater Systems
Muxing mode : Header stripping
Codec ID : A_DTS
Duration : 3h 3mn
Bit rate mode : Constant
Bit rate : 755 Kbps
Channel(s) : 6 channels
Channel positions : Front: L C R, Side: L R, LFE
Sampling rate : 48.0 KHz
Bit depth : 24 bits
Compression mode : Lossy
Stream size : 988 MiB (4%)
Title : 48.0 KHz, DTS, 6 channels, 755 Kbps [Закадровый, Карусель]
Language : Russian
Audio #4
ID : 5
Format : DTS
Format/Info : Digital Theater Systems
Muxing mode : Header stripping
Codec ID : A_DTS
Duration : 3h 3mn
Bit rate mode : Constant
Bit rate : 755 Kbps
Channel(s) : 6 channels
Channel positions : Front: L C R, Side: L R, LFE
Sampling rate : 48.0 KHz
Bit depth : 24 bits
Compression mode : Lossy
Stream size : 988 MiB (4%)
Title : 48.0 KHz, DTS, 6 channels, 755 Kbps
Language : English
Text #1
ID : 6
Format : UTF-8
Codec ID : S_TEXT/UTF8
Codec ID/Info : UTF-8 Plain Text
Language : Russian
Text #2
ID : 7
Format : UTF-8
Codec ID : S_TEXT/UTF8
Codec ID/Info : UTF-8 Plain Text
Language : English

Скриншоты

       

_________________
|LOST|


Last edited by zeke on 2011-10-02 21:33; edited 6 times in total
Other forum [Profile] [PM]
Display posts from previous:    
Reply to topic

The time now is: Today 08:58

All times are GMT + 3 Hours



You cannot post new topics in this forum
You cannot reply to topics in this forum
You cannot edit your posts in this forum
You cannot delete your posts in this forum
You cannot vote in polls in this forum
You cannot attach files in this forum
You cannot download files in this forum