Today is a free download without charge Download

Приключения Чипа (Леонид Кощеников) [1979 г., мультфильм, DVB]

Reply to topic
 
Author
Message

Omen ®

Longevity: 8 years 11 months

Posts: 181086

Торрент-статистика

Post 19-Jul-2013 05:10

[Quote]

Приключения Чипа
Жанр: мультфильм
Год выпуска: 1979
Продолжительность: 00:19:56
Режиссёр: Леонид Кощеников
Описание: Когда избалованная девочка Сусанна Кольчикова узнала, что из цирка сбежал тигрёнок по имени Чип, то захотела, чтобы тигрёнок был у неё дома. Послушные бабушки Сусанны вместе с внучкой сделали так, что тигрёнок оказался у них. Но в возникшей суматохе тигрёнок убежал на балкон, где его перехватила Лёлишна и препроводила назад в цирк ...
Доп. информация: по мотивам повести пермского писателя Льва Давыдычева «Лёлишна из третьего подъезда».

Трансляция спутникового канала: "Карусель"
Качество видео: DVB
Формат видео: MPEG-PS
Видео: MPEG2 Video, 720x576, 25 fps, 3500 kbps
Аудио: MPEG Audio, 2 сh, 48 kHz, 192 kbps

MediaInfo

General
Complete name : D:\Приключения Чипа. (1979)_DVB by SLuMeP.mpg
Format : MPEG-PS
File size : 533 MiB
Duration : 19mn 56s
Overall bit rate mode : Variable
Overall bit rate : 3 735 Kbps
Video
ID : 224 (0xE0)
Format : MPEG Video
Format version : Version 2
Format profile : [email protected]
Format settings, BVOP : Yes
Format settings, Matrix : Custom
Format settings, GOP : M=3, N=12
Duration : 19mn 56s
Bit rate mode : Variable
Bit rate : 3 469 Kbps
Maximum bit rate : 5 000 Kbps
Width : 720 pixels
Height : 576 pixels
Display aspect ratio : 4:3
Frame rate : 25.000 fps
Standard : PAL
Color space : YUV
Chroma subsampling : 4:2:0
Bit depth : 8 bits
Scan type : Interlaced
Scan order : Top Field First
Compression mode : Lossy
Bits/(Pixel*Frame) : 0.335
Time code of first frame : 00:00:00:00
Time code source : Group of pictures header
Stream size : 495 MiB (93%)
Audio
ID : 192 (0xC0)
Format : MPEG Audio
Format version : Version 1
Format profile : Layer 2
Duration : 19mn 56s
Bit rate mode : Constant
Bit rate : 192 Kbps
Channel(s) : 2 channels
Sampling rate : 48.0 KHz
Compression mode : Lossy
Stream size : 27.4 MiB (5%)

Скриншоты

Other forum [Profile] [PM]
Similar theme
Forum Topic Author Torrent Replies Last Post
./templates/default/images/folder_dl.gif Фильмы 2001-2010 Римские приключения / To Rome with Love (Вуди Аллен)[2012, Мелодрама, комедия] BDRip 720p| Лицензия| DeadMmau5
1 | 0

0 | 608

9

2012-12-05 19:42
DeadMmau5 Latest
./templates/default/images/folder_dl.gif Обучающее видео Учебный центр 1C | Использование прикладного решения 1С Розница 8.2 Редакция 2 (2015) PCRec Varius
1 | 0

0 | 2514

44

2015-07-16 05:16
Varius Latest
./templates/default/images/folder_dl.gif Зарубежное кино (HD Video) Доктор Стрэндж / Doctor Strange (Скотт Дерриксон) [2016, Фантастика, Фэнтези, Боевик, Приключения, BDRip 720p] Dub (iTunes) Omen
1 | 0

0 | 807

3

2016-03-09 18:02
Omen Latest
./templates/default/images/folder_dl.gif Фильмы 2011-2020 Алита: Боевой ангел / Alita: Battle Angel (Роберт Родригес) [2019 г., фантастика, боевик, триллер, мелодрама, приключения, WEB-DLRip]MVO | CВ Студия kilmister777
1 | 0

0 | 816

0

2019-06-30 17:02
kilmister777 Latest
Display posts from previous:    
Reply to topic

The time now is: Today 23:30

All times are GMT + 3 Hours



You cannot post new topics in this forum
You cannot reply to topics in this forum
You cannot edit your posts in this forum
You cannot delete your posts in this forum
You cannot vote in polls in this forum
You cannot attach files in this forum
You cannot download files in this forum