Today is a free download without charge Download

Неизведанные острова (8 серий из 8) / Wildest Islands (2012 -2013) HDTVRip [H.264/720p-LQ]

Reply to topic
 
Author
Message

UndegraundMen ®

Longevity: 7 years 7 months

Posts: 25145

Торрент-статистика

Post 17-Jul-2013 23:02

[Quote]

Неизведанные острова (8 серий из 8) / Wildest Islands (2012 -2013) HDTVRip [H.264/720p-LQ]- Режиссер / Телекомпания: Colin Collis, Richard Kirby / Off The Fence for Discovery LLC
Год выпуска: 2012 -2013
Жанр: Документальный
Описание:
У каждого райского острова есть свои хозяева - их исконные обитатели: от гигантов, оставшихся здесь со времён динозавров, до крохотных трудяг, не встречающихся больше нигде. Здесь самая большая в мире концентрация видов, здесь есть, на что посмотреть. Острова часто становятся домом для необычных созданий. Исследуем самые красивые острова планеты, и знакомимся с людьми и животными, для которых это родной дом.
Продолжительность: 8 х ~00:43:00
Качество видео: HDTVRip [720p-LQ]
Перевод: Одноголосый закадровый, профессиональный
Видеокодек: MPEG-4 AVC/H.264
Битрейт видео: ~4,2 Мбит/с
Размер кадра: 1280 х 720, 16:9
Аудиокодек: AC3 5.1 ch
Аудио #1: Русский 5.1 / 48 kHz / 384 kb/s / 16-bit
Аудио #2: Английский 5.1 / 48 kHz / 384 kb/s / 16-bit

Список серий

01. Занзибар (2012)
На архипелаге Занзибар обитают гигантские черепахи-алдабра, большие зеленые черепахи, кокосовые крабы, огромные китовые акулы и громадные скаты. Чем привлекает их среда обитания?
02. Карибы (2012)
В районе Карибов можно обнаружить более 800 видов рыб, кожистых черепах, обезьян, шелковистых муравьедов, алых ибисов и очковых кайманов. В чем преимущества этой среды обитания?
03. Галапагосские (2012)
Как людям, растениям и животным удается выживать и благоденствовать в отдаленных местах, таких как Галапагосские острова или буйные леса Занзибара? Вы можете узнать об этом.
04. Шри Ланка (2012)
Как умудряются люди, растения и животные выживать в экстремальных условиях различных природных зон, от Галапагосских островов до буйных лесов Занзибара? Попробуем узнать.
05. Гебриды (2012)
Гебридские острова - среда обитания тупиков, золотоголовых орлов, гигантских акул, китов, дельфинов, нутрий и коростелей. В чем преимущества этой среды обитания?
06. Бразилия /Амазонка (2013)
Познакомьтесь с удивительными обитателями этих островов, затерянных посреди джунглей, на реках Рио Негро и Амазонке. Как им удалось приспособиться к местным условиям?
07. Ванкувер (2013)
Остров Ванкувер — обширная территория, где сохранилась дикая природа. По всей длине острова, будто позвоночник, тянутся зубчатые горы. Природа острова Ванкувер уникальна.
08. Япония (2013)
Япония.Страна с широким спектром проявления природы.От заснеженных вершин до влажных мангровых лесов.Но животные научились выживать везде.Животный мир Японии неповторим.Уникальные коренные обитатели и необычные гости живут здесь на таких разных островах.

Mediainfo (тех. данные всех файлов одинаковы)

Общее
Уникальный идентификатор : 226535566988009029996404426366380683514 (0xAA6D29C705CCBE758A0E235E341C30FA)
Полное имя : D:\Wildest Islands\01. Zanzibar.mkv
Формат : Matroska
Версия формата : Version 4 / Version 2
Размер файла : 1,52 Гбайт
Продолжительность : 43 м.
Общий поток : 4970 Кбит/сек
Дата кодирования : UTC 2010-02-22 21:41:31
Программа кодирования : mkvmerge v5.9.0 ('On The Loose') built on Dec 9 2012 15:37:01
Библиотека кодирования : libebml v1.3.0 + libmatroska v1.4.0
Видео
Идентификатор : 1
Формат : AVC
Формат/Информация : Advanced Video Codec
Профиль формата : [url=mailto:[email protected]][email protected][/url]
Параметр CABAC формата : Да
Параметр ReFrames формата : 6 кадров
Идентификатор кодека : V_MPEG4/ISO/AVC
Продолжительность : 43 м.
Битрейт : 4200 Кбит/сек
Ширина : 1280 пикселей
Высота : 720 пикселей
Соотношение сторон : 16:9
Частота кадров : 25,000 кадров/сек
Цветовое пространство : YUV
Субдискретизация насыщенности : 4:2:0
Битовая глубина : 8 бит
Тип развёртки : Прогрессивная
Бит/(Пиксели*Кадры) : 0.182
Размер потока : 1,26 Гбайт (83%)
Заголовок : Wildest Islands (/*spam*/)
Библиотека кодирования : x264 core 130 r2273 b3065e6
Настройки программы : cabac=1 / ref=6 / deblock=1:-3:-3 / analyse=0x3:0x133 / me=tesa / subme=11 / psy=1 / psy_rd=1.00:0.10 / mixed_ref=1 / me_range=32 / chroma_me=1 / trellis=2 / 8x8dct=1 / cqm=0 / deadzone=21,11 / fast_pskip=0 / chroma_qp_offset=-3 / threads=6 / lookahead_threads=1 / sliced_threads=0 / nr=0 / decimate=0 / interlaced=0 / bluray_compat=0 / constrained_intra=0 / bframes=4 / b_pyramid=2 / b_adapt=2 / b_bias=0 / direct=3 / weightb=1 / open_gop=0 / weightp=2 / keyint=250 / keyint_min=25 / scenecut=40 / intra_refresh=0 / rc_lookahead=60 / rc=2pass / mbtree=1 / bitrate=4200 / ratetol=1.0 / qcomp=0.60 / qpmin=0 / qpmax=69 / qpstep=4 / cplxblur=20.0 / qblur=0.5 / ip_ratio=1.40 / aq=1:1.00
Язык : English
Default : Да
Forced : Нет
Аудио #1
Идентификатор : 2
Формат : AC-3
Формат/Информация : Audio Coding 3
Расширение режима : CM (complete main)
Параметр Endianness формата : Big
Идентификатор кодека : A_AC3
Продолжительность : 43 м.
Вид битрейта : Постоянный
Битрейт : 384 Кбит/сек
Каналы : 6 каналов
Расположение каналов : Front: L C R, Side: L R, LFE
Частота : 48,0 КГц
Битовая глубина : 16 бит
Метод сжатия : С потерями
Размер потока : 120 Мбайт (8%)
Язык : Russian
Default : Да
Forced : Нет
Аудио #2
Идентификатор : 3
Формат : AC-3
Формат/Информация : Audio Coding 3
Расширение режима : CM (complete main)
Параметр Endianness формата : Big
Идентификатор кодека : A_AC3
Продолжительность : 43 м.
Вид битрейта : Постоянный
Битрейт : 384 Кбит/сек
Каналы : 6 каналов
Расположение каналов : Front: L C R, Side: L R, LFE
Частота : 48,0 КГц
Битовая глубина : 16 бит
Метод сжатия : С потерями
Размер потока : 120 Мбайт (8%)
Язык : English
Default : Нет
Forced : Нет
Скриншоты:          
         
Other forum [Profile] [PM]
Display posts from previous:    
Reply to topic

The time now is: Today 07:35

All times are GMT + 3 Hours



You cannot post new topics in this forum
You cannot reply to topics in this forum
You cannot edit your posts in this forum
You cannot delete your posts in this forum
You cannot vote in polls in this forum
You cannot attach files in this forum
You cannot download files in this forum