Today is a free download without charge Download

Несмышлёный воробей (Нина Василенко) [1970, рисованный мультфильм, DVB]

Reply to topic
 
Author
Message

Omen ®

Longevity: 7 years 11 months

Posts: 181087

Торрент-статистика

Post 17-Jul-2013 13:04

[Quote]

Несмышлёный воробей
Жанр: рисованный мультфильм
Год выпуска: 1970
Продолжительность: 00:09:04
Режиссёр: Нина Василенко
Описание: Фильм по мотивам сказки Леси Украинки "Беда научит" о дружбе и взаимоподдержке. Про то, как небольшой несмышленый воробей просил старших: мудрую сову, дедушку ворона и других – научить уму-разуму и что из этого получилось ....
Трансляция спутникового канала: "Карусель"
Качество видео: DVB
Формат видео: MPEG-PS
Видео: MPEG2 Video, 720x576, 25 fps, 3600 kbps
Аудио: MPEG Audio, 2 сh, 48 kHz, 192 kbps

MediaInfo

General
Complete name : D:\Несмышленый воробей. (1970)_DVB by SLuMeP.mpg
Format : MPEG-PS
File size : 249 MiB
Duration : 9mn 4s
Overall bit rate mode : Variable
Overall bit rate : 3 839 Kbps
Video
ID : 224 (0xE0)
Format : MPEG Video
Format version : Version 2
Format profile : [email protected]
Format settings, BVOP : Yes
Format settings, Matrix : Custom
Format settings, GOP : M=3, N=12
Duration : 9mn 4s
Bit rate mode : Variable
Bit rate : 3 570 Kbps
Maximum bit rate : 5 000 Kbps
Width : 720 pixels
Height : 576 pixels
Display aspect ratio : 4:3
Frame rate : 25.000 fps
Standard : PAL
Color space : YUV
Chroma subsampling : 4:2:0
Bit depth : 8 bits
Scan type : Interlaced
Scan order : Top Field First
Compression mode : Lossy
Bits/(Pixel*Frame) : 0.344
Time code of first frame : 00:00:00:00
Time code source : Group of pictures header
Stream size : 232 MiB (93%)
Audio
ID : 192 (0xC0)
Format : MPEG Audio
Format version : Version 1
Format profile : Layer 2
Duration : 9mn 4s
Bit rate mode : Constant
Bit rate : 192 Kbps
Channel(s) : 2 channels
Sampling rate : 48.0 KHz
Compression mode : Lossy
Stream size : 12.5 MiB (5%)

Скриншоты

Other forum [Profile] [PM]
Display posts from previous:    
Reply to topic

The time now is: Today 06:20

All times are GMT + 3 Hours



You cannot post new topics in this forum
You cannot reply to topics in this forum
You cannot edit your posts in this forum
You cannot delete your posts in this forum
You cannot vote in polls in this forum
You cannot attach files in this forum
You cannot download files in this forum