Today is a free download without charge Download

Discovery: Утраченный символ. Секреты тайного братства / Discovery: Hunting The Lost Symbol (2009) HDTVRip [H.264/720p-LQ]

Reply to topic
 
Author
Message

UndegraundMen ®

Longevity: 7 years 7 months

Posts: 25145

Торрент-статистика

Post 16-Jul-2013 23:00

[Quote]

Discovery: Утраченный символ. Секреты тайного братства / Discovery: Hunting The Lost Symbol (2009) HDTVRip [H.264/720p-LQ]- Русское название: Discovery: Утраченный символ. Секреты тайного братства
Оригинальное название: Discovery: Hunting The Lost Symbol
Страна: США
Режиссер / Телекомпания: Джон Тиндалл / Paranormal Media for Discovery channel
Год выпуска: 2009
Жанр: документальный, природа
Описание: Провокационный роман Дэна Брауна «Утраченный символ» разошелся по всему миру многомиллионным тиражом. Автор книги и специалист по теориям заговоров, посвятивший свои предыдущие работы «Код Да Винчи» и «Ангелы и Демоны» теме христианства, в новом своем произведении рассказывает о тайном обществе масонов. Создатели этого фильма совместно с известными историками, психологами, писателями продолжают разговор начатый автором романа и вместе распутывают клубок из мрачных тайн прошлого. Они тщательно изучают артефакты вашингтонского Капитолия и анализируют интересные исторические факты. Что из упомянутого в романе правда, а что вымысел? Насколько велико влияние масонов в современном обществе, и о чем в книге Дэна Брауна упомянуто не было?
Продолжительность: 01:27:33
Перевод: Двуголосый закадровый (профессиональный)
Формат файла: MKV
Видеокодек: MPEG-4 AVC/H.264
Битрейт видео: ~ 3 188 Кбит/с
Размер кадра: 1280 x 720
Качество видео: HDTVRip [720p-LQ]
Аудио:
1. [Русский] AC3, 5.1 ch, 384 Кбит/с
2. [English] АС3, 5.1 ch, 384 Кбит/с

MediaInfo

General
Unique ID : 216622300044285161416028289139726983419 (0xA2F7EFFB438D8DC88D141386BE8DA0FB)
Complete name : A:\Релизы\Discovery.Hunting.The.Lost.Symbol(2009).HDTVRip.720p.mkv
Format : Matroska
Format version : Version 2
File size : 2.42 GiB
Duration : 1h 27mn
Overall bit rate : 3 958 Kbps
Encoded date : UTC 2010-10-20 23:19:32
Writing application : mkvmerge v3.2.0 ('Beginnings') built on Feb 12 2010 16:46:17
Writing library : libebml v0.7.9 + libmatroska v0.8.1
Video
ID : 1
Format : AVC
Format/Info : Advanced Video Codec
Format profile : [url=mailto:[email protected]][email protected][/url]
Format settings, CABAC : Yes
Format settings, ReFrames : 4 frames
Codec ID : V_MPEG4/ISO/AVC
Duration : 1h 27mn
Bit rate : 3 188 Kbps
Width : 1 280 pixels
Height : 720 pixels
Display aspect ratio : 16:9
Frame rate mode : Constant
Frame rate : 29.970 fps
Color space : YUV
Chroma subsampling : 4:2:0
Bit depth : 8 bits
Scan type : Progressive
Bits/(Pixel*Frame) : 0.115
Stream size : 1.90 GiB (79%)
Writing library : x264 core 98 r1649 20cbe10
Encoding settings : cabac=1 / ref=5 / deblock=1:0:0 / analyse=0x3:0x113 / me=umh / subme=7 / psy=1 / psy_rd=1.00:0.00 / mixed_ref=1 / me_range=16 / chroma_me=1 / trellis=1 / 8x8dct=1 / cqm=0 / deadzone=21,11 / fast_pskip=0 / chroma_qp_offset=-2 / threads=10 / sliced_threads=0 / nr=0 / decimate=1 / interlaced=0 / constrained_intra=0 / bframes=3 / b_pyramid=1 / b_adapt=1 / b_bias=0 / direct=1 / weightb=1 / weightp=2 / keyint=300 / keyint_min=30 / scenecut=40 / intra_refresh=0 / rc_lookahead=40 / rc=2pass / mbtree=1 / bitrate=3188 / ratetol=1.0 / qcomp=0.60 / qpmin=10 / qpmax=51 / qpstep=4 / cplxblur=20.0 / qblur=0.5 / ip_ratio=1.40 / aq=1:1.00
Language : English
Default : No
Forced : No
Audio #1
ID : 2
Format : AC-3
Format/Info : Audio Coding 3
Mode extension : CM (complete main)
Format settings, Endianness : Big
Codec ID : A_AC3
Duration : 1h 27mn
Bit rate mode : Constant
Bit rate : 384 Kbps
Channel(s) : 6 channels
Channel positions : Front: L C R, Side: L R, LFE
Sampling rate : 48.0 KHz
Bit depth : 16 bits
Compression mode : Lossy
Stream size : 241 MiB (10%)
Title : utrachennyj.simvol_by_nyctalus
Language : Russian
Default : Yes
Forced : Yes
Audio #2
ID : 3
Format : AC-3
Format/Info : Audio Coding 3
Mode extension : CM (complete main)
Format settings, Endianness : Big
Codec ID : A_AC3
Duration : 1h 27mn
Bit rate mode : Constant
Bit rate : 384 Kbps
Channel(s) : 6 channels
Channel positions : Front: L C R, Side: L R, LFE
Sampling rate : 48.0 KHz
Bit depth : 16 bits
Compression mode : Lossy
Stream size : 241 MiB (10%)
Title : lost.symbol
Language : English
Default : No
Forced : No
Text
ID : 4
Format : UTF-8
Codec ID : S_TEXT/UTF8
Codec ID/Info : UTF-8 Plain Text
Title : utrachennyj.simvol_by_nyctalus
Language : Russian
Default : No
Forced : No
Скриншоты:
         
         
Пожалуйста, не уходите с раздачи - помогите докачать другим. Если понравился релиз - жмите кнопку "Спасибо"!
Other forum [Profile] [PM]
Display posts from previous:    
Reply to topic

The time now is: Today 16:17

All times are GMT + 3 Hours



You cannot post new topics in this forum
You cannot reply to topics in this forum
You cannot edit your posts in this forum
You cannot delete your posts in this forum
You cannot vote in polls in this forum
You cannot attach files in this forum
You cannot download files in this forum