Today is a free download without charge Download

Red Hot Chili Peppers - Rock am Pott 2012 [2013, Alternative rock, HDTV 720p]

Reply to topic
 
Author
Message

Omen ®

Longevity: 8 years 4 months

Posts: 181087

Торрент-статистика

Post 16-Jul-2013 04:17

[Quote]

Red Hot Chili Peppers - Rock am Pott 2012
Жанр: Alternative rock
Продолжительность: 01:44:22
Год выпуска: 2013
Описание: Выступление alternative rock группы Red Hot Chili Peppers на рок фестивале Rock am Pott на арене Gelsenkirchen в Германии 2012 aug25
Доп. информация: Показ в рамках программы Rockpalast.
Собственная запись со спутникового канала WDR 2013 jul14
01 - Monarchy Of Roses
02 - Dani California
03 - Can't Stop
04 - Scar Tissue
05 - Look Around
06 - Throw Away Your Television
07 - Universally Speaking
08 - Soul To Squeeze
09 - The Adventures Of Rain Dance Maggie
10 - I Like Dirt
11 - Under The Bridge (Long Progression Tease)
12 - Higher Ground (Stevie Wonder Cover)
13 - Californication
14 - Goodbye Hooray
15 - By The Way
Encore:
Chad & Mauro & Josh Jam
Suck My Kiss
Ethiopia
Give It Away
Качество: HDTV 720p
Контейнер: TS
Видео кодек: H.264
Аудио кодек: AC3
Видео: Mpeg4 AVC, 1280x720, 16:9, 8930 kbps, 50 fps Progressive
Аудио: AC3, 448 kbps, 48 kHz, stereo
Аудио 2: MP2, 192 kbps, 48 kHz, stereo
Аудио 3: MP2, 192 kbps, 48 kHz, stereo

Отчёт MediaInfo / BDInfo

GeneralID : 1 (0x1)Complete name : D:\Downloads\Red Hot Chili Peppers - Rock am Pott 2012.tsFormat : MPEG-TSFile size : 7.49 GiBDuration : 1h 44mnOverall bit rate mode : VariableOverall bit rate : 10.3 Mbps
VideoID : 5501 (0x157D)Menu ID : 1 (0x1)Format : AVCFormat/Info : Advanced Video CodecFormat profile : [email protected] settings, CABAC : YesFormat settings, ReFrames : 4 framesCodec ID : 27Duration : 1h 44mnBit rate : 8 928 KbpsWidth : 1 280 pixelsHeight : 720 pixelsDisplay aspect ratio : 16:9Frame rate : 50.000 fpsColor space : YUVChroma subsampling : 4:2:0Bit depth : 8 bitsScan type : ProgressiveBits/(Pixel*Frame) : 0.194Stream size : 6.51 GiB (87%)
Audio #1ID : 5502 (0x157E)Menu ID : 1 (0x1)Format : MPEG AudioFormat version : Version 1Format profile : Layer 2Codec ID : 3Duration : 1h 44mnBit rate mode : ConstantBit rate : 192 KbpsChannel(s) : 2 channelsSampling rate : 48.0 KHzCompression mode : LossyStream size : 143 MiB (2%)Language : German
Audio #2ID : 5503 (0x157F)Menu ID : 1 (0x1)Format : MPEG AudioFormat version : Version 1Format profile : Layer 2Codec ID : 3Duration : 1h 44mnBit rate mode : ConstantBit rate : 192 KbpsChannel(s) : 2 channelsSampling rate : 48.0 KHzCompression mode : LossyStream size : 143 MiB (2%)
Audio #3ID : 5506 (0x1582)Menu ID : 1 (0x1)Format : AC-3Format/Info : Audio Coding 3Mode extension : CM (complete main)Format settings, Endianness : BigCodec ID : 6Duration : 1h 44mnBit rate mode : ConstantBit rate : 448 KbpsChannel(s) : 2 channelsChannel positions : Front: L RSampling rate : 48.0 KHzBit depth : 16 bitsCompression mode : LossyStream size : 334 MiB (4%)Language : German
TextID : 5504 (0x1580)-100Menu ID : 1 (0x1)Format : TeletextLanguage : German
MenuID : 5520 (0x1590)Menu ID : 1 (0x1)Duration : 1h 44mnList : 5501 (0x157D) (AVC) / 5502 (0x157E) (MPEG Audio, German) / 5503 (0x157F) (MPEG Audio) / 5506 (0x1582) (AC-3, German) / 5504 (0x1580) ()Language : / German / / German

Скриншоты

Other forum [Profile] [PM]
Display posts from previous:    
Reply to topic

The time now is: Today 15:29

All times are GMT + 3 Hours



You cannot post new topics in this forum
You cannot reply to topics in this forum
You cannot edit your posts in this forum
You cannot delete your posts in this forum
You cannot vote in polls in this forum
You cannot attach files in this forum
You cannot download files in this forum