Today is a free download without charge Download

Грязная дюжина / The Dirty Dozen (Роберт Олдрич) [1967 г., боевик, драма, военный, BDRip720p]

Reply to topic
 
Author
Message

Delia ®

Gender:

Longevity: 9 years 6 months

Posts: 1821

Торрент-статистика

Post 31-Aug-2011 08:05

[Quote]

Грязная дюжинаThe Dirty Dozen Год выпуска: 1967
Страна: США, Великобритания
Жанр: боевик, драма, военный
Продолжительность: 02:29:37
Перевод: Профессиональный (многоголосый, закадровый)
Режиссер: Роберт Олдрич
Продюссер: Кеннет Химэн
Сценарий: Наннэлли Джонсон, Лукас Хеллер
Премьера в мире: 15 июня 1967
В ролях: Ли Марвин, Эрнест Боргнайн, Чарльз Бронсон, Джим Браун, Джон Кассаветис, Ричард Джэкел, Джордж Кеннеди, Трини Лопес, Ральф Микер, Роберт Райан, Телли Савалас, Дональд Сазерленд, Клинт Уокер, Роберт Уэббер, Том Басби, Бен Кэрразерс, Стюарт Купер, Роберт Филлипс, Колин Мейтленд, Аль Манчини, Джордж Рубисек, Зик Уилсон, Дора Рейсье, Герард Хайнц, Джон Холлис, Хильдегард Кнеф, Ричард Марнер, Дик Миллер, Сюзанн Оуенс, Фредерик Шиллер
Описание: Майор Райзман (Ли Марвин), числящийся у начальства на не очень хорошем счету из-за строптивости характера, получает возможность реабилитировать себя благодаря исключительно опасной миссии. Ему в подчинение выделяют двенадцать солдат, приговорённых трибуналом к смертной казни или отбыванию длительного срока на каторге. Флегматичный сын шахтёра Джозеф Владислав , бывший уголовник Виктор Франко , религиозный фанатик Арчер Мэгготт и другие члены команды, назвавшие себя «грязной дюжиной», проходят полугодовой курс интенсивной тренировки, чтобы затем осуществить дерзкую диверсию в тылу у нацистов.
Качество: BDRip720p
Формат: MKV
Видео кодек: H.264
Аудио кодек: AC3
Видео: English, 6076 Кбит/сек, 1280*720 (16:9), в 23,976 кадр/сек, AVC ([email protected])
Аудио: Russian,192 Кбит/сек, 48,0 КГц, 16 бит, 2 канала(ов) Профессиональный многоголосый (SomeWax)
Дополнительно отдельными файлами :
Russian,448 Кбит/сек, 48,0 КГц, 16 бит, 6 канала(ов), AC-3 (Профессиональный многоголосый (DVDMagic)
Russian,205 Мбайт, 2 ч. 29 м.192 Кбит/сек, 48,0 КГц, 16 бит, 1 канал, AC-3 (Профессиональный многоголосый (UPR)
English,342 Мбайт, 2 ч. 29 м.320 Кбит/сек, 48,0 КГц, 16 бит, 6 канала(ов), AC-3 ( Оригинал)
Субтитры:Russian, English - VobSub

Доп. информация награды:

Номинации, фестивали:
Премия "Оскар"(1967), Лучшие звуковые эффекты (Джо Пойнер).
Номинация на "Оскара"(1967):
Лучший актер второго плана (Джон Кассаветес).
Лучший монтаж.

MI:

Общее
Уникальный идентификатор : 188817625114995148471863847936290993265 (0x8E0CF3AAB7E5A125BCBA6A5507103471)
Полное имя : E:\торрент\The Dirty Dozen (1967)BDRip720p\The Dirty Dozen (1967)BDRip720p.mkv
Формат : Matroska
Размер файла : 6,56 Гбайт
Продолжительность : 2 ч. 29 м.
Общий поток : 6275 Кбит/сек
Дата кодирования : UTC 2011-08-31 03:38:28
Программа кодирования : mkvmerge v4.9.1 ('Ich will') built on Jul 11 2011 23:53:15
Библиотека кодирования : libebml v1.2.1 + libmatroska v1.1.1
Видео
Идентификатор : 1
Формат : AVC
Формат/Информация : Advanced Video Codec
Профиль формата : [email protected]
Параметр CABAC формата : Да
Параметр ReFrames формата : 9 кадры
Идентификатор кодека : V_MPEG4/ISO/AVC
Продолжительность : 2 ч. 29 м.
Битрейт : 6076 Кбит/сек
Ширина : 1280 пикс.
Высота : 720 пикс.
Соотношение сторон : 16:9
Частота кадров : 23,976 кадр/сек
Цветовое пространство : YUV
Подвыборка цветности : 4:2:0
Битовая глубина : 8 бит
Тип развёртки : Прогрессивная
Бит/(Пиксели*Кадры) : 0.275
Размер потока : 6,23 Гбайт (95%)
Библиотека кодирования : x264 core 116 r2074 2641b9e
Настройки программы : cabac=1 / ref=9 / deblock=1:-2:-2 / analyse=0x3:0x133 / me=umh / subme=8 / psy=1 / psy_rd=1.00:0.25 / mixed_ref=1 / me_range=24 / chroma_me=1 / trellis=2 / 8x8dct=1 / cqm=0 / deadzone=6,6 / fast_pskip=0 / chroma_qp_offset=-4 / threads=6 / sliced_threads=0 / nr=0 / decimate=0 / interlaced=0 / bluray_compat=0 / constrained_intra=0 / bframes=8 / b_pyramid=2 / b_adapt=2 / b_bias=0 / direct=3 / weightb=1 / open_gop=0 / weightp=2 / keyint=250 / keyint_min=23 / scenecut=40 / intra_refresh=0 / rc_lookahead=60 / rc=2pass / mbtree=1 / bitrate=6076 / ratetol=1.0 / qcomp=0.80 / qpmin=10 / qpmax=55 / qpstep=4 / cplxblur=20.0 / qblur=0.5 / ip_ratio=1.10 / aq=1:0.50
Язык : English
Аудио
Идентификатор : 2
Формат : AC-3
Формат/Информация : Audio Coding 3
Расширение режима : CM (complete main)
Идентификатор кодека : A_AC3
Продолжительность : 2 ч. 29 м.
Вид битрейта : Постоянный
Битрейт : 192 Кбит/сек
Канал(ы) : 2 канала(ов)
Расположение каналов : Front: L R
Частота : 48,0 КГц
Битовая глубина : 16 бит
Метод сжатия : С потерями
Задержка видео : 3 мс.
Размер потока : 205 Мбайт (3%)
Текст #1
Идентификатор : 3
Формат : VobSub
Режим смешивания : zlib
Идентификатор кодека : S_VOBSUB
Идентификатор кодека/Информация : The same subtitle format used on DVDs
Язык : Russian
Текст #2
Идентификатор : 4
Формат : VobSub
Режим смешивания : zlib
Идентификатор кодека : S_VOBSUB
Идентификатор кодека/Информация : The same subtitle format used on DVDs
Язык : English
Меню
00:00:00.000 : en:00:00:00.000
00:02:20.140 : en:00:02:20.140
00:11:28.855 : en:00:11:28.855
00:14:54.060 : en:00:14:54.060
00:18:55.468 : en:00:18:55.468
00:27:57.342 : en:00:27:57.342
00:30:59.858 : en:00:30:59.858
00:36:20.178 : en:00:36:20.178
00:38:19.297 : en:00:38:19.297
00:40:48.780 : en:00:40:48.780
00:42:35.720 : en:00:42:35.720
00:46:05.596 : en:00:46:05.596
00:50:53.884 : en:00:50:53.884
00:54:39.943 : en:00:54:39.943
00:56:26.883 : en:00:56:26.883
01:03:18.795 : en:01:03:18.795
01:06:17.140 : en:01:06:17.140
01:07:46.062 : en:01:07:46.062
01:14:02.438 : en:01:14:02.438
01:17:46.161 : en:01:17:46.161
01:20:45.340 : en:01:20:45.340
01:24:26.061 : en:01:24:26.061
01:30:12.907 : en:01:30:12.907
01:36:15.937 : en:01:36:15.937
01:40:19.013 : en:01:40:19.013
01:44:08.909 : en:01:44:08.909
01:46:37.391 : en:01:46:37.391
01:51:43.947 : en:01:51:43.947
01:56:41.161 : en:01:56:41.161
02:02:44.691 : en:02:02:44.691
02:07:42.989 : en:02:07:42.989

Скриншоты

       

_________________
Человек – это канат, натянутый между животным и сверхчеловеком, – канат над пропастью.
В человеке ценно то, что он мост, а не цель. Фридрих Ницше


Last edited by Delia on 2011-08-31 08:06; edited 1 time in total
Other forum [Profile] [PM]
Display posts from previous:    
Reply to topic

The time now is: Today 18:03

All times are GMT + 3 Hours



You cannot post new topics in this forum
You cannot reply to topics in this forum
You cannot edit your posts in this forum
You cannot delete your posts in this forum
You cannot vote in polls in this forum
You cannot attach files in this forum
You cannot download files in this forum