Today is a free download without charge Download

Последний изгой / The Last Outlaw (Джеф Мерфи) (Вестерн 1993) HDTVRip [H.264]

Reply to topic
 
Author
Message

Omen ®

Longevity: 8 years 11 months

Posts: 181086

Торрент-статистика

Post 14-Jul-2013 18:00

[Quote]

Последний изгой
The Last Outlaw
- Год выпуска: 1993
Производство: США / Home Box Office
Жанр: Вестерн-Описание фильма:
Они шли по одной дороге жизни, и проходя, оставляли кровь убитых и разорение. Они грабили безжалостно, и улыбались, когда смерть смотрела им в глаза. Они были больше, чем братья, готовые принять пулю друг за друга. Но случай сделал их врагами. И кто-то один должен был остаться в живых.
Режиссер: Джеф Мерфи
Продюсер: Джон Дэвис, Мэрилл Х. Карпф, Джеймс Маргеллос
Актеры: Микки Рурк, Дермот Малруни, Тед Левайн, Джон К. МакГинли, Стив Бушеми, Кит Дэвид, Дэниэл Куинн, Гэвэн О’Херлихи, Ричард Фэнси, Том Коннор, Пол Бен-Виктор

Дата мировой премьеры: 30 октября 1993-Продолжительность: 01:32:47
Качество видео: HDTVRip
Перевод: Многоголосый закадровый профессиональный (DVD Group), Авторский (Алексей Андреев)
Язык субтитров: Русский
Вид субтитров: Вшитые, отключаемые
Видеокодек: MPEG-4 AVC/H.264
Битрейт видео: ~2996 Кbps
Размер кадра: 1024х564, 23.976 fps
Аудио#1: Russian: AC3, 6 ch, 448 Кbps - Профессиональный, многоголосый DVD Group
Аудио#2: Russian: AC3, 2 ch, 192 Kbps - Авторский, одноголосый А. Андреев
Аудио#3: English: AC3, 2 ch, 192 Kbps - Оригинальный
Сэмпл Скачать

MediaInfo:

Полное имя : Poslednij.izgoj.1993.x264.HDTVRip.(AVC).mkv
Формат : Matroska
Версия формата : Version 4 / Version 2
Размер файла : 2,48 Гбайт
Продолжительность : 1 ч. 32 м.
Общий поток : 3828 Кбит/сек
Дата кодирования : UTC 2013-07-12 10:56:18
Программа кодирования : mkvmerge v6.1.0 ('Old Devil') built on Mar 2 2013 14:32:37
Библиотека кодирования : libebml v1.3.0 + libmatroska v1.4.0
Видео
Идентификатор : 1
Формат : AVC
Формат/Информация : Advanced Video Codec
Профиль формата : [url=mailto:[email protected]][email protected][/url]
Параметр CABAC формата : Да
Параметр ReFrames формата : 10 кадров
Идентификатор кодека : V_MPEG4/ISO/AVC
Продолжительность : 1 ч. 32 м.
Битрейт : 2996 Кбит/сек
Ширина : 1024 пикселя
Высота : 564 пикселя
Соотношение сторон : 16:9
Частота кадров : 23,976 кадра/сек
Цветовое пространство : YUV
Субдискретизация насыщенности : 4:2:0
Битовая глубина : 8 бит
Тип развёртки : Прогрессивная
Бит/(Пиксели*Кадры) : 0.216
Размер потока : 1,89 Гбайт (76%)
Заголовок : Rip by 0ptimus
Библиотека кодирования : x264 core 92 r1510 33d382a
Язык : English
Аудио #1
Идентификатор : 2
Формат : AC-3
Формат/Информация : Audio Coding 3
Расширение режима : CM (complete main)
Идентификатор кодека : A_AC3
Продолжительность : 1 ч. 32 м.
Вид битрейта : Постоянный
Битрейт : 448 Кбит/сек
Каналы : 6 каналов
Расположение каналов : Front: L C R, Side: L R, LFE
Частота : 48,0 КГц
Битовая глубина : 16 бит
Метод сжатия : С потерями
Размер потока : 297 Мбайт (12%)
Заголовок : Многоголосый закадровый [ДВД Групп] AC3 5.1 448 kbps
Язык : Russian
Аудио #2
Идентификатор : 3
Формат : AC-3
Формат/Информация : Audio Coding 3
Расширение режима : CM (complete main)
Идентификатор кодека : A_AC3
Продолжительность : 1 ч. 32 м.
Вид битрейта : Постоянный
Битрейт : 192 Кбит/сек
Каналы : 2 канала
Расположение каналов : Front: L R
Частота : 48,0 КГц
Битовая глубина : 16 бит
Метод сжатия : С потерями
Размер потока : 127 Мбайт (5%)
Заголовок : Авторский [Алексей Андреев] AC3 2.0 192 kbps
Язык : Russian
Аудио #3
Идентификатор : 4
Формат : AC-3
Формат/Информация : Audio Coding 3
Расширение режима : CM (complete main)
Идентификатор кодека : A_AC3
Продолжительность : 1 ч. 32 м.
Вид битрейта : Постоянный
Битрейт : 192 Кбит/сек
Каналы : 2 канала
Расположение каналов : Front: L R
Частота : 48,0 КГц
Битовая глубина : 16 бит
Метод сжатия : С потерями
Размер потока : 127 Мбайт (5%)
Заголовок : AC3 2.0 192 kbps
Язык : English
Текст
Идентификатор : 5
Формат : UTF-8
Идентификатор кодека : S_TEXT/UTF8
Идентификатор кодека/Информация : UTF-8 Plain Text
Язык : Russian
-Скриншоты:          -
Other forum [Profile] [PM]
Display posts from previous:    
Reply to topic

The time now is: Today 09:23

All times are GMT + 3 Hours



You cannot post new topics in this forum
You cannot reply to topics in this forum
You cannot edit your posts in this forum
You cannot delete your posts in this forum
You cannot vote in polls in this forum
You cannot attach files in this forum
You cannot download files in this forum