Today is a free download without charge Download

Интерны / Сезон: 5 Серии: 81-100,103-106 из 106 (Максим Пежемский) [2011, ситком, комедия, WebRip]

Reply to topic
 
Author
Message

Omen ®

Longevity: 8 years 11 months

Posts: 181086

Торрент-статистика

Post 30-Aug-2011 20:00

[Quote]


Интерны
-Год выпуска: 2011
Производство: ТНТ
Жанр: ситком, комедия
Продолжительность: 00:24:00
Режиссёр: Максим Пежемский
-В ролях: Иван Охлобыстин, Вадим Демчог, Светлана Камынина, Александр Ильин мл., Кристина Асмус, Илья Глинников, Дмитрий Шаракоис-Описание:
Варя окончательно запутается в своем вранье и станет приходить на работу подшофе. Быков решит измениться и пойдет на уступки, но бросит ли Кисегач своего нового любовника ради старого? У Любы в личной жизни тишь да гладь, но мужчина в ее квартире все же появится. Хотя до этого поставит ей фингал! А может, бьет – значит любит? Фила бросит американская девушка, и он найдет утешение в интерне Романенко, пустится во все тяжкие и даже начнет вести аморальный образ жизни. Но неожиданно на горизонте появится ОНА . Та, из-за которой Фил потеряет голову, с одним из интернов знакома особенно хорошо. Интерна Лобанова настигнет любовь! Новый психиатр больницы Ирина не только «прочистит» мозги Семену, но и станет одним из углов любовного квадрата. Кстати, Фил тоже в него попадет. И даже Купитман на время забудет о своем коньяке и погрузится в пучину любовной страсти.-Качество: WebRip
Формат: AVI
Видео кодек: XviD
Аудио кодек: MP3
Видео: Xvid 720x400 25.00fps 1 468 Kbps
Аудио: MP3, 128 Кбит/сек, 2 канала, 48,0 КГц
-

Скриншоты

       
-

MediaInfo

Код:
Общее
Формат                           : AVI
Формат/Информация                : Audio Video Interleave
Размер файла                     : 285 Мбайт
Продолжительность                : 24 м.
Общий поток                      : 1608 Кбит/сек
Программа кодирования            : VirtualDubMod 1.5.10.3 | www.virtualdub-fr.org || (build 2550/release)
Библиотека кодирования           : VirtualDubMod build 2550/release
Видео
Идентификатор                    : 0
Формат                           : MPEG-4 Visual
Профиль формата                  : Advanced [email protected]
Параметр BVOP формата            : 2
Параметр QPel формата            : Нет
Параметр GMC формата             : Без точки перехода
Параметр матрицы формата         : Выборочная
Идентификатор кодека             : XVID
Идентификатор кодека/Подсказка   : XviD
Продолжительность                : 24 м.
Битрейт                          : 1468 Кбит/сек
Ширина                           : 720 пикселей
Высота                           : 400 пикселей
Соотношение сторон               : 16:9
Частота кадров                   : 25,000 кадров/сек
Цветовое пространство            : YUV
Субдискретизация насыщенности    : 4:2:0
Битовая глубина                  : 8 бит
Тип развёртки                    : Прогрессивная
Метод сжатия                     : С потерями
Бит/(Пиксели*Кадры)              : 0.204
Размер потока                    : 260 Мбайт (91%)
Библиотека кодирования           : XviD 1.2.1 (UTC 2008-12-04)
Аудио
Идентификатор                    : 1
Формат                           : MPEG Audio
Версия формата                   : Version 1
Профиль формата                  : Layer 3
Режим                            : Joint stereo
Расширение режима                : MS Stereo
Идентификатор кодека             : 55
Идентификатор кодека/Подсказка   : MP3
Продолжительность                : 24 м.
Вид битрейта                     : Переменный
Битрейт                          : 128 Кбит/сек
Каналы                           : 2 канала
Частота                          : 44,1 КГц
Метод сжатия                     : С потерями
Размер потока                    : 22,6 Мбайт (8%)
Выравнивание                     : Соединение по промежуткам
Продолжительность промежутка     : 26  мс. (0,65 видеокадр)
Время предзагрузки промежутка    : 502  мс.
Библиотека кодирования           : LAME3.97ЄЄЄЄЄЄЄЄЄЄЄЄ
Сезон закончен!


Last edited by Omen on 2011-10-05 12:07; edited 21 times in total
Other forum [Profile] [PM]
Display posts from previous:    
Reply to topic

The time now is: Today 08:52

All times are GMT + 3 Hours



You cannot post new topics in this forum
You cannot reply to topics in this forum
You cannot edit your posts in this forum
You cannot delete your posts in this forum
You cannot vote in polls in this forum
You cannot attach files in this forum
You cannot download files in this forum