Today is a free download without charge Download

Тора! Тора! Тора! / Tora! Tora! Tora! [Extended Japanese Cut](Ричард Флайшер, Киндзи Фукасаку, Тосио Масуда) [1970 г., боевик, драма, приключения, военный, история, BDRip720p]

Reply to topic
 
Author
Message

Delia ®

Gender:

Longevity: 9 years 6 months

Posts: 1821

Торрент-статистика

Post 30-Aug-2011 14:22

[Quote]

Тора! Тора! Тора! Tora! Tora! Tora! | トラ・トラ・トラ! Год выпуска: 1970
Страна: США, Япония
Жанр: боевик, драма, приключения, военный, история
Продолжительность: 02:28:53
Перевод: Профессиональный (полное дублирование на английскую речь ) | Профессиональный многоголосый закадровый (на японскую речь)
Режиссер: Ричард Флайшер, Киндзи Фукасаку, Тосио Масуда
Продюссер: Keinosuke Kubo, Отто Лэнг, Масаюки Такаги
Сценарий: Ладислас Фараго, Ларри Форрестер, Рюдзо Кикусима
Бюджет: $25 000 000
Премьера в мире: 23 сентября 1970
В ролях: Мартин Болсам, Со Ямамура, Джозеф Коттен, Татсуя Михаши, Э. Г. Маршалл, Джеймс Уитмор, Такахиро Тамура, Эйдзиро Тоно, Джейсон Робардс, Уэсли Эдди
Описание: «Тора! Тора! Тора!» (яп. トラ・トラ・トラ!, англ. Tora! Tora! Tora!) — художественный фильм совместного производства США и Японии, вышедший на экраны 23 сентября 1970 года . Известен как наиболее достоверное киноизображение атаки японского флота на Пёрл-Харбор 7 декабря 1941 и предшествовавших этому событий. Премия «Оскар» за спецэффекты (1971).
Название фильма представляет собой условный сигнал, который был передан в момент начала атаки и сообщал, что полная неожиданность нападения, на которую рассчитывали японцы, была достигнута. В переводе с японского фраза означает «Тигр! Тигр! Тигр!».
Достоверность и качество съёмок батальных сцен было и остаётся столь высоким, что кадры из «Тора! Тора! Тора!» неоднократно использовались в последующих фильмах в качестве «документальных».
Качество: BDRip720p
Формат: MKV
Видео кодек: H.264
Аудио кодек: AC3
Видео: English, 4749 Кбит/сек, 1280*544 (2,35:1), в 23,976 кадр/сек, AVC ([email protected])
Аудио: Russian, 384 Кбит/сек, 48,0 КГц, 16 бит, 6 канала(ов), AC-3
Аудио:English, 320 Кбит/сек, 48,0 КГц, 16 бит, 6 канала(ов), AC-3
Субтитры:Russian,English - VobSub

MI:

Общее
Уникальный идентификатор : 240082730733507129272583226693329843296 (0xB49E4084B5BA07CBBA4C785E13537460)
Полное имя : E:\торрент\Tora! Tora! Tora!(1970)BDRip720p.mkv
Формат : Matroska
Размер файла : 5,68 Гбайт
Продолжительность : 2 ч. 28 м.
Общий поток : 5460 Кбит/сек
Дата кодирования : UTC 2011-08-30 10:31:11
Программа кодирования : mkvmerge v4.9.1 ('Ich will') built on Jul 11 2011 23:53:15
Библиотека кодирования : libebml v1.2.1 + libmatroska v1.1.1
Видео
Идентификатор : 1
Формат : AVC
Формат/Информация : Advanced Video Codec
Профиль формата : [email protected]
Параметр CABAC формата : Да
Параметр ReFrames формата : 10 кадры
Идентификатор кодека : V_MPEG4/ISO/AVC
Продолжительность : 2 ч. 28 м.
Битрейт : 4749 Кбит/сек
Ширина : 1280 пикс.
Высота : 544 пикс.
Соотношение сторон : 2,35:1
Частота кадров : 23,976 кадр/сек
Цветовое пространство : YUV
Подвыборка цветности : 4:2:0
Битовая глубина : 8 бит
Тип развёртки : Прогрессивная
Бит/(Пиксели*Кадры) : 0.284
Размер потока : 4,83 Гбайт (85%)
Библиотека кодирования : x264 core 116 r2074 2641b9e
Настройки программы : cabac=1 / ref=10 / deblock=1:-3:-3 / analyse=0x3:0x133 / me=umh / subme=9 / psy=1 / psy_rd=1.00:0.15 / mixed_ref=1 / me_range=32 / chroma_me=1 / trellis=2 / 8x8dct=1 / cqm=0 / deadzone=21,11 / fast_pskip=0 / chroma_qp_offset=-3 / threads=6 / sliced_threads=0 / nr=0 / decimate=1 / interlaced=0 / bluray_compat=0 / constrained_intra=0 / bframes=8 / b_pyramid=2 / b_adapt=2 / b_bias=0 / direct=3 / weightb=1 / open_gop=0 / weightp=2 / keyint=250 / keyint_min=23 / scenecut=40 / intra_refresh=0 / rc_lookahead=50 / rc=2pass / mbtree=1 / bitrate=4749 / ratetol=1.0 / qcomp=0.60 / qpmin=10 / qpmax=55 / qpstep=4 / cplxblur=20.0 / qblur=0.5 / ip_ratio=1.40 / aq=1:1.00
Язык : English
Аудио #1
Идентификатор : 2
Формат : AC-3
Формат/Информация : Audio Coding 3
Расширение режима : CM (complete main)
Идентификатор кодека : A_AC3
Продолжительность : 2 ч. 28 м.
Вид битрейта : Постоянный
Битрейт : 384 Кбит/сек
Канал(ы) : 6 канала(ов)
Расположение каналов : Front: L C R, Side: L R, LFE
Частота : 48,0 КГц
Битовая глубина : 16 бит
Метод сжатия : С потерями
Размер потока : 409 Мбайт (7%)
Язык : Russian
Аудио #2
Идентификатор : 3
Формат : AC-3
Формат/Информация : Audio Coding 3
Расширение режима : CM (complete main)
Идентификатор кодека : A_AC3
Продолжительность : 2 ч. 28 м.
Вид битрейта : Постоянный
Битрейт : 320 Кбит/сек
Канал(ы) : 6 канала(ов)
Расположение каналов : Front: L C R, Side: L R, LFE
Частота : 48,0 КГц
Битовая глубина : 16 бит
Метод сжатия : С потерями
Размер потока : 341 Мбайт (6%)
Язык : English
Текст #1
Идентификатор : 4
Формат : VobSub
Режим смешивания : zlib
Идентификатор кодека : S_VOBSUB
Идентификатор кодека/Информация : The same subtitle format used on DVDs
Язык : Russian
Текст #2
Идентификатор : 5
Формат : VobSub
Режим смешивания : zlib
Идентификатор кодека : S_VOBSUB
Идентификатор кодека/Информация : The same subtitle format used on DVDs
Язык : English
Меню
00:00:00.000 : en:00:00:00.000
00:03:48.687 : en:00:03:48.687
00:09:55.386 : en:00:09:55.386
00:11:47.332 : en:00:11:47.332
00:13:43.114 : en:00:13:43.114
00:15:23.798 : en:00:15:23.798
00:22:07.993 : en:00:22:07.993
00:28:46.934 : en:00:28:46.934
00:34:46.334 : en:00:34:46.334
00:38:51.663 : en:00:38:51.663
00:43:54.507 : en:00:43:54.507
00:46:56.522 : en:00:46:56.522
00:49:08.028 : en:00:49:08.028
00:56:02.276 : en:00:56:02.276
01:05:37.308 : en:01:05:37.308
01:12:03.903 : en:01:12:03.903
01:15:10.673 : en:01:15:10.673
01:23:28.629 : en:01:23:28.629
01:25:36.048 : en:01:25:36.048
01:32:05.395 : en:01:32:05.395
01:33:03.161 : en:01:33:03.161
01:39:59.744 : en:01:39:59.744
01:41:53.107 : en:01:41:53.107
01:44:50.075 : en:01:44:50.075
01:49:58.884 : en:01:49:58.884
01:56:36.907 : en:01:56:36.907
02:05:38.281 : en:02:05:38.281
02:08:36.917 : en:02:08:36.917
02:12:01.080 : en:02:12:01.080
02:19:26.733 : en:02:19:26.733
02:27:37.891 : en:02:27:37.891

Скриншоты

                 

_________________
Человек – это канат, натянутый между животным и сверхчеловеком, – канат над пропастью.
В человеке ценно то, что он мост, а не цель. Фридрих Ницше


Last edited by Delia on 2011-08-30 20:08; edited 3 times in total
Other forum [Profile] [PM]
Display posts from previous:    
Reply to topic

The time now is: Today 19:54

All times are GMT + 3 Hours



You cannot post new topics in this forum
You cannot reply to topics in this forum
You cannot edit your posts in this forum
You cannot delete your posts in this forum
You cannot vote in polls in this forum
You cannot attach files in this forum
You cannot download files in this forum