Today is a free download without charge Download

Iced Earth - Live in Ancient Kourion [2013, Power / Thrash Metal, BDRip 720p]

Reply to topic
 
Author
Message

Omen ®

Longevity: 8 years 3 months

Posts: 181087

Торрент-статистика

Post 13-Jul-2013 00:49

[Quote]

Iced Earth - Live in Ancient Kourion
Жанр: Power / Thrash Metal
Продолжительность: 2h 35mn
Год выпуска: 2013
Треклист:
1. Intro 01:17
2. Dystopia 04:55
3. Burning Times 03:39
4. Angel's Holocaust 04:34
5. Slave to the Dark 04:49
6. V 03:27
7. When the Night Falls 08:09
8. I Died for You 04:06
9. Invasion/Motivation of Man 03:01
1 0. Setian Massacre 04:55
11. Stormrider 04:12
12. Pure Evil 06:01
13. Wolf 06:03
14. Dark City 05:57
15. Dracula 05:59
16. Ten Thousand Strong 04:54
17. Anthem 04:49
18. Declaration Day 04:23
19. Days of Rage 03:08
20. Melancholy 08:09
21. In Sacred Flames 01:29
22. Boiling Point 03:29
23. Damien 09:53
24. Watching Over Me 07:20
25. Dante's Inferno17:52
26. Iced Earth 07:10
27. The Hunter 05:55
Состав:
Jon Schaffer Guitars, Vocals (backing)
Brent Smedley Drums
Troy Seele Guitars (lead)
Stu Block Vocals
Luke Appleton Bass
Качество: BDRip 720p
Контейнер: MKV
Видео кодек: H.264
Аудио кодек: DTS
Видео: AVC, 1280х720(16:9), 5520Kbps, 24fps.
Аудио: DTS, 1510Kbps, 6ch., 48.0KHz.

Отчёт MediaInfo / BDInfo

GeneralUnique ID : 178042932804054164089980016570807318663 (0x85F1D2523D7B11959A5E3A165F3B7887)Complete name : E:\Iced Earth - Live In Ancient Kourion (2013).mkvFormat : MatroskaFormat version : Version 2File size : 7.65 GiBDuration : 2h 35mnOverall bit rate : 7 031 KbpsEncoded date : UTC 2013-04-12 21:45:05Writing application : mkvmerge v6.1.0 ('Old Devil') built on Mar 2 2013 14:32:37Writing library : libebml v1.3.0 + libmatroska v1.4.0
VideoID : 1Format : AVCFormat/Info : Advanced Video CodecFormat profile : [email protected] settings, CABAC : YesFormat settings, ReFrames : 5 framesCodec ID : V_MPEG4/ISO/AVCDuration : 2h 35mnBit rate : 5 520 KbpsWidth : 1 280 pixelsHeight : 720 pixelsDisplay aspect ratio : 16:9Frame rate : 24.000 fpsColor space : YUVChroma subsampling : 4:2:0Bit depth : 8 bitsScan type : ProgressiveBits/(Pixel*Frame) : 0.250Stream size : 5.86 GiB (77%)Writing library : x264 core 130 r2273 b3065e6Encoding settings : cabac=1 / ref=5 / deblock=1:0:0 / analyse=0x3:0x133 / me=umh / subme=7 / psy=1 / psy_rd=1.00:0.00 / mixed_ref=1 / me_range=16 / chroma_me=1 / trellis=1 / 8x8dct=1 / cqm=0 / deadzone=21,11 / fast_pskip=0 / chroma_qp_offset=-2 / threads=18 / lookahead_threads=3 / sliced_threads=0 / nr=0 / decimate=1 / interlaced=0 / bluray_compat=0 / constrained_intra=0 / bframes=3 / b_pyramid=2 / b_adapt=1 / b_bias=0 / direct=1 / weightb=1 / open_gop=0 / weightp=2 / keyint=240 / keyint_min=24 / scenecut=40 / intra_refresh=0 / rc_lookahead=40 / rc=2pass / mbtree=1 / bitrate=5520 / ratetol=1.0 / qcomp=0.60 / qpmin=10 / qpmax=51 / qpstep=4 / cplxblur=20.0 / qblur=0.5 / ip_ratio=1.40 / aq=1:1.00Default : YesForced : No
AudioID : 2Format : DTSFormat/Info : Digital Theater SystemsCodec ID : A_DTSDuration : 2h 35mnBit rate mode : ConstantBit rate : 1 510 KbpsChannel(s) : 6 channelsChannel positions : Front: L C R, Side: L R, LFESampling rate : 48.0 KHzBit depth : 24 bitsCompression mode : LossyStream size : 1.64 GiB (21%)Default : YesForced : No
Menu00:00:00.000 : en:00:00:00.00000:01:21.083 : en:00:01:21.08300:06:27.625 : en:00:06:27.62500:10:15.250 : en:00:10:15.25000:15:01.083 : en:00:15:01.08300:20:02.792 : en:00:20:02.79200:23:39.833 : en:00:23:39.83300:32:05.875 : en:00:32:05.87500:36:58.833 : en:00:36:58.83300:39:33.875 : en:00:39:33.87500:44:39.667 : en:00:44:39.66700:49:04.458 : en:00:49:04.45800:55:20.667 : en:00:55:20.66701:01:40.208 : en:01:01:40.20801:07:51.750 : en:01:07:51.75001:14:06.167 : en:01:14:06.16701:19:13.083 : en:01:19:13.08301:24:14.500 : en:01:24:14.50001:28:48.000 : en:01:28:48.00001:32:03.625 : en:01:32:03.62501:38:40.458 : en:01:38:40.45801:42:06.667 : en:01:42:06.66701:45:44.792 : en:01:45:44.79201:56:02.542 : en:01:56:02.54202:03:42.667 : en:02:03:42.66702:22:20.000 : en:02:22:20.00002:29:47.958 : en:02:29:47.958

Скриншоты

Other forum [Profile] [PM]
Display posts from previous:    
Reply to topic

The time now is: Today 23:13

All times are GMT + 3 Hours



You cannot post new topics in this forum
You cannot reply to topics in this forum
You cannot edit your posts in this forum
You cannot delete your posts in this forum
You cannot vote in polls in this forum
You cannot attach files in this forum
You cannot download files in this forum