Today is a free download without charge Download

Эндорфин (Павел Жарков) (Драма, Фантастика, Боевик2011) WEB-DLRip

Reply to topic
 
Author
Message

Omen ®

Longevity: 8 years

Posts: 181087

Торрент-статистика

Post 12-Jul-2013 21:21

[Quote]

Эндорфин - Год выпуска: 2011
Жанр: Драма, Фантастика, Боевик
Описание фильма:
Механика цифр - мысли и числа, комбинации и суммы, целый мир; каждый объект и каждая клетка работают в этом. Все они имеют определенные значения и действуют в своих областях, но важно видеть и знать - как, потому что, изменив их, ты можешь изменить всё; поняв систему, ты сотрешь границы; нет предела и ограничений. Выбор исключительно за тем, кто прикасается к цифрам, - если не ставят условий, в которых нет нужного выхода...
Режиссер: Павел Жарков
Актеры: Евгений Мартынов, Никита Чеботарёв, Павел Жарков, Владислав Ермилов, Ярослав Михеев, Сергей Макаров, Антон Володеев, Сергей Гетмановский, Александр Филатов, Артем Ильинский, Антон Дедиков, Анастасия Королькова, Владислав Токарев, Роман Алексанин, Михаил Павлов, Варвара Романова, Ангелина Попова, Нелли Пальгуева, Ирина Целяева, Дмитрий Мемешкин, Анатолий Ерёмин, Андрей Буданов, Иван Семёнов
Продолжительность: 00:41:32
Качество видео: WEB-DLRip
Формат видео: AVI
Видео: 720x320 (2.25:1), 30 fps, XviD 1.2.0.dev47, 943 kbps avg, 0.14 bit/pixel
Аудио: 48 kHz, AC3 Dolby Digital, 2/0 (L,R) ch, 192 kbps
Сэмпл: Ссылка

MI

Полное имя : Endorphin.avi
Формат : AVI
Формат/Информация : Audio Video Interleave
Размер файла : 341 Мбайт
Продолжительность : 41 м.
Общий поток : 1147 Кбит/сек
Программа кодирования : VirtualDubMod 1.5.10.2 (build 2540/release)
Библиотека кодирования : VirtualDubMod build 2540/release
Видео
Идентификатор : 0
Формат : MPEG-4 Visual
Профиль формата : Advanced [email protected]
Параметр BVOP формата : 3
Параметр QPel формата : Да
Параметр GMC формата : 3 точки перехода
Параметр матрицы формата : Default (H.263)
Режим смешивания : Сжатый битовый поток
Идентификатор кодека : XVID
Идентификатор кодека/Подсказка : XviD
Продолжительность : 41 м.
Битрейт : 944 Кбит/сек
Ширина : 720 пикселей
Высота : 320 пикселей
Соотношение сторон : 2,25:1
Частота кадров : 30,000 кадров/сек
Цветовое пространство : YUV
Субдискретизация насыщенности : 4:2:0
Битовая глубина : 8 бит
Тип развёртки : Прогрессивная
Метод сжатия : С потерями
Бит/(Пиксели*Кадры) : 0.137
Размер потока : 280 Мбайт (82%)
Библиотека кодирования : XviD 1.2.0.dev47 (UTC 2006-11-01)
Аудио
Идентификатор : 1
Формат : AC-3
Формат/Информация : Audio Coding 3
Расширение режима : CM (complete main)
Параметр Endianness формата : Big
Идентификатор кодека : 2000
Продолжительность : 41 м.
Вид битрейта : Постоянный
Битрейт : 192 Кбит/сек
Каналы : 2 канала
Расположение каналов : Front: L R
Частота : 48,0 КГц
Битовая глубина : 16 бит
Метод сжатия : С потерями
Размер потока : 57,0 Мбайт (17%)
Выравнивание : Разделение по промежуткам
Продолжительность промежутка : 33 мс. (1,00 видеокадр)
Время предзагрузки промежутка : 500 мс.
Скриншоты:
       
Other forum [Profile] [PM]
Display posts from previous:    
Reply to topic

The time now is: Today 01:24

All times are GMT + 3 Hours



You cannot post new topics in this forum
You cannot reply to topics in this forum
You cannot edit your posts in this forum
You cannot delete your posts in this forum
You cannot vote in polls in this forum
You cannot attach files in this forum
You cannot download files in this forum