Today is a free download without charge Download

Миссия невыполнима: Последствия / Mission: Impossible - Fallout (Кристофер МакКуорри) [2018 г., боевик, триллер, приключения, WEB-DL 1080p] [IMAX Edition] | MVO

Reply to topic
 
Author
Message

Theseus ®

Gender:

Longevity: 7 years 10 months

Posts: 2019

Торрент-статистика

Post 10-Nov-2018 22:07

[Quote]

Миссия невыполнима: Последствия / Mission: Impossible - Fallout- Год выхода: 2018
Страна: США, Китай
Жанр: боевик, триллер, приключения
Продолжительность: 02:27:41
Перевод: Любительский (многоголосый закадровый)
Субтитры: английские-Режиссер: Кристофер МакКуорри-В ролях: Том Круз, Ребекка Фергюсон, Генри Кавилл, Мишель Монахэн, Ванесса Кирби, Уэс Бентли, Саймон Пегг, Анджела Бассетт, Алек Болдуин, Винг Реймз-Описание: Итан Хант и его команда, а также недавно примкнувшие к ним союзники, вынуждены действовать наперегонки со временем, когда новая миссия идет не по плану.- -Качество: WEB-DL 1080p
Формат: MKV
Видео кодек: x.264
Аудио кодек: AC3
Видео: AVC, 1920x1012, 23.976 fps, 5124 Kbps
Аудио 1: АС3, 2 ch, 48 kHz, 192 Kbps | Русский (MVO)
Аудио 2: АС3, 2 ch, 48 kHz, 192 Kbps | Украинский (DUB)
Аудио 3: АС3, 6 ch, 48 kHz, 384 Kbps | Английский-Сэмпл-Рекламы нет !-

MediaInfo

Код:
Общее
Уникальный идентификатор                 : 183854753204209497303945629828886483518 (0x8A512330AB73BD58B2A1DD759CC6D23E)
Полное имя                               : Mission.Impossible.Fallout.2018.1080p.WEB-DL.Rus.Ukr.Eng.mkv
Формат                                   : Matroska
Версия формата                           : Version 4 / Version 2
Размер файла                             : 6,08 Гбайт
Продолжительность                        : 2 ч. 27 м.
Общий поток                              : 5893 Кбит/сек
Дата кодирования                         : UTC 2018-11-10 11:32:31
Программа кодирования                    : mkvmerge v8.3.0 ('Over the Horizon') 64bit
Библиотека кодирования                   : libebml v1.3.1 + libmatroska v1.4.2
Видео
Идентификатор                            : 1
Формат                                   : AVC
Формат/Информация                        : Advanced Video Codec
Профиль формата                          : [email protected]
Настройки формата                        : CABAC / 4 Ref Frames
Параметр CABAC формата                   : Да
Параметр RefFrames формата               : 4 кадра
Идентификатор кодека                     : V_MPEG4/ISO/AVC
Продолжительность                        : 2 ч. 27 м.
Битрейт                                  : 5124 Кбит/сек
Ширина                                   : 1920 пикселей
Высота                                   : 1012 пикселей
Соотношение сторон                       : 1,897
Режим частоты кадров                     : Постоянный
Частота кадров                           : 23,976 (24000/1001) кадра/сек
Цветовое пространство                    : YUV
Субдискретизация насыщенности            : 4:2:0
Битовая глубина                          : 8 бит
Тип развёртки                            : Прогрессивная
Бит/(Пиксели*Кадры)                      : 0.110
Размер потока                            : 5,29 Гбайт (87%)
Язык                                     : English
Default                                  : Да
Forced                                   : Нет
Цветовой диапазон                        : Limited
Основные цвета                           : BT.709
Характеристики трансфера                 : BT.709
Коэффициенты матрицы                     : BT.709
Аудио #1
Идентификатор                            : 2
Формат                                   : AC-3
Формат/Информация                        : Audio Coding 3
Идентификатор кодека                     : A_AC3
Продолжительность                        : 2 ч. 27 м.
Вид битрейта                             : Постоянный
Битрейт                                  : 192 Кбит/сек
Каналы                                   : 2 канала
Расположение каналов                     : Front: L R
Частота                                  : 48,0 КГц
Частота кадров                           : 31,250 кадров/сек (1536 SPF)
Битовая глубина                          : 16 бит
Метод сжатия                             : С потерями
Задержка видео                           : -43 мс.
Размер потока                            : 202 Мбайт (3%)
Заголовок                                : MVO
Язык                                     : Russian
ServiceKind/String                       : Complete Main
Default                                  : Да
Forced                                   : Нет
Аудио #2
Идентификатор                            : 3
Формат                                   : AC-3
Формат/Информация                        : Audio Coding 3
Идентификатор кодека                     : A_AC3
Продолжительность                        : 2 ч. 27 м.
Вид битрейта                             : Постоянный
Битрейт                                  : 192 Кбит/сек
Каналы                                   : 2 канала
Расположение каналов                     : Front: L R
Частота                                  : 48,0 КГц
Частота кадров                           : 31,250 кадров/сек (1536 SPF)
Битовая глубина                          : 16 бит
Метод сжатия                             : С потерями
Задержка видео                           : -43 мс.
Размер потока                            : 202 Мбайт (3%)
Заголовок                                : DUB
Язык                                     : Ukrainian
ServiceKind/String                       : Complete Main
Default                                  : Нет
Forced                                   : Нет
Аудио #3
Идентификатор                            : 4
Формат                                   : AC-3
Формат/Информация                        : Audio Coding 3
Идентификатор кодека                     : A_AC3
Продолжительность                        : 2 ч. 27 м.
Вид битрейта                             : Постоянный
Битрейт                                  : 384 Кбит/сек
Каналы                                   : 6 каналов
Расположение каналов                     : Front: L C R, Side: L R, LFE
Частота                                  : 48,0 КГц
Частота кадров                           : 31,250 кадров/сек (1536 SPF)
Битовая глубина                          : 16 бит
Метод сжатия                             : С потерями
Задержка видео                           : -43 мс.
Размер потока                            : 405 Мбайт (7%)
Язык                                     : English
ServiceKind/String                       : Complete Main
Default                                  : Нет
Forced                                   : Нет
Текст
Идентификатор                            : 5
Формат                                   : UTF-8
Идентификатор кодека                     : S_TEXT/UTF8
Идентификатор кодека/Информация          : UTF-8 Plain Text
Продолжительность                        : 2 ч. 19 м.
Битрейт                                  : 46 бит/сек
ElementCount                             : 1547
Размер потока                            : 47,6 Кбайт (0%)
Язык                                     : English
Default                                  : Нет
Forced                                   : Нет
Меню
00:00:00.000                             : en:1
00:10:35.000                             : en:2
00:17:09.000                             : en:3
00:26:54.000                             : en:4
00:35:53.000                             : en:5
00:49:14.000                             : en:6
00:59:56.000                             : en:7
01:10:18.000                             : en:8
01:17:01.000                             : en:9
01:28:22.000                             : en:10
01:39:02.000                             : en:11
01:46:19.000                             : en:12
01:55:37.000                             : en:13
02:03:02.000                             : en:14
02:13:52.000                             : en:15
02:19:38.000                             : en:16

Трейлер

-     - -

_________________
Other forum [Profile] [PM]
Similar theme
Forum Topic Author Torrent Replies Last Post
./templates/default/images/folder_dl.gif Философия, Религия, Эзотерика Ноомахия - Дугин А.Г. - Дугин А.Г. Ноомахия. Войны ума. Англия или Британия Морская миссия и позитивный субъект. [2015, PDF/DjVu, RUS] Omen
1 | 0

0 | 2260

0

2016-12-12 01:00
Omen Latest
Display posts from previous:    
Reply to topic

The time now is: Today 14:57

All times are GMT + 3 Hours



You cannot post new topics in this forum
You cannot reply to topics in this forum
You cannot edit your posts in this forum
You cannot delete your posts in this forum
You cannot vote in polls in this forum
You cannot attach files in this forum
You cannot download files in this forum