Today is a free download without charge Download

(New Age, Instrumental) Chris Spheeris - The Best (unofficial) - 2003, APE (image+.cue), lossless

Reply to topic
 
Author
Message

Koralina ®

Longevity: 9 years

Posts: 994

Location: Lithuania

Торрент-статистика

Post 15-Dec-2011 20:10

[Quote]

Chris Spheeris - The Best
Жанр: New Age, Instrumental
Год выпуска диска: 2003
Производитель диска: Россия, ТМЕ/Правительство звука, ПРЗ CD8592, LC ВАФ № 77-79 от 14.01.2003
Аудио кодек: APE
Тип рипа: image+.cue
Битрейт аудио: lossless
Продолжительность: 73.46

Трэклист

01. Культура [0:05:05.17]
02. Средиземноморье [0:05:35.19]
03. Пришествие [0:05:21.24]
04. Любовь и друзья [0:03:44.09]
05. Трепет [0:05:10.16]
06. Ария [0:04:49.03]
07. Душа [0:04:50.18]
08. Да здравствует! [0:04:04.39]
09. Эрос [0:05:32.43]
10. Маргарита [0:04:48.65]
11. Алегория [0:05:31.43]
12. Медленный танец [0:04:32.21]
13. Андалу [0:07:07.16]
14. Бесконечность [0:03:04.08]
15. Джулльетта [0:04:29.60]

Log EAC

Exact Audio Copy V0.99 prebeta 4 from 23. January 2008
Отчёт EAC об извлечении, выполненном 5. декабря 2008, 0:09
Chris Spheeris / The Best
Дисковод: PIONEER DVD-RW DVR-112 Adapter: 0 ID: 0
Режим чтения : Достоверность
Использование точного потока : Да
Отключение кэша аудио : Да
Использование указателей C2 : Нет
Коррекция смещения при чтении : 48
Способность читать области Lead-in и Lead-out : Нет
Заполнение пропущенных сэмплов тишиной : Да
Удаление блоков с тишиной в начале и конце : Нет
При вычислениях CRC использовались нулевые сэмплы : Да
Интерфейс : Установленный внешний ASPI-интерфейс
Выходной формат : Внутренние WAV-операции
Формат сэмплов : 44.100 Гц; 16 бит; стерео
TOC извлечённого CD
Трек | Старт | Длительность | Начальный сектор | Конечный сектор
---------------------------------------------------------------------
1 | 0:00.00 | 5:05.17 | 0 | 22891
2 | 5:05.17 | 5:35.19 | 22892 | 48035
3 | 10:40.36 | 5:21.24 | 48036 | 72134
4 | 16:01.60 | 3:44.09 | 72135 | 88943
5 | 19:45.69 | 5:10.16 | 88944 | 112209
6 | 24:56.10 | 4:49.03 | 112210 | 133887
7 | 29:45.13 | 4:50.18 | 133888 | 155655
8 | 34:35.31 | 4:04.39 | 155656 | 173994
9 | 38:39.70 | 5:32.43 | 173995 | 198937
10 | 44:12.38 | 4:48.65 | 198938 | 220602
11 | 49:01.28 | 5:31.43 | 220603 | 245470
12 | 54:32.71 | 4:32.21 | 245471 | 265891
13 | 59:05.17 | 7:07.16 | 265892 | 297932
14 | 66:12.33 | 3:04.08 | 297933 | 311740
15 | 69:16.41 | 4:29.60 | 311741 | 331975
Характеристики диапазона извлечения и сообщения об ошибках
Выбранный диапазон
Имя файла C:\Documents and Settings\Serg\Рабочий стол\Новая папка (3)\Chris Spheeris - The Best.wav
Пиковый уровень 100.0 %
Качество диапазона 99.9 %
CRC копии F6C6E6B9
Копирование... OK
Ошибок не произошло
Конец отчёта

Отчет Tau Analyzer


_________________
Other forum [Profile] [PM]
Display posts from previous:    
Reply to topic

The time now is: Today 22:31

All times are GMT + 3 Hours



You cannot post new topics in this forum
You cannot reply to topics in this forum
You cannot edit your posts in this forum
You cannot delete your posts in this forum
You cannot vote in polls in this forum
You cannot attach files in this forum
You cannot download files in this forum