Today is a free download without charge Download

(Опера) Берг - Воццек (Бём) / Berg - Wozzeck (Bohm) - 1971, APE (tracks), lossless

Reply to topic
 
Author
Message

Зуи ®

Gender:

Longevity: 8 years 9 months

Posts: 10

Торрент-статистика

Post 10-Dec-2011 12:05

[Quote]

Берг - Воццек (Бём) / Berg - Wozzeck (Bohm)
Страна: США
Жанр: Опера
Год выпуска: 1971
Формат: APE (tracks)
Битрейт аудио: lossless
Продолжительность: 1:28.50
Исполнители:
Воццек - Джерент Эванс
Мари - Аня Силья
Тамбурмажор - Фриц Уль
Андрес - Лорент Дрисколл
Капитан - Хельмут Мелькерт
Венский филармонический оркестр
Дирижер Карл Бём
Запись из Зальцбурга, 8 августа 1971

Трэклист

CD 1
1. Alban Berg - Wozzeck Act 1 - 1 (3:57)
2. Alban Berg - Wozzeck Act 1 - 2 (3:48)
3. Alban Berg - Wozzeck Act 1 - 3 (6:34)
4. Alban Berg - Wozzeck Act 1 - 4 (4:51)
5. Alban Berg - Wozzeck Act 1 - 5 (3:11)
6. Alban Berg - Wozzeck Act 1 - 6 (7:16)
7. Alban Berg - Wozzeck Act 1 - 7 (3:56)
CD 2
8. Alban Berg - Wozzeck Act 2 - 1 (5:24)
9. Alban Berg - Wozzeck Act 2 - 2 (4:08)
10. Alban Berg - Wozzeck Act 2 - 3 (4:35)
11. Alban Berg - Wozzeck Act 2 - 4 (3:06)
12. Alban Berg - Wozzeck Act 2 - 5 (8:47)
13. Alban Berg - Wozzeck Act 2 - 6 (2:30)
14. Alban Berg - Wozzeck Act 2 - 7 (4:42)
15. Alban Berg - Wozzeck Act 2 - 8 (4:18)
16. Alban Berg - Wozzeck Act 3 - 1 (4:33)
17. Alban Berg - Wozzeck Act 3 - 2 (3:17)
18. Alban Berg - Wozzeck Act 3 - 3 (4:30)
19. Alban Berg - Wozzeck Act 3 - 4 (5:27)

Отчет EAC CD1

Exact Audio Copy V0.99 prebeta 4 from 23. January 2008
Отчёт EAC об извлечении, выполненном 7. ноября 2008, 14:56
Alban Berg / Wozzeck
Дисковод: Optiarc DVD RW AD-7173A Adapter: 0 ID: 0
Режим чтения : Достоверность
Использование точного потока : Да
Отключение кэша аудио : Да
Использование указателей C2 : Нет
Коррекция смещения при чтении : 48
Способность читать области Lead-in и Lead-out : Нет
Заполнение пропущенных сэмплов тишиной : Да
Удаление блоков с тишиной в начале и конце : Нет
При вычислениях CRC использовались нулевые сэмплы : Да
Интерфейс : Встроенный Win32-интерфейс для Win NT/2000
Обработка зазоров : Не обнаружено, добавлено к предыдущему треку
Выходной формат : Monkey's Audio Lossless Encoder v3.99 DLL
Формат сэмплов : Normal Lossless Compression
TOC извлечённого CD
Трек | Старт | Длительность | Начальный сектор | Конечный сектор
---------------------------------------------------------------------
1 | 0:00.00 | 3:57.62 | 0 | 17836
2 | 3:57.62 | 3:48.60 | 17837 | 34996
3 | 7:46.47 | 6:34.00 | 34997 | 64546
4 | 14:20.47 | 4:51.18 | 64547 | 86389
5 | 19:11.65 | 3:11.19 | 86390 | 100733
6 | 22:23.09 | 7:16.08 | 100734 | 133441
7 | 29:39.17 | 3:56.54 | 133442 | 151195
Трек 1
Имя файла C:\Documents and Settings\kuzmin\Мои документы\Abltkbj\6. Воццек (Бем)\CD1\Wozzeck Act 1 - 1.ape
Пиковый уровень 93.0 %
Качество трека 100.0 %
CRC копии 743C9129
Трек не обнаружен в базе AccurateRip
Копирование... OK
Трек 2
Имя файла C:\Documents and Settings\kuzmin\Мои документы\Abltkbj\6. Воццек (Бем)\CD1\Wozzeck Act 1 - 2.ape
Пиковый уровень 96.6 %
Качество трека 99.9 %
CRC копии B010D5E1
Трек не обнаружен в базе AccurateRip
Копирование... OK
Трек 3
Имя файла C:\Documents and Settings\kuzmin\Мои документы\Abltkbj\6. Воццек (Бем)\CD1\Wozzeck Act 1 - 3.ape
Пиковый уровень 96.6 %
Качество трека 100.0 %
CRC копии 5FB01DD7
Трек не обнаружен в базе AccurateRip
Копирование... OK
Трек 4
Имя файла C:\Documents and Settings\kuzmin\Мои документы\Abltkbj\6. Воццек (Бем)\CD1\Wozzeck Act 1 - 4.ape
Пиковый уровень 71.3 %
Качество трека 99.9 %
CRC копии 076FAEE9
Трек не обнаружен в базе AccurateRip
Копирование... OK
Трек 5
Имя файла C:\Documents and Settings\kuzmin\Мои документы\Abltkbj\6. Воццек (Бем)\CD1\Wozzeck Act 1 - 5.ape
Пиковый уровень 78.2 %
Качество трека 99.9 %
CRC копии 42258E46
Трек не обнаружен в базе AccurateRip
Копирование... OK
Трек 6
Имя файла C:\Documents and Settings\kuzmin\Мои документы\Abltkbj\6. Воццек (Бем)\CD1\Wozzeck Act 1 - 6.ape
Пиковый уровень 79.2 %
Качество трека 100.0 %
CRC копии 2E1DF37D
Трек не обнаружен в базе AccurateRip
Копирование... OK
Трек 7
Имя файла C:\Documents and Settings\kuzmin\Мои документы\Abltkbj\6. Воццек (Бем)\CD1\Wozzeck Act 1 - 7.ape
Пиковый уровень 92.1 %
Качество трека 100.0 %
CRC копии 1EEDEA7A
Трек не обнаружен в базе AccurateRip
Копирование... OK
Ни одного трека нет в базе AccurateRip
Ошибок не произошло
Конец отчёта

Отчет EAC CD2

Exact Audio Copy V0.99 prebeta 4 from 23. January 2008
Отчёт EAC об извлечении, выполненном 7. ноября 2008, 15:12
Alban Berg / Wozzeck
Дисковод: Optiarc DVD RW AD-7173A Adapter: 0 ID: 0
Режим чтения : Достоверность
Использование точного потока : Да
Отключение кэша аудио : Да
Использование указателей C2 : Нет
Коррекция смещения при чтении : 48
Способность читать области Lead-in и Lead-out : Нет
Заполнение пропущенных сэмплов тишиной : Да
Удаление блоков с тишиной в начале и конце : Нет
При вычислениях CRC использовались нулевые сэмплы : Да
Интерфейс : Встроенный Win32-интерфейс для Win NT/2000
Обработка зазоров : Добавлено к предыдущему треку
Выходной формат : Monkey's Audio Lossless Encoder v3.99 DLL
Формат сэмплов : Normal Lossless Compression
TOC извлечённого CD
Трек | Старт | Длительность | Начальный сектор | Конечный сектор
---------------------------------------------------------------------
1 | 0:00.00 | 5:24.54 | 0 | 24353
2 | 5:24.54 | 4:08.48 | 24354 | 43001
3 | 9:33.27 | 4:35.07 | 43002 | 63633
4 | 14:08.34 | 3:06.65 | 63634 | 77648
5 | 17:15.24 | 8:47.56 | 77649 | 117229
6 | 26:03.05 | 2:30.19 | 117230 | 128498
7 | 28:33.24 | 4:42.05 | 128499 | 149653
8 | 33:15.29 | 4:18.72 | 149654 | 169075
9 | 37:34.26 | 4:33.51 | 169076 | 189601
10 | 42:08.02 | 3:17.51 | 189602 | 204427
11 | 45:25.53 | 4:30.31 | 204428 | 224708
12 | 49:56.09 | 5:27.67 | 224709 | 249300
Трек 1
Имя файла C:\Documents and Settings\kuzmin\Мои документы\Abltkbj\6. Воццек (Бем)\CD2\Wozzeck Act 2 - 1.ape
Длина предзазора 0:00:02.00
Пиковый уровень 89.0 %
Качество трека 100.0 %
CRC копии 1741DDFC
Трек не обнаружен в базе AccurateRip
Копирование... OK
Трек 2
Имя файла C:\Documents and Settings\kuzmin\Мои документы\Abltkbj\6. Воццек (Бем)\CD2\Wozzeck Act 2 - 2.ape
Пиковый уровень 68.6 %
Качество трека 100.0 %
CRC копии DE8F4FC8
Трек не обнаружен в базе AccurateRip
Копирование... OK
Трек 3
Имя файла C:\Documents and Settings\kuzmin\Мои документы\Abltkbj\6. Воццек (Бем)\CD2\Wozzeck Act 2 - 3.ape
Пиковый уровень 60.6 %
Качество трека 100.0 %
CRC копии 5932126C
Трек не обнаружен в базе AccurateRip
Копирование... OK
Трек 4
Имя файла C:\Documents and Settings\kuzmin\Мои документы\Abltkbj\6. Воццек (Бем)\CD2\Wozzeck Act 2 - 4.ape
Пиковый уровень 56.9 %
Качество трека 100.0 %
CRC копии 46C20F2D
Трек не обнаружен в базе AccurateRip
Копирование... OK
Трек 5
Имя файла C:\Documents and Settings\kuzmin\Мои документы\Abltkbj\6. Воццек (Бем)\CD2\Wozzeck Act 2 - 5.ape
Пиковый уровень 70.9 %
Качество трека 100.0 %
CRC копии E279CCAA
Трек не обнаружен в базе AccurateRip
Копирование... OK
Трек 6
Имя файла C:\Documents and Settings\kuzmin\Мои документы\Abltkbj\6. Воццек (Бем)\CD2\Wozzeck Act 2 - 6.ape
Пиковый уровень 63.8 %
Качество трека 100.0 %
CRC копии 0E303C72
Трек не обнаружен в базе AccurateRip
Копирование... OK
Трек 7
Имя файла C:\Documents and Settings\kuzmin\Мои документы\Abltkbj\6. Воццек (Бем)\CD2\Wozzeck Act 2 - 7.ape
Пиковый уровень 75.9 %
Качество трека 100.0 %
CRC копии 1C60BF82
Трек не обнаружен в базе AccurateRip
Копирование... OK
Трек 8
Имя файла C:\Documents and Settings\kuzmin\Мои документы\Abltkbj\6. Воццек (Бем)\CD2\Wozzeck Act 2 - 8.ape
Пиковый уровень 49.0 %
Качество трека 100.0 %
CRC копии E2162615
Трек не обнаружен в базе AccurateRip
Копирование... OK
Трек 9
Имя файла C:\Documents and Settings\kuzmin\Мои документы\Abltkbj\6. Воццек (Бем)\CD2\Wozzeck Act 3 - 1.ape
Пиковый уровень 64.0 %
Качество трека 100.0 %
CRC копии C69994DA
Трек не обнаружен в базе AccurateRip
Копирование... OK
Трек 10
Имя файла C:\Documents and Settings\kuzmin\Мои документы\Abltkbj\6. Воццек (Бем)\CD2\Wozzeck Act 3 - 2.ape
Пиковый уровень 61.7 %
Качество трека 100.0 %
CRC копии C9AB6390
Трек не обнаружен в базе AccurateRip
Копирование... OK
Трек 11
Имя файла C:\Documents and Settings\kuzmin\Мои документы\Abltkbj\6. Воццек (Бем)\CD2\Wozzeck Act 3 - 3.ape
Пиковый уровень 62.2 %
Качество трека 100.0 %
CRC копии 209E4631
Трек не обнаружен в базе AccurateRip
Копирование... OK
Трек 12
Имя файла C:\Documents and Settings\kuzmin\Мои документы\Abltkbj\6. Воццек (Бем)\CD2\Wozzeck Act 3 - 4.ape
Пиковый уровень 79.1 %
Качество трека 99.9 %
CRC копии 51098D6A
Трек не обнаружен в базе AccurateRip
Копирование... OK
Ни одного трека нет в базе AccurateRip
Ошибок не произошло
Конец отчёта


Last edited by Зуи on 2011-12-10 15:25; edited 1 time in total
Other forum [Profile] [PM]

Omen

Longevity: 7 years 10 months

Posts: 181087

Торрент-статистика

Post 10-Dec-2011 15:00 (after 2 hours 55 minutes)

[Quote]

Зуи,
Залейте пожалуйста постер на один из рекомендуемых хостингов - http://dark-os.com/viewtopic.php?t=13578
Other forum [Profile] [PM]
Display posts from previous:    
Reply to topic

The time now is: Today 08:03

All times are GMT + 3 Hours



You cannot post new topics in this forum
You cannot reply to topics in this forum
You cannot edit your posts in this forum
You cannot delete your posts in this forum
You cannot vote in polls in this forum
You cannot attach files in this forum
You cannot download files in this forum