Сегодня идет свободное скачивание без начисления Download

Алекс Мэй | Сексуальное мастерство для мужчин (2012) DVDRip

Ответить на тему
 
Автор
Сообщение

Omen ®

Стаж: 6 лет

Сообщений: 184329

Торрент-статистика

Пост 07-Сен-2016 01:00

[Цитировать]

Сексуальное мастерство для мужчин - Автор (режиссер): Алекс Мэй
Жанр: Сексология
Описание:
Откровенный тренинг для мужчин с участием красивой ассистентки!
Если у вас уже достаточно опыта в сексе, то у вас наверняка возникало ощущение, которое поначалу возникает у всех хороших любовников, что те вещи, которые по опыту действительно работают в постели (то, что приносит девушкам реальное удовольствие), сильно расходятся с тем, что говорят по ТВ и пишут в популярных книгах и журналах.
Спросите себя, знаете ли вы ответы на следующие вопросы:
- Как быть если после первой ночи девушка больше не берет трубку и не отвечает на звонки?
- Как раскрыть в себе ту сексуальность, которая будет магнетически притягивать к вам девушек?
- Как правильно построить гармоничные отношения с любимой девушкой, защитить себя от измен и каждый день видеть улыбку на ее лице?
- Как мне, обычному парню, наладить интимную жизнь, которой позавидуют порнозвезды?
- Как добиться того, чтобы мои девушки рассказывали своим подругам о том, что я замечательный любовник в постели?
- И вообще, как научится заниматься любовью так, чтобы после первой ночи девушки закидывали бы вас смс-ками с просьбами о продолжении этого невероятного секса, даже если бы вы открыто давали понять, что у них нет никаких шансов на серьёзные отношения с вами?
Если у вас есть затруднения с ответами хотя бы на один из этих вопросов, то это послание адресовано именно вам.
Продолжительность: 11:39:36
Качество видео: DVDRip
Видео: MPEG-4 Visual, 720х576, ~1382 Kbps
Аудио: AAC, 2 ch, 128 Kbps, CBR

Mediainfo:

Код:
General
Complete name                            : C:\Torrents\Алекс Мэй - Сексуальное мастерство для мужчин (2012)\1.mp4
Format                                   : MPEG-4
Format profile                           : Base Media
Codec ID                                 : isom
File size                                : 1.14 GiB
Duration                                 : 1h 47mn
Overall bit rate mode                    : Constant
Overall bit rate                         : 1 515 Kbps
Encoded date                             : UTC 1970-01-01 00:00:00
Tagged date                              : UTC 1970-01-01 00:00:00
Writing application                      : Lavf52.31.0
Video
ID                                       : 1
Format                                   : MPEG-4 Visual
Format profile                           : [email protected]
Format settings, BVOP                    : No
Format settings, QPel                    : No
Format settings, GMC                     : No warppoints
Format settings, Matrix                  : Default (H.263)
Codec ID                                 : 20
Duration                                 : 1h 47mn
Bit rate mode                            : Constant
Bit rate                                 : 1 382 Kbps
Nominal bit rate                         : 1 500 Kbps
Width                                    : 720 pixels
Height                                   : 576 pixels
Display aspect ratio                     : 5:4
Frame rate mode                          : Constant
Frame rate                               : 29.970 fps
Standard                                 : PAL
Color space                              : YUV
Chroma subsampling                       : 4:2:0
Bit depth                                : 8 bits
Scan type                                : Progressive
Compression mode                         : Lossy
Bits/(Pixel*Frame)                       : 0.111
Stream size                              : 1.04 GiB (91%)
Writing library                          : XviD 1.2.1 (UTC 2008-12-04)
Encoded date                             : UTC 1970-01-01 00:00:00
Tagged date                              : UTC 1970-01-01 00:00:00
Audio
ID                                       : 2
Format                                   : AAC
Format/Info                              : Advanced Audio Codec
Format profile                           : LC
Codec ID                                 : 40
Duration                                 : 1h 47mn
Bit rate mode                            : Constant
Bit rate                                 : 128 Kbps
Channel(s)                               : 2 channels
Channel positions                        : Front: L R
Sampling rate                            : 44.1 KHz
Compression mode                         : Lossy
Stream size                              : 98.7 MiB (8%)
Encoded date                             : UTC 1970-01-01 00:00:00
Tagged date                              : UTC 1970-01-01 00:00:00
Скриншоты:
       
Вне форума [Профиль] [ЛС]
Похожие темы
Форум Тема Автор Торрент Отв. Посл. сообщение
./templates/default/images/folder_dl.gif Сатира, Юмор Александр Щелоков | Я — начальник, ты — дурак [2004] [FB2] sashau
1 | 0

0 | 1716

12

2013-01-22 11:11
sashau Последнее
./templates/default/images/folder_dl.gif Фильмы 2001-2010 Новая земля (Александр Мельник) (2008, Фантастика, боевик, драма) [H.264] BDRip Omen
1 | 0

0 | 2625

23

2013-02-20 16:44
Omen Последнее
./templates/default/images/folder_dl.gif Обучающее видео [Profileschool] Алексей Шадрин | Калибровка монитора от А до Я (2014) PCRec Omen
1 | 0

0 | 3354

127

2014-10-14 21:31
Omen Последнее
./templates/default/images/folder_dl.gif Обучающее видео [Profileschool] Алексей Шадрин | Управление визуальным объемом и резкостью изображений (2014) PCRec Omen
1 | 0

0 | 2749

129

2014-11-14 15:38
Omen Последнее
./templates/default/images/folder_dl.gif Обучающее видео Алексей Меркулов | Комплект курсов по 2D и 3D-моделированию в AutoCAD (2014) Omen
1 | 0

3 | 8283

275

2015-04-24 17:33
Галина123 Последнее
./templates/default/images/folder_dl.gif Обучающее видео [Profileschool] Алексей Шадрин | Калибровка принтера: от А до Я (2015) PCRec Omen
1 | 0

0 | 1781

80

2015-03-25 21:19
Omen Последнее
./templates/default/images/folder_dl.gif Обучающее видео Алекс Мэй | Сексуальные позиции. Для максимального наслаждения (2013) [CamRip] Omen
1 | 0

0 | 1893

201

2015-05-07 00:08
Omen Последнее
./templates/default/images/folder_dl.gif Обучающая и научно-популярная литература Алекс Мэй | Сборник аудиокниг [6 книг] (2011-2013) [MP3] Omen
1 | 0

0 | 2400

68

2015-06-03 15:02
Omen Последнее
./templates/default/images/folder_dl.gif Обучающее видео Алекс Мэй | Женская академия секса (2012) [H.264] CamRip Omen
1 | 0

0 | 1161

91

2015-06-04 12:02
Omen Последнее
./templates/default/images/folder_dl.gif Отечественные cериалы Меч 2 (Пролог + Серии 01—20 из 20) (Алексей Луканев) [2015, криминал, SATRip] O.S.A.
1 | 0

0 | 1104

35

2015-06-15 18:54
O.S.A. Последнее
Показать сообщения:    
Ответить на тему

Текущее время: Сегодня 17:12

Часовой пояс: GMT + 3



Вы не можете начинать темы
Вы не можете отвечать на сообщения
Вы не можете редактировать свои сообщения
Вы не можете удалять свои сообщения
Вы не можете голосовать в опросах
Вы не можете прикреплять файлы к сообщениям
Вы не можете скачивать файлы