Today is a free download without charge Download

Дмитрий Федотов | Композитинг в программе Eyeon Fusion (2012) PCRec [H.264]

Reply to topic
 
Author
Message

Omen ®

Longevity: 8 years

Posts: 181087

Торрент-статистика

Post 09-Mar-2016 15:19

[Quote]

Композитинг в программе Eyeon Fusion - Автор (режиссер): Дмитрий Федотов
Производство: Render.ru
Жанр: Композитинг
Описание:
Курс расчитан на всех, кто хочет научиться работать с одной из самых популярных программ для композитинга, финальной сборки, и обработки видео - EYEON Fusion.
На этом курсе слушатели создадут фрагмент мультфильма. За основу взят фрагмент, сделанный по мотивам мультфильма «Ходячий замок Хоула» Хаяо Миядзаки. Изучая инструменты Fusion и используя их на практике, вы не только научитесь работать в программе, но и получите ценнейший опыт работы над реальным проектом.
Примечание: Урок 6/mats.zip материалы проекта оставлены в ZIP-архиве, т.к. там 2400 мелких файлов.
Продолжительность: 04:52:54
Качество видео: PCRec
Видео: AVC/H.264, 1600х900, ~625 Kbps
Аудио: AAC, 2 ch, 121 Kbps, CBR

Mediainfo:

Код:
General
Complete name                            : C:\Torrents\Федотов Дмитрий - Композитинг в EYEon Fusion (2012)\Урок 1\1lesson_composing.mp4
Format                                   : MPEG-4
Format profile                           : Base Media / Version 2
Codec ID                                 : mp42
File size                                : 167 MiB
Duration                                 : 29mn 47s
Overall bit rate                         : 786 Kbps
Encoded date                             : UTC 2012-04-26 16:55:20
Tagged date                              : UTC 2012-04-26 16:55:20
Video
ID                                       : 1
Format                                   : AVC
Format/Info                              : Advanced Video Codec
Format profile                           : [url=mailto:[email protected]L4.0][email protected][/url]
Format settings, CABAC                   : Yes
Format settings, ReFrames                : 4 frames
Format settings, GOP                     : M=1, N=125
Codec ID                                 : avc1
Codec ID/Info                            : Advanced Video Coding
Duration                                 : 29mn 47s
Source duration                          : 29mn 47s
Bit rate                                 : 625 Kbps
Width                                    : 1 600 pixels
Height                                   : 900 pixels
Display aspect ratio                     : 16:9
Frame rate mode                          : Constant
Frame rate                               : 25.000 fps
Standard                                 : PAL
Color space                              : YUV
Chroma subsampling                       : 4:2:0
Bit depth                                : 8 bits
Scan type                                : Progressive
Bits/(Pixel*Frame)                       : 0.017
Stream size                              : 133 MiB (80%)
Source stream size                       : 141 MiB (84%)
Language                                 : English
Encoded date                             : UTC 2012-04-26 16:55:20
Tagged date                              : UTC 2012-04-26 16:55:20
Color primaries                          : BT.709
Transfer characteristics                 : BT.709
Matrix coefficients                      : BT.709
mdhd_Duration                            : 1787699
Audio
ID                                       : 2
Format                                   : AAC
Format/Info                              : Advanced Audio Codec
Format profile                           : LC
Codec ID                                 : 40
Duration                                 : 29mn 47s
Source duration                          : 29mn 47s
Bit rate mode                            : Constant
Bit rate                                 : 121 Kbps
Channel(s)                               : 2 channels
Channel positions                        : Front: L R
Sampling rate                            : 44.1 KHz
Compression mode                         : Lossy
Stream size                              : 25.7 MiB (15%)
Source stream size                       : 25.7 MiB (15%)
Language                                 : English
Encoded date                             : UTC 2012-04-26 16:55:20
Tagged date                              : UTC 2012-04-26 16:55:20
mdhd_Duration                            : 1785834

Дополнительная информация:

Зачем изучать Fusion?
1.В сравнении с After Effects, Fusion быстрее. Причем на всех задачах, начиная с проигрывания секвенций, и, заканчивая сложными эффектами.
За счет использования GPU, оптимизации, эффективной системы кеширования.
2. Fusion удобнее. Его нодовая структура обладает невероятной гибкостью, и позволяет решать сложнейшие задачи соединением пары нодов.
Любой, сделанный вами инструмент или элемент композиции, вы можете сохранить на будущее и в дальнейшем получить к нему доступ одним движением.
Части композиции можно подписывать для удобства, объединять в группы любым из трех способов.
3.Fusion дает вам новые возможности. 3D композинг, шейдинг, освещение, рендер анимированных 3д моделей с текстурами и материалами. Системы частиц, GPU рендеринг сцен,
работающий в десятки раз быстрее (при наличии нормальной видеокарты GForce).
4.Fusion прост. Он очень прост в освоении, и обладает дружественным интерфейсом. Вы без труда освоите его на этом курсе.

Программа курса:

1 Урок. Анимация деревьев на замке. Настройка интерфейса, работа с PSD, Displace, Polyline mask. 2D композинг.
2 Урок. Создания и анимация крыла замка. 3D Plane, 3D композинг, анимация изгиба крыла.
3 Урок. Создание и анимация пропеллера. 3D инструменты, материалы.
4 Урок. Анимация 2D изображений. Grid Warp, Transform.
5 Урок. Системы частиц. Создание водопада и дыма из трубы. Материалы, импорт FBX, рендеринг.
6 Урок. Импорт анимированной секвенции OBJ, постановка света, дымка, облака, фон.
7 Урок. Анимация камеры, DOF, Soft Clip, модификаторы, финальный рендеринг. World Position.
8 Урок. Различные полезные инструменты, которые могут вам пригодиться, хотя в этом ролике и не пригодились. А именно: трекеры, паблиш, колор мач. Импорт и композинг Open EXR картинок.
9 Урок. Ответы на вопросы

Видео:

Скриншоты:
       
Other forum [Profile] [PM]
Similar theme
Forum Topic Author Torrent Replies Last Post
./templates/default/images/folder_dl.gif Обучающая и научно-популярная литература Дмитрий Семеник | Гадания и привороты: рецепт несчастья [2013] [MP3] UndegraundMen
1 | 0

0 | 2980

9

2013-06-06 03:02
UndegraundMen Latest
Display posts from previous:    
Reply to topic

The time now is: Today 16:21

All times are GMT + 3 Hours



You cannot post new topics in this forum
You cannot reply to topics in this forum
You cannot edit your posts in this forum
You cannot delete your posts in this forum
You cannot vote in polls in this forum
You cannot attach files in this forum
You cannot download files in this forum