Сегодня идет свободное скачивание без начисления Download

Последствия / Aftermath (Эллиотт Лестер) [2017, Триллер, Драма, WEB-DLRip 1080p] MVO (MUZOBOZ)

Ответить на тему
 
Автор
Сообщение

Omen ®

Стаж: 6 лет 1 месяц

Сообщений: 184308

Торрент-статистика

Пост 09-Мар-2016 09:31

[Цитировать]

Последствия / Aftermath - Производство: США, Emmett/Furla Films, Hat and Cat Productions
Жанр: Триллер, Драма
Режиссер: Эллиотт Лестер
Продюсер: Даррен Аронофски, Рэндолл Эмметт
Актеры: Арнольд Шварценеггер, Мэгги Грэйс, Кевин Зегерс, Скут МакНэри, Ханна Уэр, Мариана Клавено, Гленн Моршауэр, Ларри Салливан, Мартин Донован, Мо
Описание:
Ожидающий прилета своей семьи Роман узнает, что случилось непоправимое. Произошла авиакатастрофа и его любимые — жена и беременная дочь — погибли.
Потеряв тех, ради кого жил, он преследует единственную цель: посмотреть в глаза невольного убийцы и услышать слова сожаления. Более года поиска приводит Романа к авиадиспетчеру Джейку, управлявшему курсом самолета в момент катастрофы.

Возраст: 18+ (зрителям, достигшим 18 лет. запрещено для детей)
Рейтинг MPAA: R (лицам до 17 лет обязательно присутствие взрослого)
Дата мировой премьеры: 6 апреля 2017
Дата российской премьеры: 6 апреля 2017, «Люксор»
Продолжительность: 01:34:28
Качество видео: WEB-DLRip Сэмпл
Перевод: Многоголосый закадровый (MUZOBOZ)
Субтитры: Отсутствуют
Реклама: Присутствуют голосовые и текстовые вставки рекламы
Видео: AVC/H.264, 1912x792 (2.40:1), 4766 Kbps, 23.976 fps
Аудио: 48 kHz, AC3 Dolby Digital, 2/0 (L,R) ch, ~384 kbps

MediaInfo:

Общее
Уникальный идентификатор : 216656284814608775660309361384063221680 (0xA2FE7B8F5EEB50A5B64D10C1C07FBFB0)
Полное имя : D:\Aftermath.2017.WEB-DLRip.1O8Op.mkv
Формат : Matroska
Версия формата : Version 4 / Version 2
Размер файла : 3,39 Гбайт
Продолжительность : 1 ч. 34 м.
Режим общего битрейта : Переменный
Общий поток : 5152 Кбит/сек
Дата кодирования : UTC 2017-04-07 18:07:11
Программа кодирования : mkvmerge v8.3.0 ('Over the Horizon') 64bit
Библиотека кодирования : libebml v1.3.1 + libmatroska v1.4.2
Видео
Идентификатор : 1
Формат : AVC
Формат/Информация : Advanced Video Codec
Профиль формата : [url=mailto:[email protected]][email protected][/url]
Параметр CABAC формата : Да
Параметр ReFrames формата : 5 кадров
Идентификатор кодека : V_MPEG4/ISO/AVC
Продолжительность : 1 ч. 34 м.
Вид битрейта : Переменный
Битрейт : 4766 Кбит/сек
Максимальный битрейт : 5500 Кбит/сек
Ширина : 1912 пикселей
Высота : 792 пикселя
Соотношение сторон : 2,40:1
Режим частоты кадров : Постоянный
Частота кадров : 23,976 (24000/1001) кадра/сек
Стандарт вещания : Component
Цветовое пространство : YUV
Субдискретизация насыщенности : 4:2:0
Битовая глубина : 8 бит
Тип развёртки : Прогрессивная
Бит/(Пиксели*Кадры) : 0.131
Размер потока : 3,14 Гбайт (93%)
Язык : English
Default : Да
Forced : Нет
Цветовой диапазон : Limited
Основные цвета : BT.709
Характеристики трансфера : BT.709
Коэффициенты матрицы : BT.709
Аудио
Идентификатор : 2
Формат : AC-3
Формат/Информация : Audio Coding 3
Расширение режима : CM (complete main)
Параметр Endianness формата : Big
Идентификатор кодека : A_AC3
Продолжительность : 1 ч. 34 м.
Вид битрейта : Постоянный
Битрейт : 384 Кбит/сек
Каналы : 2 канала
Расположение каналов : Front: L R
Частота : 48,0 КГц
Частота кадров : 31,250 кадров/сек (1536 spf)
Метод сжатия : С потерями
Задержка видео : 21 мс.
Размер потока : 259 Мбайт (7%)
Язык : Russian
Default : Да
Forced : Нет
Скриншоты:
       
Вне форума [Профиль] [ЛС]
Похожие темы
Форум Тема Автор Торрент Отв. Посл. сообщение
./templates/default/images/folder_dl.gif Разное Семеник Дмитрий - Освободи себя Как преодолеть насилие и его последствия. [Дмитрий Чурсин (ЛИ), (ЛИ), 2016 г., 128 kbps, MP3] Omen
1 | 0

0 | 3203

9

2016-08-20 01:00
Omen Последнее
./templates/default/images/folder_dl.gif Новинки (BD|HDTV|DVD) Звёздные войны: Последние джедаи / Star Wars: The Last Jedi (Райан Джонсон) [2017, фантастика, фэнтези, боевик, приключения, UHD BDRemux 2160p] DUB | iTunes Theseus
1 | 0

0 | 853

5

2018-03-15 14:03
Theseus Последнее
Показать сообщения:    
Ответить на тему

Текущее время: Сегодня 09:55

Часовой пояс: GMT + 3



Вы не можете начинать темы
Вы не можете отвечать на сообщения
Вы не можете редактировать свои сообщения
Вы не можете удалять свои сообщения
Вы не можете голосовать в опросах
Вы не можете прикреплять файлы к сообщениям
Вы не можете скачивать файлы