Today is a free download without charge Download

Дмитрий Родин | Как составлять сметы в Microsoft Excel (2014) PCRec [H.264]

Reply to topic
 
Author
Message

}{@R0N ®

Longevity: 5 years 1 month

Posts: 7670

Торрент-статистика

Post 25-Nov-2015 23:04

[Quote]

Дмитрий Родин
Как составлять сметы в Microsoft Excel
- Автор (режиссер): Дмитрий Родин
Жанр: Видеокурс
Описание:
Вы действительно хотите обучиться качественному и быстрому составлению смет любой сложности на проектные и строительные работы в программе Microsoft Excel не использую дорогие сметные программы?
.
Тогда ознакомьтесь с практическим видеокурсом Дмитрия Родина, сметчика-профессионала. У Дмитрия Родина большой опыт в составлении смет – им выполнены заказы на несколько тысяч смет на практически все виды услуг. Не меньший опыт у автора и в обучении сметному делу.
Новый видеокурс «Как составлять сметы в Microsoft Excel» собрал в себя много лет практического опыта Д.Родина. Руководство, продолжительностью более 14 часов, состоит из 50 подробных видеоуроков. В это руководство включены не только технические аспекты, но и не менее важные юридические нюансы. Видео-самоучитель составлен из двух модулей – первый модуль «Составление локальных смет», а второй — «Составление проектных смет».
В курсе не будет никаких нудных и бесполезных теоретических выкладок, все уроки состоят из самых важных моментов и наглядных практических примеров. Самое время начинать!
Продолжительность: 12:33:10
Качество видео: PCRec
Видео: AVC/H.264, 1060х700, ~634 Kbps
Аудио: AAC, 2 ch, 44.1 Kbps

Mediainfo:

Код:
Format                         : MPEG-4
Format profile                 : Base Media
Codec ID                       : isom
File size                      : 31.0 MiB
Duration                       : 7mn 20s
Overall bit rate               : 590 Kbps
Encoded date                   : UTC 2014-02-26 11:36:25
Tagged date                    : UTC 2014-02-26 11:36:25
Writing application            : Lavf56.36.100
Video
ID                             : 2
Format                         : AVC
Format/Info                    : Advanced Video Codec
Format profile                 : [url=mailto:[email protected]][email protected][/url]
Format settings, CABAC         : Yes
Format settings, ReFrames      : 1 frame
Format settings, GOP           : M=1, N=25
Codec ID                       : avc1
Codec ID/Info                  : Advanced Video Coding
Duration                       : 7mn 20s
Bit rate                       : 534 Kbps
Width                          : 1 060 pixels
Height                         : 700 pixels
Display aspect ratio           : 3:2
Frame rate mode                : Constant
Frame rate                     : 10.000 fps
Standard                       : Component
Color space                    : YUV
Chroma subsampling             : 4:2:0
Bit depth                      : 8 bits
Scan type                      : Progressive
Bits/(Pixel*Frame)             : 0.072
Stream size                    : 28.0 MiB (90%)
Language                       : English
Encoded date                   : UTC 2014-02-26 11:36:25
Tagged date                    : UTC 2014-02-26 11:36:25
Color range                    : Limited
Audio
ID                             : 1
Format                         : AAC
Format/Info                    : Advanced Audio Codec
Format profile                 : LC
Codec ID                       : 40
Duration                       : 7mn 19s
Bit rate mode                  : Constant
Bit rate                       : 53.7 Kbps
Channel(s)                     : 2 channels
Channel positions              : Front: L R
Sampling rate                  : 44.1 KHz
Compression mode               : Lossy
Stream size                    : 2.81 MiB (9%)
Language                       : English
Encoded date                   : UTC 2014-02-26 11:36:25
Tagged date                    : UTC 2014-02-26 11:36:25

Вы можете научиться составлению смет в Microsoft Excel для таких видов работ, как:

1. Ремонт фасадов
2. На прокладку наружных сетей дренажа
3. Земляные работы
4. Строительство автомобильных дорог
5. Погрузочные и разгрузочные работы
6. Проектирование наружных инженерных сетей
7. Проектирование автопарковок

Какие этапы вы будете проходить при изучении курса:

1 Этап. Научитесь правильному чтению смет, будете знать, из чего состоит обычная локальная смета.
2 Этап. Освоение теории сметного дела — ничего лишнего, только та информация, которая необходима для Вашей работы;
3 Этап. Узнаете все виды начислений на сметы;
4 Этап. Научитесь правильному использованию нормативных баз имеющихся в бесплатном доступе (Сайт Дмитрия Родина предлагает полный список регионов Российской Федерации), узнаете и то, как скачивать нормативные базы с официальных сайтов;
5 Этап. Знакомство с особенностями интерфейса Microsoft Excel и обучение основным правилам работы в этой программе;
6 Этап. На Вашем компьютере установлен Microsoft Excel и вы сможете составить пять больших смет самостоятельно с нулевого уровня. Это даст возможность освоить все главные нюансы и сложности в составлении смет.
7 Этап. Изучите все особенности использования легальных (и не только легальных!) методов установки и регулирования цены на сметы (получите доступ к закрытой информации);
8 Этап. Научитесь многим тонкостям поиска заказов на составление смет в вашем регионе, области, городе, а так же использовать Интернет для этого;
9 Этап. Практическое освоение множества самых важных в сметном деле нюансов.

СОДЕРЖАНИЕ ВИДЕОКУРСА:

Модуль 1. Составление локальных смет:
Урок 1. Общий вид локальной сметы
Урок 2. Индексация смет
Урок 3. Начисление коэффициентов к элементам затрат
Урок 4. Накладные расходы (НР)
Урок 5. Сметная прибыль (СП)
Урок 6. Коэффициенты к НР и СП
Урок 7. Как ориентироваться в нормативной базе (НБ)
Урок 8. Работа с файлом с НБ по регионам
Урок 9. Создаем шаблон сметы в Excel
Урок 10. Набираем расценки сметы
Урок 11. Составляем смету на ремонт с начислением индексов по элементам затрат в конце раздела (дренаж)
Урок 12. Составляем смету с построчной индексацией (дренаж)
Урок 13. Составляем смету с построчной индексацией (фасад)
Урок 14. Смета по ФЕР на ремонт автодороги
Урок 15. Акт выполненных работ КС-2 (полное закрытие сметы)
Урок 16. Акт выполненных работ КС-2 (закрытие в процентах от объемов сметы)
Урок 17. Акт выполненных работ КС-2 (закрытие произвольных объемов по смете)
Урок 18. Справка формы КС-3
Урок 19. Основные правила работы
Урок 20. Форматирование данных в Excel
Урок 21. Экспорт таблиц из Excel в Word и обратно
Урок 22. Где найти нормативную литературу
Урок 23. Как зарегистрироваться на форуме сметчиков
Урок 24. Где скачать примеры смет
Урок 25. Как создать техническое задание (ТЗ) на основе сметы в Excel
Урок 26. Лимитированные затраты
Урок 27. Объектная смета (ОС) в Excel
Урок 28. Сводный сметный расчет (СС) в Excel
Урок 29. Особенности составления смет при упрощенке (УСН)
Урок 30. Усложняющие коэффициенты
Урок 31. Подгонка стоимости локальной сметы
Урок 32. АРПС формат (экспорт сметы из Excel в любую сметную программу)
Урок 33. Книги по сметному делу
Урок 34. Сервисы фриленсеров и доски объявлений
Урок 35. Реклама на Яндекс.Директ
Урок 36. Поиск работы в своем городе
Урок 37. Портал hh.ru
Урок 38. Приобретение сметных программ (только для серьезно настроенных людей)
Урок 39. Практическая часть курса
Модуль 2. Составление смет на проектные работы (ПИР):
Урок 1. Введение в сметы ПИР
Урок 2. Обзор сборников базовых цен (СБЦ)
Урок 3. Изучаем техническую часть СБЦ «Предприятия автомобильного транспорта»
Урок 4. Рассматриваем общие указания ко всем СБЦ
Урок 5. Составляем смету на Автопарковку
Урок 6. Дренаж
Урок 7. Наружная канализация
Урок 8. Наружные сети водопровода
Урок 9. Наружные сети теплоснабжения (теплотрасса)
Урок 10. Наружные сети (альтернативный справочник СБЦ)
Урок 11. Подгонка стоимости проектной сметы
Скриншоты:
     
Other forum [Profile] [PM]
Display posts from previous:    
Reply to topic

The time now is: Today 17:02

All times are GMT + 3 Hours



You cannot post new topics in this forum
You cannot reply to topics in this forum
You cannot edit your posts in this forum
You cannot delete your posts in this forum
You cannot vote in polls in this forum
You cannot attach files in this forum
You cannot download files in this forum