Today is a free download without charge Download

(Lounge | Bossa) Lazy - F.L.O.Y.D - A Chillout Experience (2006)[ image+cue, FLAC ] ,Sports Food & Entertainmen​t S.A. , 0946 3636272 4(Rip Sklon))Lossl​ess

Reply to topic
 
Author
Message

Koralina ®

Longevity: 9 years 7 months

Posts: 994

Location: Lithuania

Торрент-статистика

Post 18-Oct-2011 01:28

[Quote]

Lazy - F.L.O.Y.D - A Chillout Experience
Производство: Lazy
Жанр: Lounge | Bossa
Год выпуска альбома: 2006
Аудиокодек: FLAC
Тип рипа: image+cue
Лейбл издания: Sports Food & Entertainment S.A.
Номер каталога: 0946 3636272 4(Rip Sklon)
Полный скан буклета: Да
Продолжительность: 00.44.30
01. Wish You Were Here
02. Brain Damage
03. Mother
04. Money
05. Time
06. Another Brick In The Wall
07. Pigs On The Wing
08. Shine On You Crazy Diamond
09. Comfortable Numb
10. Hey You
11. Learning To Fly
12. The Great Gig In The Sky

LOG


Exact Audio Copy V0.99 prebeta 4 from 23. January 2008
EAC extraction logfile from 28. August 2009, 19:55
Lazy / F.L.O.Y.D - A Chillout Experience
Used drive : PIONEER DVD-RW DVR-112D Adapter: 1 ID: 0
Read mode : Secure
Utilize accurate stream : Yes
Defeat audio cache : Yes
Make use of C2 pointers : No
Read offset correction : 48
Overread into Lead-In and Lead-Out : No
Fill up missing offset samples with silence : Yes
Delete leading and trailing silent blocks : No
Null samples used in CRC calculations : Yes
Used interface : Installed external ASPI interface
Used output format : User Defined Encoder
Selected bitrate : 192 kBit/s
Quality : Low
Add ID3 tag : Yes
Command line compressor : C:\Program Files\E A C Audio\Flac\flac.exe
Additional command line options : -V -8 -T "artist=%a" -T "title=%t" -T "album=%g" -T "date=%y" -T "tracknumber=%n" -T "genre=%m" %s
TOC of the extracted CD
Track | Start | Length | Start sector | End sector
---------------------------------------------------------
1 | 0:00.00 | 3:39.54 | 0 | 16478
2 | 3:39.54 | 4:06.47 | 16479 | 34975
3 | 7:46.26 | 4:25.03 | 34976 | 54853
4 | 12:11.29 | 3:56.70 | 54854 | 72623
5 | 16:08.24 | 4:18.60 | 72624 | 92033
6 | 20:27.09 | 3:28.20 | 92034 | 107653
7 | 23:55.29 | 1:58.22 | 107654 | 116525
8 | 25:53.51 | 3:47.18 | 116526 | 133568
9 | 29:40.69 | 4:20.48 | 133569 | 153116
10 | 34:01.42 | 3:41.46 | 153117 | 169737
11 | 37:43.13 | 4:05.71 | 169738 | 188183
12 | 41:49.09 | 2:41.55 | 188184 | 200313
Range status and errors
Selected range
Filename G:\_Lazy - F.L.O.Y.D - A Chillout Experience\Lazy - F.L.O.Y.D - A Chillout Experience.wav
Peak level 98.4 %
Range quality 100.0 %
Test CRC F886981D
Copy CRC F886981D
Copy OK
No errors occurred
AccurateRip summary
Track 1 accurately ripped (confidence 1) [7EA83FA4]
Track 2 accurately ripped (confidence 1) [BFE314A5]
Track 3 accurately ripped (confidence 1) [F2987D99]
Track 4 accurately ripped (confidence 1) [2FBB779B]
Track 5 accurately ripped (confidence 1) [10728865]
Track 6 accurately ripped (confidence 1) [259A7B45]
Track 7 accurately ripped (confidence 1) [F9FAAE61]
Track 8 accurately ripped (confidence 1) [761E62CE]
Track 9 accurately ripped (confidence 1) [554E3457]
Track 10 accurately ripped (confidence 1) [AF2BE66C]
Track 11 accurately ripped (confidence 1) [819B42F6]
Track 12 accurately ripped (confidence 1) [DBDD354F]
All tracks accurately ripped
End of status report

YouTube



_________________


Last edited by Koralina on 2011-10-31 01:06; edited 2 times in total
Other forum [Profile] [PM]
Display posts from previous:    
Reply to topic

The time now is: Today 05:33

All times are GMT + 3 Hours



You cannot post new topics in this forum
You cannot reply to topics in this forum
You cannot edit your posts in this forum
You cannot delete your posts in this forum
You cannot vote in polls in this forum
You cannot attach files in this forum
You cannot download files in this forum