Today is a free download without charge Download

Вампиры: Возрождение древнего рода / Slayer (Кевин ВанХук) (2006) DVDRip

Reply to topic
 
Author
Message

Varius ®

Gender:

Longevity: 9 years 2 months

Posts: 2403

Location: Hell

Торрент-статистика

Post 15-Oct-2011 23:34

[Quote]

Вампиры: Возрождение древнего рода / Slayer (2006) DVDRip- Русское название: Вампиры: Возрождение древнего рода
Оригинальное название: Slayer
Год выпуска: 2006
Жанр: Ужасы, Фантастика, Боевик
Страна: США
Описание фильма:
Желая угодить богам, древние племена инков приносили в жертву людей и пили человеческую кровь. Но вскоре в их племенах стали рождаться вампиры. Они во всем превосходили своих соплеменников. В силе, ловкости и хитрости им не было равных. Вскоре они обрели бессмертие, которое подарила им жертвенная кровь. Когда же их жажда стала походить на безумие, старейшины племени изгнали вампиров!
Сотни лет спустя загадочные события, происходящие в южноамериканских лесах, привлекают внимание военных. Команда спецназа получает задание разобраться в происходящем…
Режиссер: Кевин ВанХук
Актеры: Каспер Ван Дин, Тони Плана, Кевин Гревье, Дженнифер О’Делл, Алексис Крус, Джойс Жиро, Рэй Парк, Дэнни Трехо, Линда Картер, Ски Карр...
Продолжительность: 01:23:45
Перевод: Многоголосый закадровый

Видеокодек: Xvid
Качество видео: DVDRip
Видео: MPEG4, XviD, 720x400 (16/9), 25.000 fps, 1 949 Kbps (0.271 bit/pixel)
Аудио: AC-3, 48.0 KHz, 6 ch, 384 Kbps, CBR

MediaInfo

Общее
Полное имя : F:\Фильмы\Вампиры Возрождение древнего рода\Vampiry vozrojdenie drevnego roda.2006..avi
Формат : AVI
Формат/Информация : Audio Video Interleave
Размер файла : 1,37 Гбайт
Продолжительность : 1 ч. 23 м.
Общий поток : 2340 Кбит/сек
Программа кодирования : VirtualDubMod 1.5.4.1 (build 2178/release)
Библиотека кодирования : VirtualDubMod build 2178/release
Видео
Идентификатор : 0
Формат : MPEG-4 Visual
Профиль формата : Advanced [email protected]
Параметр BVOP формата : 1
Параметр QPel формата : Нет
Параметр GMC формата : Без точки перехода
Параметр матрицы формата : Выборочная
Идентификатор кодека : XVID
Идентификатор кодека/Подсказка : XviD
Продолжительность : 1 ч. 23 м.
Битрейт : 1949 Кбит/сек
Ширина : 720 пикс.
Высота : 400 пикс.
Соотношение сторон : 16:9
Частота кадров : 25,000 кадр/сек
Цветовое пространство : YUV
Подвыборка цветности : 4:2:0
Битовая глубина : 8 бит
Тип развёртки : Прогрессивная
Метод сжатия : С потерями
Бит/(Пиксели*Кадры) : 0.271
Размер потока : 1,14 Гбайт (83%)
Библиотека кодирования : XviD 64
Аудио
Идентификатор : 1
Формат : AC-3
Формат/Информация : Audio Coding 3
Расширение режима : CM (complete main)
Идентификатор кодека : 2000
Продолжительность : 1 ч. 23 м.
Вид битрейта : Постоянный
Битрейт : 384 Кбит/сек
Каналы : 6 каналов
Расположение каналов : Front: L C R, Side: L R, LFE
Частота : 48,0 КГц
Битовая глубина : 16 бит
Метод сжатия : С потерями
Размер потока : 230 Мбайт (16%)
Выравнивание : Разделение по промежуткам
Продолжительность промежутка : 96 мс. (2,40 видеокадра)
Время предзагрузки промежутка : 96 ms
Язык : Russian
Скриншоты:
               

_________________

Создавая "Новую папку", не считайте себя Создателем - это право Вам дано Админом




Last edited by Varius on 2011-10-16 10:28; edited 2 times in total
Other forum [Profile] [PM]
Display posts from previous:    
Reply to topic

The time now is: Today 14:14

All times are GMT + 3 Hours



You cannot post new topics in this forum
You cannot reply to topics in this forum
You cannot edit your posts in this forum
You cannot delete your posts in this forum
You cannot vote in polls in this forum
You cannot attach files in this forum
You cannot download files in this forum