Today is a free download without charge Download

(Lounge) VA - Obsession Lounge vol.5 2CD - 2011, APE (tracks+.cue), lossless

Reply to topic
 
Author
Message

Koralina ®

Longevity: 8 years 2 months

Posts: 994

Location: Lithuania

Торрент-статистика

Post 14-Oct-2011 15:10

[Quote]

Obsession Lounge vol.5 2CD

Жанр: Lounge
Страна-производитель диска: Germany
Год издания диска: 2011
Издатель (лейбл): CLUBSTARL
Номер по каталогу: LC00877
Аудиокодек: APE (*.ape)
Тип рипа: tracks+.cue
Битрейт аудио: lossless
Наличие сканов в содержимом раздачи: да
Продолжительность:
CD1: 0:55:50
CD2: 0:59:12

СD1

Треклист

1. Burak Demir - Kinaliada Sonbahar (5:37)
2. Afro Celt Sound System - Persistence Of Memory (5:02)
3. Triangle Sun - Secret Letter (4:30)
4. Rencause - Essaouira (4:19)
5. Jerome Noak feat. Jenni Wiegand - Croisette (Clelia Felix Remix) (4:41)
6. Fishtank - The Eighty Eight (Original Mix) (4:49)
7. Sudaka - Be (4:48)
8. Roberto Sol - Memories To Share (4:16)
9. Razoof - Nothing More, Nothing Less (Gelka Remix) (3:54)
10. Boozoo Bajou feat. Willie Hutch - Second To None (4:29)
11. Fela Manoz & Obutie-Man - Vin Blanc (4:02)
12. Mathieu & Florzinho - Closer To The Light (The Mumbai Odyssey Mix) (5:23)

Лог создания рипа

Exact Audio Copy V1.0 beta 1 from 15. November 2010
EAC extraction logfile from 13. October 2011, 22:38
Various / Obsession Lounge Vol. 5 CD1
Used drive : Optiarc DVD RW AD-7243S Adapter: 4 ID: 0
Read mode : Secure
Utilize accurate stream : Yes
Defeat audio cache : Yes
Make use of C2 pointers : No
Read offset correction : 48
Overread into Lead-In and Lead-Out : No
Fill up missing offset samples with silence : Yes
Delete leading and trailing silent blocks : No
Null samples used in CRC calculations : Yes
Used interface : Native Win32 interface for Win NT & 2000
Gap handling : Appended to previous track
Used output format : Monkey's Audio Lossless Encoder
Selected bitrate : Fast Lossless Compression
Quality : High
Add ID3 tag : Yes
Command line compressor : C:\Program Files\Exact Audio Copy\Mac\MAC.exe
Additional command line options : %dest% -t "Genre=%genre%" -t "Artist=%artist%" -t "Title=%title%" -t "Album=%albumtitle%" -t "Year=%year%" -t "Track=%tracknr%" -t "Comment=%comment%" mac.exe %source% %dest% -c3000
TOC of the extracted CD
Track | Start | Length | Start sector | End sector
---------------------------------------------------------
1 | 0:00.00 | 5:37.27 | 0 | 25301
2 | 5:37.27 | 5:02.16 | 25302 | 47967
3 | 10:39.43 | 4:30.35 | 47968 | 68252
4 | 15:10.03 | 4:19.15 | 68253 | 87692
5 | 19:29.18 | 4:41.34 | 87693 | 108801
6 | 24:10.52 | 4:49.34 | 108802 | 130510
7 | 29:00.11 | 4:47.59 | 130511 | 152094
8 | 33:47.70 | 4:15.43 | 152095 | 171262
9 | 38:03.38 | 3:53.63 | 171263 | 188800
10 | 41:57.26 | 4:29.20 | 188801 | 208995
11 | 46:26.46 | 4:01.54 | 208996 | 227124
12 | 50:28.25 | 5:22.49 | 227125 | 251323
Track 1
Filename F:\ЗАГРУЗКИ\ Obsession Lounge 5 2CD (2011)\Obsession Lounge 5 CD1\01. Burak Demir - Kinaliada Sonbahar.wav
Pre-gap length 0:00:02.00
Peak level 97.7 %
Extraction speed 4.3 X
Track quality 99.9 %
Test CRC F5094F23
Copy CRC F5094F23
Track not present in AccurateRip database
Copy OK
Track 2
Filename F:\ЗАГРУЗКИ\ Obsession Lounge 5 2CD (2011)\Obsession Lounge 5 CD1\02. Afro Celt Sound System - Persistence Of Memory.wav
Peak level 97.7 %
Extraction speed 5.0 X
Track quality 100.0 %
Test CRC 70ACB846
Copy CRC 70ACB846
Track not present in AccurateRip database
Copy OK
Track 3
Filename F:\ЗАГРУЗКИ\ Obsession Lounge 5 2CD (2011)\Obsession Lounge 5 CD1\03. Triangle Sun - Secret Letter.wav
Peak level 96.5 %
Extraction speed 5.4 X
Track quality 100.0 %
Test CRC 98B82551
Copy CRC 98B82551
Track not present in AccurateRip database
Copy OK
Track 4
Filename F:\ЗАГРУЗКИ\ Obsession Lounge 5 2CD (2011)\Obsession Lounge 5 CD1\04. Rencause - Essaouira.wav
Peak level 97.7 %
Extraction speed 5.8 X
Track quality 100.0 %
Test CRC F133B775
Copy CRC F133B775
Track not present in AccurateRip database
Copy OK
Track 5
Filename F:\ЗАГРУЗКИ\ Obsession Lounge 5 2CD (2011)\Obsession Lounge 5 CD1\05. Jerome Noak feat. Jenni Wiegand - Croisette (Clelia Felix Remix).wav
Peak level 97.7 %
Extraction speed 6.2 X
Track quality 100.0 %
Test CRC 53AAB02B
Copy CRC 53AAB02B
Track not present in AccurateRip database
Copy OK
Track 6
Filename F:\ЗАГРУЗКИ\ Obsession Lounge 5 2CD (2011)\Obsession Lounge 5 CD1\06. Fishtank - The Eighty Eight (Original Mix).wav
Peak level 97.7 %
Extraction speed 6.6 X
Track quality 100.0 %
Test CRC AAE0CC6E
Copy CRC AAE0CC6E
Track not present in AccurateRip database
Copy OK
Track 7
Filename F:\ЗАГРУЗКИ\ Obsession Lounge 5 2CD (2011)\Obsession Lounge 5 CD1\07. Sudaka - Be.wav
Peak level 97.7 %
Extraction speed 6.9 X
Track quality 100.0 %
Test CRC 6A5F972E
Copy CRC 6A5F972E
Track not present in AccurateRip database
Copy OK
Track 8
Filename F:\ЗАГРУЗКИ\ Obsession Lounge 5 2CD (2011)\Obsession Lounge 5 CD1\08. Roberto Sol - Memories To Share.wav
Peak level 97.7 %
Extraction speed 7.2 X
Track quality 100.0 %
Test CRC 39FEE85F
Copy CRC 39FEE85F
Track not present in AccurateRip database
Copy OK
Track 9
Filename F:\ЗАГРУЗКИ\ Obsession Lounge 5 2CD (2011)\Obsession Lounge 5 CD1\09. Razoof - Nothing More, Nothing Less (Gelka Remix).wav
Peak level 97.7 %
Extraction speed 7.6 X
Track quality 100.0 %
Test CRC 3564E989
Copy CRC 3564E989
Track not present in AccurateRip database
Copy OK
Track 10
Filename F:\ЗАГРУЗКИ\ Obsession Lounge 5 2CD (2011)\Obsession Lounge 5 CD1\10. Boozoo Bajou feat. Willie Hutch - Second To None.wav
Peak level 97.6 %
Extraction speed 7.8 X
Track quality 100.0 %
Test CRC B5527D52
Copy CRC B5527D52
Track not present in AccurateRip database
Copy OK
Track 11
Filename F:\ЗАГРУЗКИ\ Obsession Lounge 5 2CD (2011)\Obsession Lounge 5 CD1\11. Fela Manoz & Obutie-Man - Vin Blanc.wav
Peak level 97.7 %
Extraction speed 8.0 X
Track quality 99.9 %
Test CRC 967496F0
Copy CRC 967496F0
Track not present in AccurateRip database
Copy OK
Track 12
Filename F:\ЗАГРУЗКИ\ Obsession Lounge 5 2CD (2011)\Obsession Lounge 5 CD1\12. Mathieu & Florzinho - Closer To The Light (The Mumbai Odyssey Mix).wav
Peak level 90.1 %
Extraction speed 8.4 X
Track quality 100.0 %
Test CRC 6A8BF195
Copy CRC 6A8BF195
Track not present in AccurateRip database
Copy OK
None of the tracks are present in the AccurateRip database
No errors occurred
End of status report

Содержание индексной карты (.CUE)

REM GENRE Lounge
REM DATE 2011
REM DISCID 9A0D160C
REM COMMENT "ExactAudioCopy v1.0b1"
CATALOG 4260036283396
PERFORMER "Various"
TITLE "Obsession Lounge Vol. 5 CD1"
FILE "01. Burak Demir - Kinaliada Sonbahar.ape" WAVE
TRACK 01 AUDIO
TITLE "Kinaliada Sonbahar"
PERFORMER "Burak Demir"
INDEX 01 00:00:00
FILE "02. Afro Celt Sound System - Persistence Of Memory.ape" WAVE
TRACK 02 AUDIO
TITLE "Persistence Of Memory"
PERFORMER "Afro Celt Sound System"
ISRC GBCPA1001319
INDEX 01 00:00:00
FILE "03. Triangle Sun - Secret Letter.ape" WAVE
TRACK 03 AUDIO
TITLE "Secret Letter"
PERFORMER "Triangle Sun"
ISRC DEHK11000206
INDEX 01 00:00:00
FILE "04. Rencause - Essaouira.ape" WAVE
TRACK 04 AUDIO
TITLE "Essaouira"
PERFORMER "Rencause"
INDEX 01 00:00:00
FILE "05. Jerome Noak feat. Jenni Wiegand - Croisette (Clelia Felix Remix).ape" WAVE
TRACK 05 AUDIO
TITLE "Croisette (Clelia Felix Remix)"
PERFORMER "Jerome Noak feat. Jenni Wiegand"
ISRC DEAZ31006141
INDEX 01 00:00:00
FILE "06. Fishtank - The Eighty Eight (Original Mix).ape" WAVE
TRACK 06 AUDIO
TITLE "The Eighty Eight (Original Mix)"
PERFORMER "Fishtank"
ISRC GBDEX1000310
INDEX 01 00:00:00
FILE "07. Sudaka - Be.ape" WAVE
TRACK 07 AUDIO
TITLE "Be"
PERFORMER "Sudaka"
ISRC DES590900081
INDEX 01 00:00:00
FILE "08. Roberto Sol - Memories To Share.ape" WAVE
TRACK 08 AUDIO
TITLE "Memories To Share"
PERFORMER "Roberto Sol"
ISRC DEMQ11100069
INDEX 01 00:00:00
FILE "09. Razoof - Nothing More, Nothing Less (Gelka Remix).ape" WAVE
TRACK 09 AUDIO
TITLE "Nothing More, Nothing Less (Gelka Remix)"
PERFORMER "Razoof"
ISRC DEAM21000019
INDEX 01 00:00:00
FILE "10. Boozoo Bajou feat. Willie Hutch - Second To None.ape" WAVE
TRACK 10 AUDIO
TITLE "Second To None"
PERFORMER "Boozoo Bajou feat. Willie Hutch"
ISRC DEAW10600065
INDEX 01 00:00:00
FILE "11. Fela Manoz & Obutie-Man - Vin Blanc.ape" WAVE
TRACK 11 AUDIO
TITLE "Vin Blanc"
PERFORMER "Fela Manoz & Obutie-Man"
ISRC DEH740906139
INDEX 01 00:00:00
FILE "12. Mathieu & Florzinho - Closer To The Light (The Mumbai Odyssey Mix).ape" WAVE
TRACK 12 AUDIO
TITLE "Closer To The Light (The Mumbai Odyssey Mix)"
PERFORMER "Mathieu & Florzinho"
ISRC DEEL41001019
INDEX 01 00:00:00

СD2

Треклист

1. Klangstein - The Beauty Without Beats (4:43)
2. Archive - Cloud In The Sky (4:25)
3. Praful - Ponto de Partida (Maneesh de Moor Treatment) (6:05)
4. Simon Le Grec - Lost Senses (Delor Mix) (6:51)
5. Clelia Felix - A Moment Of Silence (4:27)
6. Bloomfield - French Kisses (4:57)
7. Jerry Dimmer - Attendre (5:09)
8. Florzinho - Happy Rainbow Dub (3:25)
9. Cosmic Orient feat. Dana Golombek - La Lune (7:25)
10. Levthand - Comfy Dub Feat. Jen (4:09)
11. NEWTON - Silencio (5:02)
12. Cocoon - Kung Fu Fighting (2:34)

Лог создания рипа

Exact Audio Copy V1.0 beta 1 from 15. November 2010
EAC extraction logfile from 13. October 2011, 22:48
Various / Obsession Lounge Vol. 5 CD2l
Used drive : Optiarc DVD RW AD-7243S Adapter: 5 ID: 0
Read mode : Secure
Utilize accurate stream : Yes
Defeat audio cache : Yes
Make use of C2 pointers : No
Read offset correction : 48
Overread into Lead-In and Lead-Out : No
Fill up missing offset samples with silence : Yes
Delete leading and trailing silent blocks : No
Null samples used in CRC calculations : Yes
Used interface : Native Win32 interface for Win NT & 2000
Gap handling : Appended to previous track
Used output format : Monkey's Audio Lossless Encoder
Selected bitrate : Fast Lossless Compression
Quality : High
Add ID3 tag : Yes
Command line compressor : C:\Program Files\Exact Audio Copy\Mac\MAC.exe
Additional command line options : %dest% -t "Genre=%genre%" -t "Artist=%artist%" -t "Title=%title%" -t "Album=%albumtitle%" -t "Year=%year%" -t "Track=%tracknr%" -t "Comment=%comment%" mac.exe %source% %dest% -c3000
TOC of the extracted CD
Track | Start | Length | Start sector | End sector
---------------------------------------------------------
1 | 0:00.00 | 4:43.08 | 0 | 21232
2 | 4:43.08 | 4:25.22 | 21233 | 41129
3 | 9:08.30 | 6:04.46 | 41130 | 68475
4 | 15:13.01 | 6:51.04 | 68476 | 99304
5 | 22:04.05 | 4:26.46 | 99305 | 119300
6 | 26:30.51 | 4:57.02 | 119301 | 141577
7 | 31:27.53 | 5:08.70 | 141578 | 164747
8 | 36:36.48 | 3:24.60 | 164748 | 180107
9 | 40:01.33 | 7:25.28 | 180108 | 213510
10 | 47:26.61 | 4:09.00 | 213511 | 232185
11 | 51:35.61 | 5:02.17 | 232186 | 254852
12 | 56:38.03 | 2:34.17 | 254853 | 266419
Track 1
Filename F:\ЗАГРУЗКИ\ Obsession Lounge 5 2CD (2011)\Obsession Lounge 5 CD2\01. Klangstein - The Beauty Without Beats.wav
Pre-gap length 0:00:02.00
Peak level 89.2 %
Extraction speed 4.2 X
Track quality 100.0 %
Test CRC 2BBEF905
Copy CRC 2BBEF905
Accurately ripped (confidence 1) [87353428]
Copy OK
Track 2
Filename F:\ЗАГРУЗКИ\ Obsession Lounge 5 2CD (2011)\Obsession Lounge 5 CD2\02. Archive - Cloud In The Sky.wav
Peak level 97.7 %
Extraction speed 4.8 X
Track quality 100.0 %
Test CRC 6AB647A1
Copy CRC 6AB647A1
Accurately ripped (confidence 1) [3D916A1A]
Copy OK
Track 3
Filename F:\ЗАГРУЗКИ\ Obsession Lounge 5 2CD (2011)\Obsession Lounge 5 CD2\03. Praful - Ponto de Partida (Maneesh de Moor Treatment).wav
Peak level 97.7 %
Extraction speed 5.3 X
Track quality 99.9 %
Test CRC 92E30EF8
Copy CRC 92E30EF8
Accurately ripped (confidence 1) [82FF1003]
Copy OK
Track 4
Filename F:\ЗАГРУЗКИ\ Obsession Lounge 5 2CD (2011)\Obsession Lounge 5 CD2\04. Simon Le Grec - Lost Senses (Delor Mix).wav
Peak level 97.7 %
Extraction speed 5.9 X
Track quality 100.0 %
Test CRC 5949EE98
Copy CRC 5949EE98
Accurately ripped (confidence 1) [D3EEC830]
Copy OK
Track 5
Filename F:\ЗАГРУЗКИ\ Obsession Lounge 5 2CD (2011)\Obsession Lounge 5 CD2\05. Clelia Felix - A Moment Of Silence.wav
Peak level 97.7 %
Extraction speed 6.3 X
Track quality 99.9 %
Test CRC 6FD0A290
Copy CRC 6FD0A290
Accurately ripped (confidence 1) [333C7985]
Copy OK
Track 6
Filename F:\ЗАГРУЗКИ\ Obsession Lounge 5 2CD (2011)\Obsession Lounge 5 CD2\06. Bloomfield - French Kisses.wav
Peak level 97.7 %
Extraction speed 6.8 X
Track quality 100.0 %
Test CRC DDA6B80B
Copy CRC DDA6B80B
Accurately ripped (confidence 1) [3D76371E]
Copy OK
Track 7
Filename F:\ЗАГРУЗКИ\ Obsession Lounge 5 2CD (2011)\Obsession Lounge 5 CD2\07. Jerry Dimmer - Attendre.wav
Peak level 97.7 %
Extraction speed 7.2 X
Track quality 100.0 %
Test CRC F679827E
Copy CRC F679827E
Accurately ripped (confidence 1) [30B89975]
Copy OK
Track 8
Filename F:\ЗАГРУЗКИ\ Obsession Lounge 5 2CD (2011)\Obsession Lounge 5 CD2\08. Florzinho - Happy Rainbow Dub.wav
Peak level 97.7 %
Extraction speed 7.3 X
Track quality 100.0 %
Test CRC A1036882
Copy CRC A1036882
Accurately ripped (confidence 1) [07790845]
Copy OK
Track 9
Filename F:\ЗАГРУЗКИ\ Obsession Lounge 5 2CD (2011)\Obsession Lounge 5 CD2\09. Cosmic Orient feat. Dana Golombek - La Lune.wav
Peak level 88.6 %
Extraction speed 7.9 X
Track quality 100.0 %
Test CRC 12BA49E8
Copy CRC 12BA49E8
Accurately ripped (confidence 1) [720784F1]
Copy OK
Track 10
Filename F:\ЗАГРУЗКИ\ Obsession Lounge 5 2CD (2011)\Obsession Lounge 5 CD2\10. Levthand - Comfy Dub Feat. Jen.wav
Peak level 97.6 %
Extraction speed 8.1 X
Track quality 100.0 %
Test CRC 24D7B143
Copy CRC 24D7B143
Accurately ripped (confidence 1) [C87A9F54]
Copy OK
Track 11
Filename F:\ЗАГРУЗКИ\ Obsession Lounge 5 2CD (2011)\Obsession Lounge 5 CD2\11. NEWTON - Silencio.wav
Peak level 84.3 %
Extraction speed 8.6 X
Track quality 100.0 %
Test CRC 995EFF8E
Copy CRC 995EFF8E
Accurately ripped (confidence 1) [473D0FFA]
Copy OK
Track 12
Filename F:\ЗАГРУЗКИ\ Obsession Lounge 5 2CD (2011)\Obsession Lounge 5 CD2\12. Cocoon - Kung Fu Fighting.wav
Peak level 97.7 %
Extraction speed 8.8 X
Track quality 100.0 %
Test CRC 64986144
Copy CRC 64986144
Accurately ripped (confidence 1) [621676D2]
Copy OK
All tracks accurately ripped
No errors occurred
End of status report

Содержание индексной карты (.CUE)

REM GENRE Lounge
REM DATE 2011
REM DISCID AE0DE00C
REM COMMENT "ExactAudioCopy v1.0b1"
CATALOG 4260036283396
PERFORMER "Various"
TITLE "Obsession Lounge Vol. 5 CD2l"
FILE "01. Klangstein - The Beauty Without Beats.ape" WAVE
TRACK 01 AUDIO
TITLE "The Beauty Without Beats"
PERFORMER "Klangstein"
ISRC DEAS81100366
INDEX 01 00:00:00
FILE "02. Archive - Cloud In The Sky.ape" WAVE
TRACK 02 AUDIO
TITLE "Cloud In The Sky"
PERFORMER "Archive"
ISRC GBBPF9900182
INDEX 01 00:00:00
FILE "03. Praful - Ponto de Partida (Maneesh de Moor Treatment).ape" WAVE
TRACK 03 AUDIO
TITLE "Ponto de Partida (Maneesh de Moor Treatment)"
PERFORMER "Praful"
ISRC NLB710600040
INDEX 01 00:00:00
FILE "04. Simon Le Grec - Lost Senses (Delor Mix).ape" WAVE
TRACK 04 AUDIO
TITLE "Lost Senses (Delor Mix)"
PERFORMER "Simon Le Grec"
ISRC DEK021100007
INDEX 01 00:00:00
FILE "05. Clelia Felix - A Moment Of Silence.ape" WAVE
TRACK 05 AUDIO
TITLE "A Moment Of Silence"
PERFORMER "Clelia Felix"
INDEX 01 00:00:00
FILE "06. Bloomfield - French Kisses.ape" WAVE
TRACK 06 AUDIO
TITLE "French Kisses"
PERFORMER "Bloomfield"
INDEX 01 00:00:00
FILE "07. Jerry Dimmer - Attendre.ape" WAVE
TRACK 07 AUDIO
TITLE "Attendre"
PERFORMER "Jerry Dimmer"
ISRC DKAZ70736109
INDEX 01 00:00:00
FILE "08. Florzinho - Happy Rainbow Dub.ape" WAVE
TRACK 08 AUDIO
TITLE "Happy Rainbow Dub"
PERFORMER "Florzinho"
ISRC DEES41101010
INDEX 01 00:00:00
FILE "09. Cosmic Orient feat. Dana Golombek - La Lune.ape" WAVE
TRACK 09 AUDIO
TITLE "La Lune"
PERFORMER "Cosmic Orient feat. Dana Golombek"
ISRC DEAZ30995009
INDEX 01 00:00:00
FILE "10. Levthand - Comfy Dub Feat. Jen.ape" WAVE
TRACK 10 AUDIO
TITLE "Comfy Dub Feat. Jen"
PERFORMER "Levthand"
ISRC DELP41000089
INDEX 01 00:00:00
FILE "11. NEWTON - Silencio.ape" WAVE
TRACK 11 AUDIO
TITLE "Silencio"
PERFORMER "NEWTON"
ISRC DEK021099329
INDEX 01 00:00:00
FILE "12. Cocoon - Kung Fu Fighting.ape" WAVE
TRACK 12 AUDIO
TITLE "Kung Fu Fighting"
PERFORMER "Cocoon"
INDEX 01 00:00:00

_________________


Last edited by Koralina on 2011-10-15 00:24; edited 2 times in total
Other forum [Profile] [PM]
Display posts from previous:    
Reply to topic

The time now is: Today 02:18

All times are GMT + 3 Hours



You cannot post new topics in this forum
You cannot reply to topics in this forum
You cannot edit your posts in this forum
You cannot delete your posts in this forum
You cannot vote in polls in this forum
You cannot attach files in this forum
You cannot download files in this forum