Today is a free download without charge Download

Учебный центр 1C | Использование прикладного решения 1С Розница 8.2 Редакция 2 (2015) PCRec

Reply to topic
 
Author
Message

Varius ®

Gender:

Longevity: 10 years

Posts: 2428

Location: Hell

Торрент-статистика

Post 16-Jul-2015 05:16

[Quote]

Учебный центр 1C | Использование прикладного решения 1С Розница 8.2 Редакция 2 (2015) PCRec [H.264]- Автор (режиссер): Учебный центр 1C
Жанр: Программирование
Описание:
Краткое содержание курса:
  • Общие сведения
  • Начальное заполнение информационной базы
  • Определение ценовой политики
  • Дополнительные первоначальные настройки
  • Работа менеджера магазина
  • Оформление розничных продаж и возвратов в интерфейсе РМК
  • Оформление оплаты чека
  • Оформление розничных продаж и возвратов в управляемом режиме
  • Работа в розничной сети
    Продолжительность: 07:36:19
    Качество видео: PCRec
    Видео: AVC/H.264, 960x720, ~349 kbps
    Аудио: AAC, 2 ch, 103 kbps, VBR

Mediainfo:

Код:
Общее
Полное имя                               : D:\Использование прикладного решения 1С Розница\1.mp4
Формат                                   : MPEG-4
Профиль формата                          : Base Media
Идентификатор кодека                     : isom
Размер файла                             : 269 Мбайт
Продолжительность                        : 1 ч. 22 м.
Режим общего битрейта                    : Переменный
Общий поток                              : 455 Кбит/сек
Дата кодирования                         : UTC 2014-07-03 12:19:16
Дата пометки                             : UTC 2014-07-03 12:19:16
Программа кодирования                    : FormatFactory : [url=http://www.pcfreetime.com]www.pcfreetime.com[/url]
Видео
Идентификатор                            : 1
Формат                                   : AVC
Формат/Информация                        : Advanced Video Codec
Профиль формата                          : [email protected]
Параметр CABAC формата                   : Нет
Параметр ReFrames формата                : 1 кадр
Идентификатор кодека                     : avc1
Идентификатор кодека/Информация          : Advanced Video Coding
Продолжительность                        : 1 ч. 22 м.
Битрейт                                  : 349 Кбит/сек
Номинальный битрейт                      : 1536 Кбит/сек
Максимальный битрейт                     : 7841 Кбит/сек
Ширина                                   : 960 пикселей
Высота                                   : 720 пикселей
Соотношение сторон                       : 4:3
Режим частоты кадров                     : Постоянный
Частота кадров                           : 24,000 кадра/сек
Цветовое пространство                    : YUV
Субдискретизация насыщенности            : 4:2:0
Битовая глубина                          : 8 бит
Тип развёртки                            : Прогрессивная
Бит/(Пиксели*Кадры)                      : 0.021
Размер потока                            : 207 Мбайт (77%)
Библиотека кодирования                   : x264 core 116 r2019 9cc407d
Настройки программы                      : cabac=0 / ref=1 / deblock=1:0:0 / analyse=0x3:0x113 / me=hex / subme=7 / psy=1 / psy_rd=1.00:0.00 / mixed_ref=0 / me_range=16 / chroma_me=1 / trellis=1 / 8x8dct=1 / cqm=0 / deadzone=21,11 / fast_pskip=1 / chroma_qp_offset=-2 / threads=6 / sliced_threads=0 / nr=0 / decimate=1 / interlaced=0 / bluray_compat=0 / constrained_intra=0 / bframes=0 / weightp=2 / keyint=250 / keyint_min=24 / scenecut=40 / intra_refresh=0 / rc_lookahead=40 / rc=abr / mbtree=1 / bitrate=1536 / ratetol=1.0 / qcomp=0.60 / qpmin=0 / qpmax=69 / qpstep=4 / ip_ratio=1.40 / aq=1:1.00
Дата кодирования                         : UTC 2014-07-03 12:19:16
Дата пометки                             : UTC 2014-07-03 12:22:04
Аудио
Идентификатор                            : 2
Формат                                   : AAC
Формат/Информация                        : Advanced Audio Codec
Профиль формата                          : LC
Идентификатор кодека                     : 40
Продолжительность                        : 1 ч. 22 м.
Вид битрейта                             : Переменный
Битрейт                                  : 103 Кбит/сек
Максимальный битрейт                     : 120 Кбит/сек
Каналы                                   : 2 канала
Расположение каналов                     : Front: L R
Частота                                  : 44,1 КГц
Метод сжатия                             : С потерями
Размер потока                            : 61,2 Мбайт (23%)
Дата кодирования                         : UTC 2014-07-03 12:19:52
Дата пометки                             : UTC 2014-07-03 12:22:04
Скриншоты:
     

Дополнительные скриншоты:

                                           

_________________

Создавая "Новую папку", не считайте себя Создателем - это право Вам дано Админом


Other forum [Profile] [PM]
Similar theme
Forum Topic Author Torrent Replies Last Post
./templates/default/images/folder_dl.gif Обучающее видео Учебный центр 1C | Разработка мобильных приложений в системе 1С Предприятие 8.3 (2015) PCRec [H.264] Varius
1 | 0

0 | 2993

78

2015-07-08 23:14
Varius Latest
./templates/default/images/folder_dl.gif Компьютерная литература Джеймс Вандезанд, Фил Рид, Эдди Кригел - Autodesk Revit Architecture 2013-2014. Официальный Учебный Курс [2013, PDF, RUS] Omen
1 | 0

0 | 1101

2

2016-10-17 01:00
Omen Latest
./templates/default/images/folder_dl.gif Обучающее видео [Учебный центр №1 "Фирма 1С"] Основы программирования в системе "1C:Предприятие 8.3" [2015, RUS] Omen
1 | 0

0 | 1921

60

2017-01-09 01:00
Omen Latest
Display posts from previous:    
Reply to topic

The time now is: Today 17:25

All times are GMT + 3 Hours



You cannot post new topics in this forum
You cannot reply to topics in this forum
You cannot edit your posts in this forum
You cannot delete your posts in this forum
You cannot vote in polls in this forum
You cannot attach files in this forum
You cannot download files in this forum