Today is a free download without charge Download

Александр Медведев | 10 ноу-хау на съёмке, до которых вы не додумались (2013) PCRec

Reply to topic
 
Author
Message

Omen ®

Longevity: 6 years 9 months

Posts: 181090

Торрент-статистика

Post 03-Apr-2015 20:51

[Quote]

Александр Медведев
10 ноу-хау на съёмке, до которых вы не додумались
- Автор (режиссер): Александр Медведев
Жанр: Фотосъемка
Продолжительность: 04:41:40
Качество видео: PCRec
Видеокодек: AVC
Битрейт видео: ~30 - 781 kbps
Размер кадра: 768х432
Аудиокодек: AAC 2.0
Битрейт аудио: 125 - 129 kbps (CBR), 2 Ch, 44100 Hz
Описание:
Мастер-класс от Fotoshkola.net.
Темы мастер-класса:
Позирование, выбор ракурса, свет, экспозиция и другие моменты;
Как очень сильно облегчить себе жизнь в 10 конкретных советах с подробным разбором;
Как сэкономить себе пару лет хождения по граблям и поднять свой уровень скачком?
Бонус:
Александр Медведев - Системы ценностей и как с ними работать.
Дарья Булавина - Фотографии известных людей.

MediaInfo:

Код:
Общее
Полное имя                               : C:\Медведев А. - 10 ноу-хау на съёмке, до которых вы не додумались - 2013\Бонус\Булавина Д. - Фотографии известных людей.flv
Формат                                   : Flash Video
Размер файла                             : 84,2 Мбайт
Продолжительность                        : 59 м.
Общий поток                              : 198 Кбит/сек
Видео
Формат                                   : AVC
Формат/Информация                        : Advanced Video Codec
Профиль формата                          : [url=mailto:[email protected]][email protected][/url]
Параметр CABAC формата                   : Да
Параметр ReFrames формата                : 1 кадр
Параметр GOP формата                     : M=1, N=60
Идентификатор кодека                     : 7
Продолжительность                        : 59 м.
Битрейт                                  : 781 Кбит/сек
Ширина                                   : 768 пикселей
Высота                                   : 432 пикселя
Соотношение сторон                       : 16:9
Режим частоты кадров                     : Постоянный
Частота кадров                           : 5,000 кадров/сек
Цветовое пространство                    : YUV
Субдискретизация насыщенности            : 4:2:0
Битовая глубина                          : 8 бит
Тип развёртки                            : Прогрессивная
Бит/(Пиксели*Кадры)                      : 0.471
Размер потока                            : 333 Мбайт
Аудио
Формат                                   : AAC
Формат/Информация                        : Advanced Audio Codec
Профиль формата                          : LC
Идентификатор кодека                     : 10
Продолжительность                        : 59 м.
Битрейт                                  : 125 Кбит/сек
Каналы                                   : 2 канала
Расположение каналов                     : Front: L R
Частота                                  : 44,1 КГц
Метод сжатия                             : С потерями
Размер потока                            : 53,2 Мбайт (63%)
Скриншоты:
       

Дополнительные скриншоты:

       
 
Other forum [Profile] [PM]
Similar theme
Forum Topic Author Torrent Replies Last Post
./templates/default/images/folder_dl.gif Справочники, энциклопедии и словари Алексей Владимирович, Алексей Ерофеев | Петербург в названиях улиц. Происхождение названий улиц и проспектов, рек и каналов, мостов и островов [2008] [FB2] UndegraundMen
0 | 1

0 | 1372

0

2013-07-26 23:02
UndegraundMen Latest
./templates/default/images/folder_dl.gif Обучающее видео Алексей Кулик | Видеокурс по Ремонту обуви, изготовлению ключей, установки кнопок (2013) [DVDRip] Omen
1 | 0

3 | 2922

29

2018-08-08 08:23
zvladss Latest
./templates/default/images/folder_dl.gif Обучающее видео Алексей Пахомов | Диагностика бензиновых двигателей. Старт, Практик, Эксперт (2013) [DVDRip] O.S.A.
1 | 0

4 | 17114

410

2015-07-04 11:04
aleks-777 Latest
./templates/default/images/folder_dl.gif Обучающее видео [Profileschool] Алексей Шадрин | Фундаментальная цветокоррекция фотографических изображений (2014) PCRec Omen
1 | 0

0 | 3664

98

2015-01-07 14:53
Omen Latest
./templates/default/images/folder_dl.gif Компьютерная литература Александр Шевчук и др. | Design Patterns via C#. Приемы объектно-ориентированного проектирования (2015) [PDF] Omen
1 | 0

0 | 1738

25

2015-03-06 21:59
Omen Latest
./templates/default/images/folder_dl.gif Отечественные cериалы Меч 2 (Пролог + Серии 01—20 из 20) (Алексей Луканев) [2015, криминал, SATRip] O.S.A.
1 | 0

0 | 1431

37

2015-06-15 18:54
O.S.A. Latest
./templates/default/images/folder_dl.gif Психология, Тренинг, Саморазвитие Александр Свияш | Мозг и сердце: Разумный подход (2015) [FB2] Omen
1 | 0

0 | 365

3

2015-08-12 19:58
Omen Latest
./templates/default/images/folder_dl.gif Обучающее видео Александр Амбалов | Цветкор в Premiere (2017) PCRec Omen
1 | 0

0 | 1065

12

2016-03-09 06:10
Omen Latest
./templates/default/images/folder_dl.gif Техническая и научно-популярная литература Алекс Лесли, Настя Рыбка | Евротрэш. Соблазнение богатых для бедных (2017) [FB2] }{@R0N
1 | 0

0 | 2584

4

2018-02-11 21:32
}{@R0N Latest
./templates/default/images/folder_dl.gif Разное Александр Матанцев | Поздравления от души (2018) [PDF] }{@R0N
1 | 0

0 | 583

6

2018-10-21 17:47
}{@R0N Latest
Display posts from previous:    
Reply to topic

The time now is: Today 23:59

All times are GMT + 3 Hours



You cannot post new topics in this forum
You cannot reply to topics in this forum
You cannot edit your posts in this forum
You cannot delete your posts in this forum
You cannot vote in polls in this forum
You cannot attach files in this forum
You cannot download files in this forum