Today is a free download without charge Download

Грань будущего в 3Д / Edge of Tomorrow 3D (Даг Лайман / Doug Liman) [2014, боевик, научная фантастика, DCPrip, 1080p] Half OverUnder / Вертикальная анаморфная стереопара - Трейлер 2 в 3D

Reply to topic
 
Author
Message

Omen ®

Longevity: 8 years 10 months

Posts: 181086

Торрент-статистика

Post 14-Apr-2014 20:01

[Quote]

Грань будущего / Edge of Tomorrow / Трейлер 3D
«Live, Die, Repeat»
Год выпуска: 2014
Страна: США
Студия: Warner Bros. Pictures
Жанр: боевик, научная фантастика
Продолжительность: 00:02:35
Перевод: Профессиональный (дублированный)
Русские субтитры: нет
Режиссер на русском: Даг Лайман
Режиссер на английском: Doug Liman
В ролях: Эмили Блант, Том Круз, Билл Пэкстон, Шарлотта Райли, Джонас Армстронг, Ли Аскит-Ко, Кик Гарри, Драгомир Мрсик, Тони Вэй, Дебора Розан, Франц Драмех, Ронан Саммерс, Бентли Калу, Марко Фламмер, Сиилан Ганасиилан, Маделин Манток, Денис Корошко, Наташа Гоулден, Уизерспун Джеймс, Джош Вичард
Описание: История разворачивается в недалеком будущем, когда похожая на рой раса инопланетян, названных мимиками, совершает безжалостное нападение на Землю, стерев в пыль крупные города и уничтожив миллионы жизней. Армии Земли объединят силы, чтобы вступить в последний бой с полчищами инопланетян, зная, что второго шанса у них не будет.
Подполковник Билл Кейдж — ни разу не был на поле битвы, пока его не бросили в самую гущу боя неподготовленного и плохо снаряженного, фактически обрекая на смерть. Через считанные минуты Кейджа убивают, но он захватывает с собой и жизнь пришельца. И случается невозможное — он просыпается живым в начале того же адского дня, и вынужден сражаться и умирать… снова и снова. Прямой физический контакт с пришельцем замкнул временную петлю, и теперь Кейдж вновь и вновь идет в тот же бой.
Но с каждым возвращением Кейдж становится более жестоким и умным в битве с мимиками, сражаясь бок о бок с бойцом спецназа Ритой Вратаски, уничтожившей больше мимиков, чем кто бы то ни было еще на Земле. Рита и Кейдж раз за разом дают бой пришельцам, и каждое повторяющееся сражение приближает их к разгадке того, как убить инопланетных захватчиков и спасти планету.
Качество: DCPrip
Контейнер: MKV
Формат 3D: Half OverUnder / Вертикальная анаморфная стереопара
Порядок ракурсов: левый ракурс первый
Видео кодек: x264
Аудио кодек: AC3
Видео: MPEG4 Video (H264),1920х1080,24fps,134 Мбит/сек
Аудио: Rus, AC3 48000Hz 6ch

MediaInfo

General
Unique ID : 189709868501230645865952915778054357617 (0x8EB8CAA9861A4BBEA848ECE023CF8271)
Complete name : D:\EDGE-OF-TOMORROW_TLR-F2-3D.mkv
Format : Matroska
Format version : Version 4 / Version 2
File size : 2.44 GiB
Duration : 2mn 35s
Overall bit rate mode : Variable
Overall bit rate : 134 Mbps
Encoded date : UTC 2014-03-26 19:52:14
Writing application : mkvmerge v6.8.0 ('Theme for Great Cities') 64bit built on Mar 2 2014 21:34:26
Writing library : libebml v1.3.0 + libmatroska v1.4.1
Video
ID : 2
Format : AVC
Format/Info : Advanced Video Codec
Format profile : [email protected]
Format settings, CABAC : Yes
Format settings, ReFrames : 4 frames
Format settings, GOP : M=3, N=15
Codec ID : V_MPEG4/ISO/AVC
Duration : 2mn 35s
Bit rate mode : Variable
Bit rate : 131 Mbps
Maximum bit rate : 240 Mbps
Width : 1 920 pixels
Height : 1 080 pixels
Display aspect ratio : 16:9
Frame rate mode : Constant
Frame rate : 24.000 fps
Standard : NTSC
Color space : YUV
Chroma subsampling : 4:2:0
Bit depth : 8 bits
Scan type : Progressive
Bits/(Pixel*Frame) : 2.638
Stream size : 2.38 GiB (98%)
Language : Russian
Default : Yes
Forced : No
Color primaries : BT.709
Transfer characteristics : BT.709
Matrix coefficients : BT.709
Audio
ID : 1
Format : AC-3
Format/Info : Audio Coding 3
Mode extension : CM (complete main)
Format settings, Endianness : Big
Codec ID : A_AC3
Duration : 2mn 35s
Bit rate mode : Constant
Bit rate : 448 Kbps
Channel(s) : 6 channels
Channel positions : Front: L C R, Side: L R, LFE
Sampling rate : 48.0 KHz
Bit depth : 16 bits
Compression mode : Lossy
Stream size : 8.33 MiB (0%)
Language : Russian
Default : Yes
Forced : No

Скриншоты



Other forum [Profile] [PM]
Display posts from previous:    
Reply to topic

The time now is: Today 04:06

All times are GMT + 3 Hours



You cannot post new topics in this forum
You cannot reply to topics in this forum
You cannot edit your posts in this forum
You cannot delete your posts in this forum
You cannot vote in polls in this forum
You cannot attach files in this forum
You cannot download files in this forum