Today is a free download without charge Download

(Healing, Meditative) Aetherium - Healing Gold - 2005, FLAC (image + .cue), lossless

Reply to topic
 
Author
Message

Nugeiro ®

Gender:

Longevity: 8 years 5 months

Posts: 1981

Location: Украина, Шостка

Торрент-статистика

Post 05-Jul-2011 12:12

[Quote]

Aetherium - Healing Gold
Страна: Англия
Жанр: Healing, Meditative
Год выпуска: 2005
Формат: FLAC (image + .cue)
Битрейт аудио: lossless
Продолжительность: 00:59:58
Трэклист:
01. Rainbow Light
02. Ether Prayer
03. Elestial Glow
04. Frozen Lake
05. Beacon Of Light
06. Ocean Deep
07. Onward
08. After The Rain

Отчёт ЕАС

Код:
Exact Audio Copy V0.99 prebeta 5 from 4. May 2009
EAC extraction logfile from 14. February 2010, 20:52
Aetherium / Healing Gold
Used drive  : PLEXTOR DVDR   PX-755A   Adapter: 2  ID: 0
Read mode               : Secure
Utilize accurate stream : Yes
Defeat audio cache      : Yes
Make use of C2 pointers : No
Read offset correction                      : 30
Overread into Lead-In and Lead-Out          : No
Fill up missing offset samples with silence : Yes
Delete leading and trailing silent blocks   : No
Null samples used in CRC calculations       : Yes
Used interface                              : Native Win32 interface for Win NT & 2000
Used output format : Internal WAV Routines
Sample format      : 44.100 Hz; 16 Bit; Stereo
TOC of the extracted CD
     Track |   Start  |  Length  | Start sector | End sector
    ---------------------------------------------------------
        1  |  0:00.00 |  8:01.32 |         0    |    36106
        2  |  8:01.32 |  5:29.00 |     36107    |    60781
        3  | 13:30.32 |  7:33.01 |     60782    |    94757
        4  | 21:03.33 |  7:25.24 |     94758    |   128156
        5  | 28:28.57 |  8:04.65 |    128157    |   164521
        6  | 36:33.47 |  7:17.54 |    164522    |   197350
        7  | 43:51.26 |  7:38.37 |    197351    |   231737
        8  | 51:29.63 |  8:29.10 |    231738    |   269922
Range status and errors
Selected range
     Filename C:\Documents and Settings\INTEL875PBZ\Desktop\Aetherium - Healing Gold\Aetherium - Healing Gold.wav
     Peak level 98.7 %
     Range quality 100.0 %
     Test CRC EA69C39B
     Copy CRC EA69C39B
     Copy OK
No errors occurred
AccurateRip summary
Track  1  accurately ripped (confidence 1)  [50C6DFD9]
Track  2  accurately ripped (confidence 1)  [4DE63601]
Track  3  accurately ripped (confidence 1)  [9C8DCC6F]
Track  4  accurately ripped (confidence 1)  [808100E1]
Track  5  accurately ripped (confidence 1)  [FE442A3F]
Track  6  accurately ripped (confidence 1)  [A96B6634]
Track  7  accurately ripped (confidence 1)  [E9342DF1]
Track  8  accurately ripped (confidence 1)  [03CB4E8A]
All tracks accurately ripped
End of status report

Отчёт auCDtect Task manager

Код:
-----------------------
DON'T MODIFY THIS FILE
-----------------------
PERFORMER: auCDtect Task Manager, ver. 1.5.1RC4 build 1.5.1.5
Copyright (c) 2008-2010 y-soft. All rights reserved
http://y-soft.org
ANALYZER: auCDtect: CD records authenticity detector, version 0.8.2
Copyright (c) 2004 Oleg Berngardt. All rights reserved.
Copyright (c) 2004 Alexander Djourik. All rights reserved.
FILE: Aetherium - Healing Gold.flac
  Size: 286010311 Hash: 1C7092F1814DFBE68469F86927D088F1 Accuracy: -m0
  Conclusion: CDDA 94%
  Signature: 141D5BDCF41DEDF5E15DCC50B263C0B1264B1005

_________________


Last edited by Nugeiro on 2011-07-05 12:12; edited 1 time in total
Other forum [Profile] [PM]
Display posts from previous:    
Reply to topic

The time now is: Today 10:30

All times are GMT + 3 Hours



You cannot post new topics in this forum
You cannot reply to topics in this forum
You cannot edit your posts in this forum
You cannot delete your posts in this forum
You cannot vote in polls in this forum
You cannot attach files in this forum
You cannot download files in this forum