Today is a free download without charge Download

Ломбарт-Я Не Умею (клип) 2013 [2013, Russian Brith Grunge, Blu-ray]

Reply to topic
 
Author
Message

Omen ®

Longevity: 8 years 5 months

Posts: 181087

Торрент-статистика

Post 06-Aug-2013 16:42

[Quote]

Ломбарт-Я Не Умею (клип) 2013
Жанр: Russian Brith Grunge
Продолжительность: 05:44
Год выпуска: 2013
Качество: Blu-ray
Контейнер: MP4
Видео кодек: H.264
Аудио кодек: AAC
Видео: Advanced Video Coding,16:9,14.3 Mbps,30.000 fps
Аудио: AAC,192 Kbps,48.0 KHz,2 channels

Отчёт MediaInfo / BDInfo

Format : MPEG-4Format profile : Base Media / Version 2Codec ID : mp42File size : 593 MiBDuration : 5mn 44sOverall bit rate : 14.5 MbpsEncoded date : UTC 2013-08-06 10:57:40Tagged date : UTC 2013-08-06 10:57:40©TIM : 00:00:00:00©TSC : 30©TSZ : 1
VideoID : 1Format : AVCFormat/Info : Advanced Video CodecFormat profile : [email protected] settings, CABAC : YesFormat settings, ReFrames : 3 framesCodec ID : avc1Codec ID/Info : Advanced Video CodingDuration : 5mn 44sBit rate mode : VariableBit rate : 14.3 MbpsWidth : 1 920 pixelsHeight : 1 080 pixelsDisplay aspect ratio : 16:9Frame rate mode : ConstantFrame rate : 30.000 fpsStandard : PALColor space : YUVChroma subsampling : 4:2:0Bit depth : 8 bitsScan type : ProgressiveBits/(Pixel*Frame) : 0.229Stream size : 585 MiB (99%)Language : EnglishEncoded date : UTC 2013-08-06 10:57:40Tagged date : UTC 2013-08-06 10:57:40
AudioID : 2Format : AACFormat/Info : Advanced Audio CodecFormat version : Version 4Format profile : LCCodec ID : 40Duration : 5mn 44sBit rate mode : VariableBit rate : 192 KbpsMaximum bit rate : 287 KbpsChannel(s) : 2 channelsChannel positions : Front: L RSampling rate : 48.0 KHzCompression mode : LossyStream size : 7.77 MiB (1%)Language : EnglishEncoded date : UTC 2013-08-06 10:57:40Tagged date : UTC 2013-08-06 10:57:40

Скриншоты

Other forum [Profile] [PM]
Display posts from previous:    
Reply to topic

The time now is: Today 04:30

All times are GMT + 3 Hours



You cannot post new topics in this forum
You cannot reply to topics in this forum
You cannot edit your posts in this forum
You cannot delete your posts in this forum
You cannot vote in polls in this forum
You cannot attach files in this forum
You cannot download files in this forum