Today is a free download without charge Download

Ivan Kral - Nostalgia (1995) [MP3|320 кб/с]

Reply to topic
 
Author
Message

UndegraundMen ®

Longevity: 6 years 11 months

Posts: 25145

Торрент-статистика

Post 14-Jun-2013 03:06

[Quote]

Ivan Kral - Nostalgia (1995)- Год: 1995
Жанр: Rock, pop, jazz, alternative rock, protopunk
Кодек: MP3
Битрейт: 320 кб/с, CBR
Продолжительность: 00:45:35
Трек лист:
01. Perfect Moon (1:44)
02. Rains Again (4:14)
03. Winner Takes All (3:25)
04. Shoes (3:20)
05. Speak To Me (2:26)
06. Bless You (5:00)
07. No One (3:26)
07. No One (Live) (3:26)
08. Second Morning (3:21)
09. Nothing Lasts Forever (4:21)
10. Ahah (3:33)
11. Seems Like Days (3:33)
12. Love You To Death (3:46)

Mediainfo:

Код:
General
Complete name                            : /Users/user/Music/Ivan Kral - Nostalgia (1995)/01 Perfect Moon.mp3
Format                                   : MPEG Audio
File size                                : 4.01 MiB
Duration                                 : 1mn 45s
Overall bit rate mode                    : Constant
Overall bit rate                         : 320 Kbps
Track name                               : Ivan Kral
Writing library                          : LAME3.97
Audio
Format                                   : MPEG Audio
Format version                           : Version 1
Format profile                           : Layer 3
Duration                                 : 1mn 45s
Bit rate mode                            : Constant
Bit rate                                 : 320 Kbps
Channel(s)                               : 2 channels
Sampling rate                            : 44.1 KHz
Compression mode                         : Lossy
Stream size                              : 4.01 MiB (100%)
Writing library                          : LAME3.97
General
Complete name                            : /Users/user/Music/Ivan Kral - Nostalgia (1995)/02 Rains Again.mp3
Format                                   : MPEG Audio
File size                                : 12.2 MiB
Duration                                 : 5mn 20s
Overall bit rate mode                    : Constant
Overall bit rate                         : 320 Kbps
Track name                               : Ivan Kral
Writing library                          : LAME3.97
Audio
Format                                   : MPEG Audio
Format version                           : Version 1
Format profile                           : Layer 3
Duration                                 : 5mn 20s
Bit rate mode                            : Constant
Bit rate                                 : 320 Kbps
Channel(s)                               : 2 channels
Sampling rate                            : 44.1 KHz
Compression mode                         : Lossy
Stream size                              : 12.2 MiB (100%)
Writing library                          : LAME3.97
General
Complete name                            : /Users/user/Music/Ivan Kral - Nostalgia (1995)/03 Winner Takes All.mp3
Format                                   : MPEG Audio
File size                                : 7.83 MiB
Duration                                 : 3mn 25s
Overall bit rate mode                    : Constant
Overall bit rate                         : 320 Kbps
Track name                               : Ivan Kral
Writing library                          : LAME3.97
Audio
Format                                   : MPEG Audio
Format version                           : Version 1
Format profile                           : Layer 3
Duration                                 : 3mn 25s
Bit rate mode                            : Constant
Bit rate                                 : 320 Kbps
Channel(s)                               : 2 channels
Sampling rate                            : 44.1 KHz
Compression mode                         : Lossy
Stream size                              : 7.83 MiB (100%)
Writing library                          : LAME3.97
General
Complete name                            : /Users/user/Music/Ivan Kral - Nostalgia (1995)/04 Shoes.mp3
Format                                   : MPEG Audio
File size                                : 7.73 MiB
Duration                                 : 3mn 22s
Overall bit rate mode                    : Constant
Overall bit rate                         : 320 Kbps
Track name                               : Ivan Kral
Writing library                          : LAME3.97
Audio
Format                                   : MPEG Audio
Format version                           : Version 1
Format profile                           : Layer 3
Duration                                 : 3mn 22s
Bit rate mode                            : Constant
Bit rate                                 : 320 Kbps
Channel(s)                               : 2 channels
Sampling rate                            : 44.1 KHz
Compression mode                         : Lossy
Stream size                              : 7.73 MiB (100%)
Writing library                          : LAME3.97
General
Complete name                            : /Users/user/Music/Ivan Kral - Nostalgia (1995)/05 Speak to Me.mp3
Format                                   : MPEG Audio
File size                                : 7.57 MiB
Duration                                 : 3mn 18s
Overall bit rate mode                    : Constant
Overall bit rate                         : 320 Kbps
Track name                               : Ivan Kral
Writing library                          : LAME3.97
Audio
Format                                   : MPEG Audio
Format version                           : Version 1
Format profile                           : Layer 3
Duration                                 : 3mn 18s
Bit rate mode                            : Constant
Bit rate                                 : 320 Kbps
Channel(s)                               : 2 channels
Sampling rate                            : 44.1 KHz
Compression mode                         : Lossy
Stream size                              : 7.57 MiB (100%)
Writing library                          : LAME3.97
General
Complete name                            : /Users/user/Music/Ivan Kral - Nostalgia (1995)/06 Bless You.mp3
Format                                   : MPEG Audio
File size                                : 11.5 MiB
Duration                                 : 5mn 2s
Overall bit rate mode                    : Constant
Overall bit rate                         : 320 Kbps
Track name                               : Ivan Kral
Writing library                          : LAME3.97
Audio
Format                                   : MPEG Audio
Format version                           : Version 1
Format profile                           : Layer 3
Duration                                 : 5mn 3s
Bit rate mode                            : Constant
Bit rate                                 : 320 Kbps
Channel(s)                               : 2 channels
Sampling rate                            : 44.1 KHz
Compression mode                         : Lossy
Stream size                              : 11.5 MiB (100%)
Writing library                          : LAME3.97
General
Complete name                            : /Users/user/Music/Ivan Kral - Nostalgia (1995)/07 No One.mp3
Format                                   : MPEG Audio
File size                                : 7.90 MiB
Duration                                 : 3mn 26s
Overall bit rate mode                    : Constant
Overall bit rate                         : 320 Kbps
Track name                               : Ivan Kral
Writing library                          : LAME3.97
Audio
Format                                   : MPEG Audio
Format version                           : Version 1
Format profile                           : Layer 3
Duration                                 : 3mn 27s
Bit rate mode                            : Constant
Bit rate                                 : 320 Kbps
Channel(s)                               : 2 channels
Sampling rate                            : 44.1 KHz
Compression mode                         : Lossy
Stream size                              : 7.90 MiB (100%)
Writing library                          : LAME3.97
General
Complete name                            : /Users/user/Music/Ivan Kral - Nostalgia (1995)/08 Second Morning.mp3
Format                                   : MPEG Audio
File size                                : 9.69 MiB
Duration                                 : 4mn 14s
Overall bit rate mode                    : Constant
Overall bit rate                         : 320 Kbps
Track name                               : Ivan Kral
Writing library                          : LAME3.97
Audio
Format                                   : MPEG Audio
Format version                           : Version 1
Format profile                           : Layer 3
Duration                                 : 4mn 14s
Bit rate mode                            : Constant
Bit rate                                 : 320 Kbps
Channel(s)                               : 2 channels
Sampling rate                            : 44.1 KHz
Compression mode                         : Lossy
Stream size                              : 9.69 MiB (100%)
Writing library                          : LAME3.97
General
Complete name                            : /Users/user/Music/Ivan Kral - Nostalgia (1995)/09 Nothing Lasts Forever.mp3
Format                                   : MPEG Audio
File size                                : 11.4 MiB
Duration                                 : 4mn 58s
Overall bit rate mode                    : Constant
Overall bit rate                         : 320 Kbps
Track name                               : Ivan Kral
Writing library                          : LAME3.97
Audio
Format                                   : MPEG Audio
Format version                           : Version 1
Format profile                           : Layer 3
Duration                                 : 4mn 58s
Bit rate mode                            : Constant
Bit rate                                 : 320 Kbps
Channel(s)                               : 2 channels
Sampling rate                            : 44.1 KHz
Compression mode                         : Lossy
Stream size                              : 11.4 MiB (100%)
Writing library                          : LAME3.97
General
Complete name                            : /Users/user/Music/Ivan Kral - Nostalgia (1995)/10 Ahah.mp3
Format                                   : MPEG Audio
File size                                : 8.14 MiB
Duration                                 : 3mn 33s
Overall bit rate mode                    : Constant
Overall bit rate                         : 320 Kbps
Track name                               : Ivan Kral
Writing library                          : LAME3.97
Audio
Format                                   : MPEG Audio
Format version                           : Version 1
Format profile                           : Layer 3
Duration                                 : 3mn 33s
Bit rate mode                            : Constant
Bit rate                                 : 320 Kbps
Channel(s)                               : 2 channels
Sampling rate                            : 44.1 KHz
Compression mode                         : Lossy
Stream size                              : 8.14 MiB (100%)
Writing library                          : LAME3.97
General
Complete name                            : /Users/user/Music/Ivan Kral - Nostalgia (1995)/11 Seems Like Days.mp3
Format                                   : MPEG Audio
File size                                : 8.25 MiB
Duration                                 : 3mn 36s
Overall bit rate mode                    : Constant
Overall bit rate                         : 320 Kbps
Track name                               : Ivan Kral
Writing library                          : LAME3.97
Audio
Format                                   : MPEG Audio
Format version                           : Version 1
Format profile                           : Layer 3
Duration                                 : 3mn 36s
Bit rate mode                            : Constant
Bit rate                                 : 320 Kbps
Channel(s)                               : 2 channels
Sampling rate                            : 44.1 KHz
Compression mode                         : Lossy
Stream size                              : 8.25 MiB (100%)
Writing library                          : LAME3.97
General
Complete name                            : /Users/user/Music/Ivan Kral - Nostalgia (1995)/12 Love You to Death.mp3
Format                                   : MPEG Audio
File size                                : 7.24 MiB
Duration                                 : 3mn 9s
Overall bit rate mode                    : Constant
Overall bit rate                         : 320 Kbps
Track name                               : Artiest onbekend
Writing library                          : LAME3.97
Audio
Format                                   : MPEG Audio
Format version                           : Version 1
Format profile                           : Layer 3
Duration                                 : 3mn 9s
Bit rate mode                            : Constant
Bit rate                                 : 320 Kbps
Channel(s)                               : 2 channels
Sampling rate                            : 44.1 KHz
Compression mode                         : Lossy
Stream size                              : 7.24 MiB (100%)
Writing library                          : LAME3.97
General
Complete name                            : /Users/user/Music/Ivan Kral - Nostalgia (1995)/covers/IMG_0001.jpg
Format                                   : JPEG
File size                                : 1.45 MiB
Image
Format                                   : JPEG
Width                                    : 1 812 pixels
Height                                   : 2 852 pixels
Color space                              : YUV
Chroma subsampling                       : 4:4:4
Bit depth                                : 8 bits
Compression mode                         : Lossy
Stream size                              : 1.45 MiB (100%)
General
Complete name                            : /Users/user/Music/Ivan Kral - Nostalgia (1995)/front.jpg
Format                                   : JPEG
File size                                : 22.9 KiB
Image
Format                                   : JPEG
Width                                    : 443 pixels
Height                                   : 444 pixels
Color space                              : YUV
Chroma subsampling                       : 4:2:0
Bit depth                                : 8 bits
Compression mode                         : Lossy
Stream size                              : 22.9 KiB (100%)
Время раздачи: 24/7 до 3-x скачавших
Other forum [Profile] [PM]

Dracula

Longevity: 6 years 3 months

Posts: 11137

Торрент-статистика

Post 14-Jun-2013 05:26 (after 2 hours 19 minutes)

Топик был перенесен из форума Punk Rock в форум Punk Rock


p2000s
 
Display posts from previous:    
Reply to topic

The time now is: Today 18:29

All times are GMT + 3 Hours



You cannot post new topics in this forum
You cannot reply to topics in this forum
You cannot edit your posts in this forum
You cannot delete your posts in this forum
You cannot vote in polls in this forum
You cannot attach files in this forum
You cannot download files in this forum