Today is a free download without charge Download

Гори, гори, моя звезда (1969) [H.264] DVDRip

Reply to topic
 
Author
Message

UndegraundMen ®

Longevity: 6 years 3 months

Posts: 25150

Торрент-статистика

Post 15-Feb-2013 03:05

[Quote]

-Гори, гори, моя звезда- Год выпуска: 1969
Страны: СССР
Жанры: драма, мелодрама, комедия, ...
Продолжительность: 01:28:55
Режиссер: Александр Митта
Сценарий: Юлий Дунский, Валерий Фрид, Александр Митта
Оператор: Юрий Сокол
Композитор : Борис Чайковский
Художник: Борис Бланк, Алина Будникова, А. Докучаева
Монтаж: Надежда Веселовская
В ролях: Олег Табаков (Владимир Искремас), Елена Проклова (Крыся Котляренко/ Жанна д’Арк), Олег Ефремов (художник Фёдор), Леонид Дьячков (Охрим), Леонид Куравлёв (комиссар Сердюк), Владимир Наумов (штабс-капитан), Евгений Леонов (Пашка, киношник), Марлен Хуциев (князь)

Описание: Герой ленты, режиссер-самоучка, энтузиаст нового революционного искусства Искремас («искусство — революционным массам») посвятил свою жизнь театру. Он начал свою деятельность в провинциальном городке, который переходил из рук в руки: красных теснили белые, белых — зеленые.
Зрители: СССР 11.3 млн
Премьера (мир): 19 августа 1970, ...
Рейтинг MPAA: Нет возрастных ограничений- -Качество: DVDRip-AVC
Формат: MKV
Видео кодек: H.264 (AVC)
Видео: 700x476 (4:3), 29.970 fps, AVC, 1 865 Kbps
Аудио #1: AC3, 384 Kbps, 48.0 KHz, 6 ch

MediaInfo

Код:
General
Complete name                    : Gori, gori, moya zvezda.1969.DVDRip-AVC.h264.almikl.mkv
Format                           : Matroska
File size                        : 1.40 GiB
Duration                         : 1h 28mn
Overall bit rate                 : 2 251 Kbps
Encoded date                     : UTC 2013-02-13 10:16:55
Writing application              : mkvmerge v6.0.0 ('Coming Up For Air') built on Jan 20 2013 09:52:00
Writing library                  : libebml v1.3.0 + libmatroska v1.4.0
Video
ID                               : 1
Format                           : AVC
Format/Info                      : Advanced Video Codec
Format profile                   : [url=mailto:[email protected]][email protected][/url]
Format settings, CABAC           : Yes
Format settings, ReFrames        : 6 frames
Muxing mode                      : Container [email protected]
Codec ID                         : V_MPEG4/ISO/AVC
Duration                         : 1h 28mn
Bit rate                         : 1 865 Kbps
Width                            : 700 pixels
Height                           : 476 pixels
Display aspect ratio             : 4:3
Frame rate                       : 29.970 fps
Color space                      : YUV
Chroma subsampling               : 4:2:0
Bit depth                        : 8 bits
Scan type                        : Progressive
Bits/(Pixel*Frame)               : 0.187
Stream size                      : 1.13 GiB (81%)
Writing library                  : x264 core 129 r2245 bc13772
Encoding settings                : cabac=1 / ref=6 / deblock=1:-1:-1 / analyse=0x3:0x113 / me=umh / subme=10 / psy=1 / psy_rd=1.00:0.15 / mixed_ref=1 / me_range=32 / chroma_me=1 / trellis=2 / 8x8dct=1 / cqm=0 / deadzone=21,11 / fast_pskip=1 / chroma_qp_offset=-3 / threads=12 / lookahead_threads=2 / sliced_threads=0 / nr=0 / decimate=1 / interlaced=0 / bluray_compat=0 / constrained_intra=0 / bframes=10 / b_pyramid=2 / b_adapt=2 / b_bias=0 / direct=1 / weightb=1 / open_gop=0 / weightp=2 / keyint=300 / keyint_min=29 / scenecut=40 / intra_refresh=0 / rc_lookahead=40 / rc=2pass / mbtree=1 / bitrate=1865 / ratetol=1.0 / qcomp=0.60 / qpmin=10 / qpmax=51 / qpstep=4 / cplxblur=20.0 / qblur=0.5 / ip_ratio=1.40 / aq=1:1.00
Audio
ID                               : 2
Format                           : AC-3
Format/Info                      : Audio Coding 3
Mode extension                   : CM (complete main)
Codec ID                         : A_AC3
Duration                         : 1h 28mn
Bit rate mode                    : Constant
Bit rate                         : 384 Kbps
Channel(s)                       : 6 channels
Channel positions                : Front: L C R, Side: L R, LFE
Sampling rate                    : 48.0 KHz
Bit depth                        : 16 bits
Stream size                      : 244 MiB (17%)

Знаете ли Вы, что...

★ Рабочее название картины «Комедия об Искремасе» не было принято комиссией при приёмке картины. Митта придумал новое название «Гори, гори моя звезда» — совпадающее с известным белогвардейским романсом, что, однако, не помешало выходу фильма на экраны СССР.
★ На роль Искремаса изначально пробовался Ролан Быков. Его кандидатуру не одобрила цензура.
Скриншоты:                    
Other forum [Profile] [PM]
Display posts from previous:    
Reply to topic

The time now is: Today 06:47

All times are GMT + 3 Hours



You cannot post new topics in this forum
You cannot reply to topics in this forum
You cannot edit your posts in this forum
You cannot delete your posts in this forum
You cannot vote in polls in this forum
You cannot attach files in this forum
You cannot download files in this forum