Today is a free download without charge Download

Мастер-класс по нанесению декоративных покрытий "Оптимист" [Строительство, DVDRip, RUS] (Видеоурок)

Reply to topic
 
Author
Message

Omen ®

Longevity: 7 years 11 months

Posts: 181087

Торрент-статистика

Post 17-Dec-2012 19:24

[Quote]

Мастер-класс по нанесению декоративных покрытий "Оптимист"
Страна: Россия
Тематика: Строительство
Тип раздаваемого материала: Видеоурок
Продолжительность: 1:23:30
Язык: Русский
Перевод: Не требуется
Описание: Декоративные покрытия, выпускаемые под маркой Optimist-Elite (например, декоративная штукатурка), позволяют справиться с самыми сложными задачами в ходе реставрации и декоративной обработки поверхностей. Декоративная штукатурка может подчеркнуть стилевые особенности зданий и отдельных помещений, вернуть былую яркость интерьеру и даже придать ему художественную ценность. Декоративная штукатурка и другие декоративные покрытия от компании «Оптимист» могут имитировать мрамор ли гранит, иметь перламутровый эффект, а также – позолоченный оттенок. Именно поэтому применение декоративной штукатурки Optimist-Elite – отличное решение при работе над реставрацией архитектурных памятников, а также – отделке помещений элитного жилья.
Доп. информация:
Video
Format : AVC
Format/Info : Advanced Video Codec
Format profile : [email protected]
Format settings, CABAC : Yes
Format settings, ReFrames : 1 frame
Codec ID : H264
Bit rate : 778 Kbps
Width : 768 pixels
Height : 576 pixels
Display aspect ratio : 4:3
Frame rate : 25.000 fps
Color space : YUV
Chroma subsampling : 4:2:0
Bit depth : 8 bits
Scan type : Progressive
Bits/(Pixel*Frame) : 0.070
Stream size : 54.5 MiB (88%)
Audio
ID : 1 Format : MPEG Audio
Format version : Version 1
Format profile : Layer 3
Codec ID : 55
Codec ID/Hint : MP3
Bit rate mode : Constant
Bit rate : 96.0 Kbps
Channel(s) : 2 channels
Sampling rate : 44.1 KHz
Compression mode : Lossy
Stream size : 6.72 MiB (11%)
Alignment : Split accross interleaves
Interleave, duration : 80 ms (2.00 video frames)
Writing library : LAMELAME_MAJOR_VERSI
Качество: DVDRip
Формат: AVI
Видео кодек: H.264
Аудио кодек: MP3
Видео: Format : AVC Format/Info : Advanced Video Codec Format profile : [email protected]
Аудио: Format : MPEG Audio Format version : Version 1 Format profile : Layer 3

Скриншоты



Other forum [Profile] [PM]
Similar theme
Forum Topic Author Torrent Replies Last Post
./templates/default/images/folder_dl.gif Rock (Progressive rock) [CD] Emerson Lake & Palmer: Pictures At An Exhibition, 1971 (японский ремастер 1999), FLAC (tracks+.cue), lossless Omen
0 | 1

0 | 755

0

2014-02-04 23:00
Omen Latest
./templates/default/images/folder_dl.gif Разное Хаха Лунг | Девять залов смерти. Секреты мастерства ниндзя (2010) [FB2, EPUB] }{@R0N
1 | 0

0 | 10541

7

2017-08-19 21:48
}{@R0N Latest
./templates/default/images/folder_dl.gif Редакторы и конвертеры графики ФотоМАСТЕР 9.0 RePack (& Portable) by TryRooM [2020, Ru] nikola120
1 | 0

0 | 123

0

2020-10-13 17:47
nikola120 Latest
Display posts from previous:    
Reply to topic

The time now is: Today 22:19

All times are GMT + 3 Hours



You cannot post new topics in this forum
You cannot reply to topics in this forum
You cannot edit your posts in this forum
You cannot delete your posts in this forum
You cannot vote in polls in this forum
You cannot attach files in this forum
You cannot download files in this forum