Today is a free download without charge Download

Search found 500 matches

Author Message

Орлов Владимир

Post Today 03:38

[Quote]

--Анна / Anna (Люк Бессон) [2019, боевик, триллер, BDRemux 1080] [DUB,MVO] [iTunes]-- Информация о фильме
Год выпуска: 2019
Жанр: боевик, триллер
Страна: Франция, США
Режиссёр: Люк Бессон
Перевод: Дублированный [iTunes]
Перевод 2:Профессиональный многоголосый HDRezka Studio
Субтитры: Английские
Продолжительность: 02:00:06-- В ролях: Саша Лусс, Хелен Миррен, Люк Эванс, Киллиан Мёрфи, Лера Абова, Александр Петров, Никита Павленко, Анна Криппа, Алексей Маслодудов, Эрик Годон-- Описание: История Анны, чья несравненная красота скрывает поразительную мощь и смертоносный талант опаснейшего наемного убийцы в мире.-- --Файлы
Качество: BDRemux 1080p
Формат: MKV
Видео: MPEG-4 AVC, 1920x1080, 33.0 Mbit/s, 23.976 fps
Аудио: 48 kHz, AC3, 5.1, 384 Kbps | iTunes | RUS |
Аудио 2: 48 kHz, AC3, 2.0, 192 Kbps | HDRezka Studio | RUS |
Аудио 3: 48 kHz, TrueHD, 7.1, 3616 Kbps | Оригинал | ENG |
Аудио 4: 48 kHz, AC3, 5.1, 640 Kbps | Оригинал | ENG |
--

Скриншоты

Тех.данные видеофайла

General
Unique ID : 127541583442785041175512498583714501078 (0x5FF39D8F7CEA05CEAB91679C342D91D6)
Complete name : D:\Video111\Blu Ray\Anna.2019.BDREMUX.1080p.seleZen.mkv
Format : Matroska
Format version : Version 4
File size : 31.5 GiB
Duration : 1 h 59 min
Overall bit rate mode : Variable
Overall bit rate : 37.8 Mb/s
Movie name : Anna 2019 from селезень
Encoded date : UTC 2019-09-19 23:38:52
Writing application : mkvmerge v22.0.0 ('At The End Of The World') 64-bit
Writing library : libebml v1.3.5 + libmatroska v1.4.8
Video
ID : 1
Format : AVC
Format/Info : Advanced Video Codec
Format profile : [email protected]
Format settings : CABAC / 4 Ref Frames
Format settings, CABAC : Yes
Format settings, Reference : 4 frames
Codec ID : V_MPEG4/ISO/AVC
Duration : 1 h 58 min
Bit rate mode : Variable
Bit rate : 33.0 Mb/s
Maximum bit rate : 35.0 Mb/s
Width : 1 920 pixels
Height : 1 080 pixels
Display aspect ratio : 16:9
Frame rate mode : Constant
Frame rate : 23.976 (24000/1001) FPS
Color space : YUV
Chroma subsampling : 4:2:0
Bit depth : 8 bits
Scan type : Progressive
Bits/(Pixel*Frame) : 0.663
Stream size : 27.4 GiB (87%)
Language : English
Default : Yes
Forced : No
Audio #1
ID : 2
Format : AC-3
Format/Info : Audio Coding 3
Commercial name : Dolby Digital
Codec ID : A_AC3
Duration : 1 h 59 min
Bit rate mode : Constant
Bit rate : 384 kb/s
Channel(s) : 6 channels
Channel layout : L R C LFE Ls Rs
Sampling rate : 48.0 kHz
Frame rate : 31.250 FPS (1536 SPF)
Bit depth : 16 bits
Compression mode : Lossy
Stream size : 327 MiB (1%)
Title : iTunes
Language : Russian
Service kind : Complete Main
Default : Yes
Forced : Yes
Audio #2
ID : 3
Format : AC-3
Format/Info : Audio Coding 3
Commercial name : Dolby Digital
Codec ID : A_AC3
Duration : 1 h 58 min
Bit rate mode : Constant
Bit rate : 192 kb/s
Channel(s) : 2 channels
Channel layout : L R
Sampling rate : 48.0 kHz
Frame rate : 31.250 FPS (1536 SPF)
Bit depth : 16 bits
Compression mode : Lossy
Stream size : 163 MiB (1%)
Title : MVO [HDRezka Studio]
Language : Russian
Service kind : Complete Main
Default : No
Forced : No
Audio #3
ID : 4
Format : MLP FBA 16-ch
Format/Info : Meridian Lossless Packing FBA with 16-channel presentation
Commercial name : Dolby TrueHD with Dolby Atmos
Codec ID : A_TRUEHD
Duration : 1 h 58 min
Bit rate mode : Variable
Bit rate : 3 616 kb/s
Maximum bit rate : 6 318 kb/s
Channel(s) : 8 channels
Channel layout : L R C LFE Ls Rs Lb Rb
Sampling rate : 48.0 kHz
Frame rate : 1 200.000 FPS (40 SPF)
Compression mode : Lossless
Stream size : 3.01 GiB (10%)
Title : Original
Language : English
Default : No
Forced : No
Number of dynamic objects : 15
Bed channel count : 1 channel
Bed channel configuration : LFE
Audio #4
ID : 5
Format : AC-3
Format/Info : Audio Coding 3
Commercial name : Dolby Digital
Codec ID : A_AC3
Duration : 1 h 58 min
Bit rate mode : Constant
Bit rate : 640 kb/s
Channel(s) : 6 channels
Channel layout : L R C LFE Ls Rs
Sampling rate : 48.0 kHz
Frame rate : 31.250 FPS (1536 SPF)
Bit depth : 16 bits
Compression mode : Lossy
Stream size : 545 MiB (2%)
Language : English
Service kind : Complete Main
Default : No
Forced : No
Text
ID : 6
Format : UTF-8
Codec ID : S_TEXT/UTF8
Codec ID/Info : UTF-8 Plain Text
Duration : 1 h 52 min
Bit rate : 47 b/s
Count of elements : 1308
Stream size : 39.3 KiB (0%)
Title : Full
Language : English
Default : No
Forced : No
Menu
00:00:00.000 : en:00:00:00.000
00:06:14.291 : en:00:06:14.291
00:16:42.209 : en:00:16:42.209
00:21:09.185 : en:00:21:09.185
00:31:16.708 : en:00:31:16.708
00:35:25.832 : en:00:35:25.832
00:45:57.338 : en:00:45:57.338
00:53:43.262 : en:00:53:43.262
01:00:52.732 : en:01:00:52.732
01:08:39.907 : en:01:08:39.907
01:14:24.084 : en:01:14:24.084
01:24:15.133 : en:01:24:15.133
01:28:36.519 : en:01:28:36.519
01:36:36.582 : en:01:36:36.582
01:46:36.390 : en:01:46:36.390
01:51:04.783 : en:01:51:04.783

Орлов Владимир

Post Today 03:34

[Quote]

--Анна / Anna (Люк Бессон) [2019, боевик, триллер, BDRip 1080p] [DUB,MVO] [iTunes]-- Информация о фильме
Год выпуска: 2019
Жанр: боевик, триллер
Страна: Франция, США
Режиссёр: Люк Бессон
Перевод: Дублированный [iTunes]
Перевод 2:Профессиональный многоголосый HDRezka Studio
Субтитры: Английские
Продолжительность: 02:00:06-- В ролях: Саша Лусс, Хелен Миррен, Люк Эванс, Киллиан Мёрфи, Лера Абова, Александр Петров, Никита Павленко, Анна Криппа, Алексей Маслодудов, Эрик Годон-- Описание: История Анны, чья несравненная красота скрывает поразительную мощь и смертоносный талант опаснейшего наемного убийцы в мире.-- --Файлы
Качество: BDRip 1080p
Формат: MKV
Видео: MPEG-4 AVC, 1920x804, 10.2 Mbit/s, 23.976 fps
Аудио: 48 kHz, AC3, 5.1, 384 Kbps | iTunes | RUS
Аудио 2: 48 kHz, AC3, 2.0, 192 Kbps | HDRezka Studio | RUS
Аудио 3: 48 kHz, AC3, 5.1, 640 Kbps | Оригинал | ENG
--

Скриншоты

Тех.данные видеофайла

General
Unique ID: 95296777659952646380521499362830824217 (0x47B17DE4A1B150342C0407D8C04FB319)
Complete name: D:\Video111\Blu Ray\Anna.2019.BDRip.1080p.seleZen.mkv
Format: Matroska
Format version: Version 4
File size: 9.50 GiB
Duration: 1 h 59 min
Overall bit rate: 11.4 Mb/s
Movie name: Anna 2019 from селезень
Encoded date: UTC 2019-09-19 23:12:19
Writing application: mkvmerge v22.0.0 ('At The End Of The World') 64-bit
Writing library: libebml v1.3.5 + libmatroska v1.4.8
Video
ID: 1
Format: AVC
Format/Info: Advanced Video Codec
Format profile: [email protected]
Format settings: CABAC / 5 Ref Frames
Format settings, CABAC: Yes
Format settings, Reference: 5 frames
Codec ID: V_MPEG4/ISO/AVC
Duration: 1 h 58 min
Bit rate: 10.2 Mb/s
Width: 1 920 pixels
Height: 804 pixels
Display aspect ratio: 2.40:1
Frame rate mode: Constant
Frame rate: 23.976 (24000/1001) FPS
Color space: YUV
Chroma subsampling: 4:2:0
Bit depth: 8 bits
Scan type: Progressive
Bits/(Pixel*Frame): 0.276
Stream size: 8.49 GiB (89%)
Title: Encoded by seleZen
Writing library: x264 core 148 r2705kMod 3f5ed56
Encoding settings: cabac=1 / ref=5 / deblock=1:-2:-2 / analyse=0x3:0x113 / me=umh / subme=11 / psy=1 / fade_compensate=0.00 / psy_rd=1.01:0.00 / mixed_ref=1 / me_range=48 / chroma_me=1 / trellis=2 / 8x8dct=1 / cqm=0 / deadzone=21,11 / fast_pskip=0 / chroma_qp_offset=-2 / threads=24 / lookahead_threads=6 / sliced_threads=0 / nr=0 / decimate=0 / interlaced=0 / bluray_compat=0 / constrained_intra=0 / fgo=0 / bframes=10 / b_pyramid=2 / b_adapt=2 / b_bias=0 / direct=3 / weightb=1 / open_gop=0 / weightp=2 / keyint=240 / keyint_min=23 / scenecut=40 / intra_refresh=0 / rc_lookahead=50 / rc=2pass / mbtree=0 / bitrate=10217 / ratetol=1.0 / qcomp=0.60 / qpmin=0 / qpmax=51 / qpstep=4 / cplxblur=20.0 / qblur=0.5 / vbv_maxrate=50000 / vbv_bufsize=62500 / nal_hrd=none / filler=0 / ip_ratio=1.40 / pb_ratio=1.30 / aq=3:0.80
Language: English
Default: Yes
Forced: No
Audio #1
ID: 2
Format: AC-3
Format/Info: Audio Coding 3
Commercial name: Dolby Digital
Codec ID: A_AC3
Duration: 1 h 59 min
Bit rate mode: Constant
Bit rate: 384 kb/s
Channel(s): 6 channels
Channel layout: L R C LFE Ls Rs
Sampling rate: 48.0 kHz
Frame rate: 31.250 FPS (1536 SPF)
Bit depth: 16 bits
Compression mode: Lossy
Stream size: 327 MiB (3%)
Title: iTunes
Language: Russian
Service kind: Complete Main
Default: Yes
Forced: Yes
Audio #2
ID: 3
Format: AC-3
Format/Info: Audio Coding 3
Commercial name: Dolby Digital
Codec ID: A_AC3
Duration: 1 h 58 min
Bit rate mode: Constant
Bit rate: 192 kb/s
Channel(s): 2 channels
Channel layout: L R
Sampling rate: 48.0 kHz
Frame rate: 31.250 FPS (1536 SPF)
Bit depth: 16 bits
Compression mode: Lossy
Stream size: 163 MiB (2%)
Title: MVO [HDRezka Studio]
Language: Russian
Service kind: Complete Main
Default: No
Forced: No
Audio #3
ID: 4
Format: AC-3
Format/Info: Audio Coding 3
Commercial name: Dolby Digital
Codec ID: A_AC3
Duration: 1 h 58 min
Bit rate mode: Constant
Bit rate: 640 kb/s
Channel(s): 6 channels
Channel layout: L R C LFE Ls Rs
Sampling rate: 48.0 kHz
Frame rate: 31.250 FPS (1536 SPF)
Bit depth: 16 bits
Compression mode: Lossy
Stream size: 545 MiB (6%)
Title: Original
Language: English
Service kind: Complete Main
Default: No
Forced: No
Text
ID: 5
Format: UTF-8
Codec ID: S_TEXT/UTF8
Codec ID/Info: UTF-8 Plain Text
Duration: 1 h 52 min
Bit rate: 47 b/s
Count of elements: 1308
Stream size: 39.3 KiB (0%)
Language: English
Default: No
Forced: No
Menu
00:00:00.000: en:00:00:00.000
00:06:14.291: en:00:06:14.291
00:16:42.209: en:00:16:42.209
00:21:09.185: en:00:21:09.185
00:31:16.708: en:00:31:16.708
00:35:25.832: en:00:35:25.832
00:45:57.338: en:00:45:57.338
00:53:43.262: en:00:53:43.262
01:00:52.732: en:01:00:52.732
01:08:39.907: en:01:08:39.907
01:14:24.084: en:01:14:24.084
01:24:15.133: en:01:24:15.133
01:28:36.519: en:01:28:36.519
01:36:36.582: en:01:36:36.582
01:46:36.390: en:01:46:36.390
01:51:04.783: en:01:51:04.783

Орлов Владимир

Post Today 03:32

[Quote]

--Анна / Anna (Люк Бессон) [2019, боевик, триллер, BDRip 720p] [DUB,MVO] [iTunes]-- Информация о фильме
Год выпуска: 2019
Жанр: боевик, триллер
Страна: Франция, США
Режиссёр: Люк Бессон
Перевод: Дублированный [iTunes]
Перевод 2:Профессиональный многоголосый HDRezka Studio
Субтитры: Английские
Продолжительность: 02:00:06-- В ролях: Саша Лусс, Хелен Миррен, Люк Эванс, Киллиан Мёрфи, Лера Абова, Александр Петров, Никита Павленко, Анна Криппа, Алексей Маслодудов, Эрик Годон-- Описание: История Анны, чья несравненная красота скрывает поразительную мощь и смертоносный талант опаснейшего наемного убийцы в мире.-- --Файлы
Качество: BDRip 720p
Формат: MKV
Видео: MPEG-4 AVC, 1280x536, 5500 Кbit/s, 23.976 fps
Аудио: 48 kHz, AC3, 5.1, 384 Kbps | iTunes | RUS
Аудио 2: 48 kHz, AC3, 2.0, 192 Kbps | HDRezka Studio | RUS
Аудио 3: 48 kHz, AC3, 5.1, 640 Kbps | Оригинал | ENG
--

Скриншоты

Тех.данные видеофайла

General
Unique ID: 145666556671041075826364365541726325888 (0x6D965BBC185A13B120A17FB3CD858C80)
Complete name: D:\Video111\Blu Ray\Anna.2019.BDRip.720p.seleZen.mkv
Format: Matroska
Format version: Version 4
File size: 5.58 GiB
Duration: 1 h 59 min
Overall bit rate: 6 718 kb/s
Movie name: Anna 2019 from селезень
Encoded date: UTC 2019-09-19 23:21:55
Writing application: mkvmerge v22.0.0 ('At The End Of The World') 64-bit
Writing library: libebml v1.3.5 + libmatroska v1.4.8
Video
ID: 1
Format: AVC
Format/Info: Advanced Video Codec
Format profile: [email protected]
Format settings: CABAC / 12 Ref Frames
Format settings, CABAC: Yes
Format settings, Reference: 12 frames
Codec ID: V_MPEG4/ISO/AVC
Duration: 1 h 58 min
Bit rate: 5 500 kb/s
Width: 1 280 pixels
Height: 536 pixels
Display aspect ratio: 2.40:1
Frame rate mode: Constant
Frame rate: 23.976 (24000/1001) FPS
Color space: YUV
Chroma subsampling: 4:2:0
Bit depth: 8 bits
Scan type: Progressive
Bits/(Pixel*Frame): 0.334
Stream size: 4.57 GiB (82%)
Title: Encoded by seleZen
Writing library: x264 core 148 r2705kMod 3f5ed56
Encoding settings: cabac=1 / ref=12 / deblock=1:-2:-2 / analyse=0x3:0x113 / me=umh / subme=11 / psy=1 / fade_compensate=0.00 / psy_rd=1.01:0.02 / mixed_ref=1 / me_range=32 / chroma_me=1 / trellis=2 / 8x8dct=1 / cqm=0 / deadzone=21,11 / fast_pskip=0 / chroma_qp_offset=-3 / threads=17 / lookahead_threads=4 / sliced_threads=0 / nr=0 / decimate=0 / interlaced=0 / bluray_compat=0 / constrained_intra=0 / fgo=0 / bframes=10 / b_pyramid=2 / b_adapt=2 / b_bias=0 / direct=3 / weightb=1 / open_gop=0 / weightp=2 / keyint=240 / keyint_min=23 / scenecut=40 / intra_refresh=0 / rc_lookahead=50 / rc=2pass / mbtree=0 / bitrate=5500 / ratetol=1.0 / qcomp=0.60 / qpmin=0 / qpmax=51 / qpstep=4 / cplxblur=20.0 / qblur=0.5 / vbv_maxrate=50000 / vbv_bufsize=62500 / nal_hrd=none / filler=0 / ip_ratio=1.40 / pb_ratio=1.30 / aq=3:0.80
Language: English
Default: Yes
Forced: No
Audio #1
ID: 2
Format: AC-3
Format/Info: Audio Coding 3
Commercial name: Dolby Digital
Codec ID: A_AC3
Duration: 1 h 59 min
Bit rate mode: Constant
Bit rate: 384 kb/s
Channel(s): 6 channels
Channel layout: L R C LFE Ls Rs
Sampling rate: 48.0 kHz
Frame rate: 31.250 FPS (1536 SPF)
Bit depth: 16 bits
Compression mode: Lossy
Stream size: 327 MiB (6%)
Title: iTunes
Language: Russian
Service kind: Complete Main
Default: Yes
Forced: Yes
Audio #2
ID: 3
Format: AC-3
Format/Info: Audio Coding 3
Commercial name: Dolby Digital
Codec ID: A_AC3
Duration: 1 h 58 min
Bit rate mode: Constant
Bit rate: 192 kb/s
Channel(s): 2 channels
Channel layout: L R
Sampling rate: 48.0 kHz
Frame rate: 31.250 FPS (1536 SPF)
Bit depth: 16 bits
Compression mode: Lossy
Stream size: 163 MiB (3%)
Title: MVO [HDRezka Studio]
Language: Russian
Service kind: Complete Main
Default: No
Forced: No
Audio #3
ID: 4
Format: AC-3
Format/Info: Audio Coding 3
Commercial name: Dolby Digital
Codec ID: A_AC3
Duration: 1 h 58 min
Bit rate mode: Constant
Bit rate: 640 kb/s
Channel(s): 6 channels
Channel layout: L R C LFE Ls Rs
Sampling rate: 48.0 kHz
Frame rate: 31.250 FPS (1536 SPF)
Bit depth: 16 bits
Compression mode: Lossy
Stream size: 545 MiB (10%)
Title: Original
Language: English
Service kind: Complete Main
Default: No
Forced: No
Text
ID: 5
Format: UTF-8
Codec ID: S_TEXT/UTF8
Codec ID/Info: UTF-8 Plain Text
Duration: 1 h 52 min
Bit rate: 47 b/s
Count of elements: 1308
Stream size: 39.3 KiB (0%)
Language: English
Default: No
Forced: No
Menu
00:00:00.000: en:00:00:00.000
00:06:14.291: en:00:06:14.291
00:16:42.209: en:00:16:42.209
00:21:09.185: en:00:21:09.185
00:31:16.708: en:00:31:16.708
00:35:25.832: en:00:35:25.832
00:45:57.338: en:00:45:57.338
00:53:43.262: en:00:53:43.262
01:00:52.732: en:01:00:52.732
01:08:39.907: en:01:08:39.907
01:14:24.084: en:01:14:24.084
01:24:15.133: en:01:24:15.133
01:28:36.519: en:01:28:36.519
01:36:36.582: en:01:36:36.582
01:46:36.390: en:01:46:36.390
01:51:04.783: en:01:51:04.783

Орлов Владимир

Post Yesterday 17:57

[Quote]

--Голый романтик / The Naked Wanderer (Алан Линдсэй) [2019, Мелодрама, комедия, WEB-DL 1080p] [DUB] [iTunes]-- Информация о фильме
Год выпуска: 2019
Жанр: Мелодрама, комедия
Страна: Австралия
Режиссёр: Алан Линдсэй
Перевод: Дублированный [iTunes]
Субтитры: Русские
Продолжительность: 01:41:20-- В ролях: Джон Клиз, Энгус МакЛарен, Наташа Лю Бордиццо, Софи Кеннеди Кларк, Каллэн Дарлик, Меган Смарт, Алан Литтл, Джэйми Тимони, Люси-Роуз Леонард, Исрар Азам-- Описание: Джейк, которого только что бросила любимая девушка, в расстроенных чувствах, сгоряча соглашается принять участие в одиночном пешем марафоне и отправляется в путешествие длиной 4 тысячи километров вдоль западного побережья Австралии, будучи облаченным лишь в набедренную повязку. Официальная цель марафона — сбор денег на благотворительность, однако в тайне Джейк надеется таким образом снова обратить на себя внимание своей бывшей возлюбленной. Этими надеждами он живет ровно до того момента, когда встречает на своем пути обворожительную Валери-- --Файлы
Качество: WEB-DL 1080p
Формат: MKV
Видео: MPEG-4 AVC, 4600 Kбит/с, 1920x806
Аудио: АС3, 6 ch, 384 Кбит/с
--

Скриншоты

     

Орлов Владимир

Post 16-Sep-2019 20:12

[Quote]

--Наследие: Застывшая кровь / Cold Blood Legacy (Фридерик Петижан) [2019, Боевик, триллер, BDRemux 1080p] [DUB,MVO] [iTunes]-- Информация о фильме
Название: Наследие: Застывшая кровь
Оригинальное название: Cold Blood Legacy
Год выхода: 2019
Жанр: Боевик, триллер
Режиссер: Фридерик Петижан--В ролях: Жан Рено, Сара Линд, Джо Андерсон, Дэвид Гяси, Игорь Цишкевич, Франсуа Гетари, Саманта Бонд, Катерина Бурсикова, Анна Буткевич, Роберт Фельдман--О фильме: Генри, один из наиболее разыскиваемых киллеров в отставке, живёт отшельником на берегу озера в труднодоступной лесной чаще. Однажды недалеко от его дома происходит несчастный случай: на мотосанях разбивается девушка. Перед Генри встаёт дилемма: спасти девушку, подвергнув себя риску быть обнаруженным или поступить так, как подсказывает здравый смысл и многолетний опыт.-- --Страна: Франция, Украина
Студия: Ascot Elite Entertainment Group, Eastwest Productions, Eight 35
Продолжительность: 01:31:21
Перевод(ы):
#1: Дублированный | [iTunes]
#2: Профессиональный многоголосый [HDRezka Studio]--Качество: BDRemux 1080p
Видео: MPEG-4 AVC, 1920x1080, 21.8 Mbit/s, 23.976 fps
Аудио #01: 48 kHz, AC3, 5.1, 384 Kbps | iTunes | RUS |
Аудио #02: 48 kHz, AC3, 2.0, 192 Kbps | HDRezka Studio | RUS |
Аудио #03: 48 kHz, DTS-HD MA, 5.1, 2781 Kbps | Оригинал | ENG |
Субтитры: Английские--

Скриншоты

           

Тех.данные видеофайла

General
Unique ID: 316708742126498455485244355721206352386 (0xEE43E29015C7DF83277D95E18A2ACA02)
Complete name: D:\Video111\Cold.Blood.Legacy.2019.BDREMUX.1080p.seleZen.mkv
Format: Matroska
Format version: Version 4
File size: 16.0 GiB
Duration: 1 h 31 min
Overall bit rate mode: Variable
Overall bit rate: 25.1 Mb/s
Movie name: Cold Blood 2019 from селезень
Encoded date: UTC 2019-09-16 08:29:34
Writing application: mkvmerge v22.0.0 ('At The End Of The World') 64-bit
Writing library: libebml v1.3.5 + libmatroska v1.4.8
Video
ID: 1
Format: AVC
Format/Info: Advanced Video Codec
Format profile: [email protected]
Format settings: CABAC / 3 Ref Frames
Format settings, CABAC: Yes
Format settings, Reference: 3 frames
Format settings, GOP: M=3, N=12
Codec ID: V_MPEG4/ISO/AVC
Duration: 1 h 31 min
Bit rate mode: Variable
Bit rate: 21.8 Mb/s
Maximum bit rate: 32.0 Mb/s
Width: 1 920 pixels
Height: 1 080 pixels
Display aspect ratio: 16:9
Frame rate mode: Constant
Frame rate: 23.976 (24000/1001) FPS
Standard: NTSC
Color space: YUV
Chroma subsampling: 4:2:0
Bit depth: 8 bits
Scan type: Progressive
Bits/(Pixel*Frame): 0.438
Stream size: 13.9 GiB (87%)
Language: English
Default: Yes
Forced: No
Color range: Limited
Color primaries: BT.709
Transfer characteristics: BT.709
Matrix coefficients: BT.709
Audio #1
ID: 2
Format: AC-3
Format/Info: Audio Coding 3
Commercial name: Dolby Digital
Codec ID: A_AC3
Duration: 1 h 31 min
Bit rate mode: Constant
Bit rate: 384 kb/s
Channel(s): 6 channels
Channel layout: L R C LFE Ls Rs
Sampling rate: 48.0 kHz
Frame rate: 31.250 FPS (1536 SPF)
Bit depth: 16 bits
Compression mode: Lossy
Stream size: 251 MiB (2%)
Title: Dub [iTunes]
Language: Russian
Service kind: Complete Main
Default: Yes
Forced: Yes
Audio #2
ID: 3
Format: AC-3
Format/Info: Audio Coding 3
Commercial name: Dolby Digital
Codec ID: A_AC3
Duration: 1 h 31 min
Bit rate mode: Constant
Bit rate: 192 kb/s
Channel(s): 2 channels
Channel layout: L R
Sampling rate: 48.0 kHz
Frame rate: 31.250 FPS (1536 SPF)
Bit depth: 16 bits
Compression mode: Lossy
Stream size: 125 MiB (1%)
Title: MVO [HDRezka Studio]
Language: Russian
Service kind: Complete Main
Default: No
Forced: No
Audio #3
ID: 4
Format: DTS XLL
Format/Info: Digital Theater Systems
Commercial name: DTS-HD Master Audio
Codec ID: A_DTS
Duration: 1 h 31 min
Bit rate mode: Variable
Bit rate: 2 781 kb/s
Channel(s): 6 channels
Channel layout: C L R Ls Rs LFE
Sampling rate: 48.0 kHz
Frame rate: 93.750 FPS (512 SPF)
Bit depth: 24 bits
Compression mode: Lossless
Stream size: 1.77 GiB (11%)
Title: Original
Language: English
Default: No
Forced: No
Text
ID: 5
Format: UTF-8
Codec ID: S_TEXT/UTF8
Codec ID/Info: UTF-8 Plain Text
Duration: 1 h 18 min
Bit rate: 36 b/s
Count of elements: 753
Stream size: 21.0 KiB (0%)
Title: Full
Language: English
Default: No
Forced: No
Menu
00:00:00.000: en:00:00:00.000
00:07:52.472: en:00:07:52.472
00:16:37.455: en:00:16:37.455
00:24:23.253: en:00:24:23.253
00:29:15.128: en:00:29:15.128
00:40:00.106: en:00:40:00.106
00:47:09.660: en:00:47:09.660
00:56:05.404: en:00:56:05.404
01:06:56.262: en:01:06:56.262
01:11:38.544: en:01:11:38.544
01:18:31.707: en:01:18:31.707
01:25:20.115: en:01:25:20.115

Орлов Владимир

Post 16-Sep-2019 20:07

[Quote]

--Наследие: Застывшая кровь / Cold Blood Legacy (Фридерик Петижан) [2019, Боевик, триллер, BDRip 1080p] [DUB,MVO] [iTunes]-- Информация о фильме
Название: Наследие: Застывшая кровь
Оригинальное название: Cold Blood Legacy
Год выхода: 2019
Жанр: Боевик, триллер
Режиссер: Фридерик Петижан--В ролях: Жан Рено, Сара Линд, Джо Андерсон, Дэвид Гяси, Игорь Цишкевич, Франсуа Гетари, Саманта Бонд, Катерина Бурсикова, Анна Буткевич, Роберт Фельдман--О фильме: Генри, один из наиболее разыскиваемых киллеров в отставке, живёт отшельником на берегу озера в труднодоступной лесной чаще. Однажды недалеко от его дома происходит несчастный случай: на мотосанях разбивается девушка. Перед Генри встаёт дилемма: спасти девушку, подвергнув себя риску быть обнаруженным или поступить так, как подсказывает здравый смысл и многолетний опыт.-- --Страна: Франция, Украина
Студия: Ascot Elite Entertainment Group, Eastwest Productions, Eight 35
Продолжительность: 01:31:21
Перевод(ы):
#1: Дублированный | [iTunes]
#2: Профессиональный многоголосый [HDRezka Studio]--Качество: BDRip 1080p
Видео: MPEG-4 AVC, 1920x806, 10.0 Mbit/s, 23.976 fps
Аудио #01: 48 kHz, AC3, 5.1, 384 Kbps | iTunes | RUS |
Аудио #02: 48 kHz, AC3, 2.0, 192 Kbps | HDRezka Studio | RUS |
Аудио #03: 48 kHz, AC3, 5.1, 640 Kbps | Оригинал | ENG |
Субтитры: Английские--

Скриншоты

         

Тех.данные видеофайла

General
Unique ID: 115297797293869469698569804643344660424 (0x56BD8C4BE445C3B9750A09116CB537C8)
Complete name: D:\Video111\Cold.Blood.Legacy.2019.BDRip.1080p.mkv
Format: Matroska
Format version: Version 4
File size: 7.15 GiB
Duration: 1 h 31 min
Overall bit rate: 11.2 Mb/s
Movie name: Cold Blood 2019 from селезень
Encoded date: UTC 2019-09-16 08:09:26
Writing application: mkvmerge v22.0.0 ('At The End Of The World') 64-bit
Writing library: libebml v1.3.5 + libmatroska v1.4.8
Video
ID: 1
Format: AVC
Format/Info: Advanced Video Codec
Format profile: [email protected]
Format settings: CABAC / 5 Ref Frames
Format settings, CABAC: Yes
Format settings, Reference: 5 frames
Codec ID: V_MPEG4/ISO/AVC
Duration: 1 h 31 min
Bit rate: 10 000 kb/s
Width: 1 920 pixels
Height: 806 pixels
Display aspect ratio: 2.40:1
Frame rate mode: Constant
Frame rate: 23.976 (24000/1001) FPS
Color space: YUV
Chroma subsampling: 4:2:0
Bit depth: 8 bits
Scan type: Progressive
Bits/(Pixel*Frame): 0.270
Stream size: 6.37 GiB (89%)
Title: Encoded by seleZen
Writing library: x264 core 148 r2705kMod 3f5ed56
Encoding settings: cabac=1 / ref=5 / deblock=1:-2:-2 / analyse=0x3:0x113 / me=umh / subme=11 / psy=1 / fade_compensate=0.00 / psy_rd=1.03:0.04 / mixed_ref=1 / me_range=32 / chroma_me=1 / trellis=2 / 8x8dct=1 / cqm=0 / deadzone=21,11 / fast_pskip=0 / chroma_qp_offset=-3 / threads=24 / lookahead_threads=6 / sliced_threads=0 / nr=0 / decimate=0 / interlaced=0 / bluray_compat=0 / constrained_intra=0 / fgo=0 / bframes=10 / b_pyramid=2 / b_adapt=2 / b_bias=0 / direct=3 / weightb=1 / open_gop=0 / weightp=2 / keyint=240 / keyint_min=23 / scenecut=40 / intra_refresh=0 / rc_lookahead=50 / rc=2pass / mbtree=0 / bitrate=10000 / ratetol=1.0 / qcomp=0.60 / qpmin=0 / qpmax=51 / qpstep=4 / cplxblur=20.0 / qblur=0.5 / vbv_maxrate=50000 / vbv_bufsize=62500 / nal_hrd=none / filler=0 / ip_ratio=1.40 / pb_ratio=1.30 / aq=3:0.80
Language: English
Default: Yes
Forced: No
Audio #1
ID: 2
Format: AC-3
Format/Info: Audio Coding 3
Commercial name: Dolby Digital
Codec ID: A_AC3
Duration: 1 h 31 min
Bit rate mode: Constant
Bit rate: 384 kb/s
Channel(s): 6 channels
Channel layout: L R C LFE Ls Rs
Sampling rate: 48.0 kHz
Frame rate: 31.250 FPS (1536 SPF)
Bit depth: 16 bits
Compression mode: Lossy
Stream size: 251 MiB (3%)
Title: Dub [iTunes]
Language: Russian
Service kind: Complete Main
Default: Yes
Forced: Yes
Audio #2
ID: 3
Format: AC-3
Format/Info: Audio Coding 3
Commercial name: Dolby Digital
Codec ID: A_AC3
Duration: 1 h 31 min
Bit rate mode: Constant
Bit rate: 192 kb/s
Channel(s): 2 channels
Channel layout: L R
Sampling rate: 48.0 kHz
Frame rate: 31.250 FPS (1536 SPF)
Bit depth: 16 bits
Compression mode: Lossy
Stream size: 125 MiB (2%)
Title: MVO [HDRezka Studio]
Language: Russian
Service kind: Complete Main
Default: No
Forced: No
Audio #3
ID: 4
Format: AC-3
Format/Info: Audio Coding 3
Commercial name: Dolby Digital
Codec ID: A_AC3
Duration: 1 h 31 min
Bit rate mode: Constant
Bit rate: 640 kb/s
Channel(s): 6 channels
Channel layout: L R C LFE Ls Rs
Sampling rate: 48.0 kHz
Frame rate: 31.250 FPS (1536 SPF)
Bit depth: 16 bits
Compression mode: Lossy
Stream size: 418 MiB (6%)
Title: Original
Language: English
Service kind: Complete Main
Default: No
Forced: No
Text
ID: 5
Format: UTF-8
Codec ID: S_TEXT/UTF8
Codec ID/Info: UTF-8 Plain Text
Duration: 1 h 18 min
Bit rate: 36 b/s
Count of elements: 753
Stream size: 21.0 KiB (0%)
Title: Full
Language: English
Default: No
Forced: No
Menu
00:00:00.000: en:00:00:00.000
00:07:52.472: en:00:07:52.472
00:16:37.455: en:00:16:37.455
00:24:23.253: en:00:24:23.253
00:29:15.128: en:00:29:15.128
00:40:00.106: en:00:40:00.106
00:47:09.660: en:00:47:09.660
00:56:05.404: en:00:56:05.404
01:06:56.262: en:01:06:56.262
01:11:38.544: en:01:11:38.544
01:18:31.707: en:01:18:31.707
01:25:20.115: en:01:25:20.115

Орлов Владимир

Post 16-Sep-2019 20:04

[Quote]

--Наследие: Застывшая кровь / Cold Blood Legacy (Фридерик Петижан) [2019, Боевик, триллер, BDRip 720p] [DUB,MVO] [iTunes]-- Информация о фильме
Название: Наследие: Застывшая кровь
Оригинальное название: Cold Blood Legacy
Год выхода: 2019
Жанр: Боевик, триллер
Режиссер: Фридерик Петижан--В ролях: Жан Рено, Сара Линд, Джо Андерсон, Дэвид Гяси, Игорь Цишкевич, Франсуа Гетари, Саманта Бонд, Катерина Бурсикова, Анна Буткевич, Роберт Фельдман--О фильме: Генри, один из наиболее разыскиваемых киллеров в отставке, живёт отшельником на берегу озера в труднодоступной лесной чаще. Однажды недалеко от его дома происходит несчастный случай: на мотосанях разбивается девушка. Перед Генри встаёт дилемма: спасти девушку, подвергнув себя риску быть обнаруженным или поступить так, как подсказывает здравый смысл и многолетний опыт.-- --Страна: Франция, Украина
Студия: Ascot Elite Entertainment Group, Eastwest Productions, Eight 35
Продолжительность: 01:31:21
Перевод(ы):
#1: Дублированный | [iTunes]
#2: Профессиональный многоголосый [HDRezka Studio]--Качество: BDRip 720p
Видео: MPEG-4 AVC, 1280x538, 4769 Kbit/s, 23.976 fps
Аудио #01: 48 kHz, AC3, 5.1, 384 Kbps | iTunes | RUS |
Аудио #02: 48 kHz, AC3, 2.0, 192 Kbps | HDRezka Studio | RUS |
Аудио #03: 48 kHz, AC3, 5.1, 640 Kbps | Оригинал | ENG |
Субтитры: Английские

Скриншоты

         

Тех.данные видеофайла

General
Unique ID: 92415909542459215948963263067805647906 (0x4586A820EF909C1C72ED2BDC077F0422)
Complete name: D:\Video111\Cold.Blood.Legacy.2019.BDRip.720p.seleZen.mkv
Format: Matroska
Format version: Version 4
File size: 3.82 GiB
Duration: 1 h 31 min
Overall bit rate: 5 978 kb/s
Movie name: Cold Blood 2019 from селезень
Encoded date: UTC 2019-09-16 09:48:26
Writing application: mkvmerge v22.0.0 ('At The End Of The World') 64-bit
Writing library: libebml v1.3.5 + libmatroska v1.4.8
Video
ID: 1
Format: AVC
Format/Info: Advanced Video Codec
Format profile: [email protected]
Format settings: CABAC / 12 Ref Frames
Format settings, CABAC: Yes
Format settings, Reference: 12 frames
Codec ID: V_MPEG4/ISO/AVC
Duration: 1 h 31 min
Bit rate: 4 769 kb/s
Width: 1 280 pixels
Height: 538 pixels
Display aspect ratio: 2.40:1
Frame rate mode: Constant
Frame rate: 23.976 (24000/1001) FPS
Color space: YUV
Chroma subsampling: 4:2:0
Bit depth: 8 bits
Scan type: Progressive
Bits/(Pixel*Frame): 0.289
Stream size: 3.04 GiB (80%)
Title: Encoded by seleZen
Writing library: x264 core 148 r2705kMod 3f5ed56
Encoding settings: cabac=1 / ref=12 / deblock=1:-2:-2 / analyse=0x3:0x113 / me=umh / subme=11 / psy=1 / fade_compensate=0.00 / psy_rd=1.03:0.04 / mixed_ref=1 / me_range=32 / chroma_me=1 / trellis=2 / 8x8dct=1 / cqm=0 / deadzone=21,11 / fast_pskip=0 / chroma_qp_offset=-3 / threads=17 / lookahead_threads=4 / sliced_threads=0 / nr=0 / decimate=0 / interlaced=0 / bluray_compat=0 / constrained_intra=0 / fgo=0 / bframes=10 / b_pyramid=2 / b_adapt=2 / b_bias=0 / direct=3 / weightb=1 / open_gop=0 / weightp=2 / keyint=240 / keyint_min=23 / scenecut=40 / intra_refresh=0 / rc_lookahead=50 / rc=2pass / mbtree=0 / bitrate=4769 / ratetol=1.0 / qcomp=0.60 / qpmin=0 / qpmax=51 / qpstep=4 / cplxblur=20.0 / qblur=0.5 / vbv_maxrate=50000 / vbv_bufsize=62500 / nal_hrd=none / filler=0 / ip_ratio=1.40 / pb_ratio=1.30 / aq=3:0.80
Language: English
Default: Yes
Forced: No
Audio #1
ID: 2
Format: AC-3
Format/Info: Audio Coding 3
Commercial name: Dolby Digital
Codec ID: A_AC3
Duration: 1 h 31 min
Bit rate mode: Constant
Bit rate: 384 kb/s
Channel(s): 6 channels
Channel layout: L R C LFE Ls Rs
Sampling rate: 48.0 kHz
Frame rate: 31.250 FPS (1536 SPF)
Bit depth: 16 bits
Compression mode: Lossy
Stream size: 251 MiB (6%)
Title: Dub [iTunes]
Language: Russian
Service kind: Complete Main
Default: Yes
Forced: Yes
Audio #2
ID: 3
Format: AC-3
Format/Info: Audio Coding 3
Commercial name: Dolby Digital
Codec ID: A_AC3
Duration: 1 h 31 min
Bit rate mode: Constant
Bit rate: 192 kb/s
Channel(s): 2 channels
Channel layout: L R
Sampling rate: 48.0 kHz
Frame rate: 31.250 FPS (1536 SPF)
Bit depth: 16 bits
Compression mode: Lossy
Stream size: 125 MiB (3%)
Title: MVO [HDRezka Studio]
Language: Russian
Service kind: Complete Main
Default: No
Forced: No
Audio #3
ID: 4
Format: AC-3
Format/Info: Audio Coding 3
Commercial name: Dolby Digital
Codec ID: A_AC3
Duration: 1 h 31 min
Bit rate mode: Constant
Bit rate: 640 kb/s
Channel(s): 6 channels
Channel layout: L R C LFE Ls Rs
Sampling rate: 48.0 kHz
Frame rate: 31.250 FPS (1536 SPF)
Bit depth: 16 bits
Compression mode: Lossy
Stream size: 418 MiB (11%)
Title: Original
Language: English
Service kind: Complete Main
Default: No
Forced: No
Text
ID: 5
Format: UTF-8
Codec ID: S_TEXT/UTF8
Codec ID/Info: UTF-8 Plain Text
Duration: 1 h 18 min
Bit rate: 36 b/s
Count of elements: 753
Stream size: 21.0 KiB (0%)
Title: Full
Language: English
Default: No
Forced: No
Menu
00:00:00.000: en:00:00:00.000
00:07:52.472: en:00:07:52.472
00:16:37.455: en:00:16:37.455
00:24:23.253: en:00:24:23.253
00:29:15.128: en:00:29:15.128
00:40:00.106: en:00:40:00.106
00:47:09.660: en:00:47:09.660
00:56:05.404: en:00:56:05.404
01:06:56.262: en:01:06:56.262
01:11:38.544: en:01:11:38.544
01:18:31.707: en:01:18:31.707
01:25:20.115: en:01:25:20.115

Орлов Владимир

Post 15-Sep-2019 00:53

[Quote]

--Детские игры / Child's Play (Ларс Клевберг) [2019, Ужасы, WEB-DL 720p] [DUB] [iTunes]-- Информация о фильме
Название: Детские игры
Оригинальное название: Child's Play
Год выхода: 2019
Жанр: Ужасы
Режиссер: Ларс Клевберг--В ролях: Гэбриел Бейтман, Обри Плаза, Марк Хэмилл, Брайан Тайри Генри, Тим Мэтисон, Дэвид Льюис, Ти Консильо, Марлон Казади, Беатрис Китсос, Ханна Дрю, Трент Редекоп, Эмбер Тейлор, Карлис Бёрк, Николь Энтони, Джонсон Фэн, Кристин Йорк, Миа Белла, Амро Майзуб, Вину Сандху, Оливия Пун, Кеннет Тайнен--О фильме:
Мать-одиночка Карен дарит своему сыну Энди куклу, о которой мечтают все дети. Однако, вскоре становится ясно, что Энди достается больше, чем просто игрушка…-- --Страна: Франция, Канада, США
Студия: Orion Pictures, BRON Studios, Bron Creative
Продолжительность: 01:29:59
[Перевод: Дублированный | iTunes--Качество: WEB-DL (720p)
Видео: MPEG-4 AVC, 4053 Кбит/с, 1280x536
Аудио: Русский (AC3, 6 ch, 384 Кбит/с)
--

Скриншоты

           

Орлов Владимир

Post 14-Sep-2019 05:09

[Quote]

--Собачьи дни / Dog Days (Кен Марино) [2018, Драма, комедия, BDRemux 1080p] [MVO] [iTunes]-- Информация о фильме
Название: Собачьи дни
Оригинальное название: Dog Days
Год выхода: 2018
Жанр: Драма, комедия
Режиссер: Кен Марино--В ролях: Нина Добрев, Ванесса Энн Хадженс, Тони Белл, Ева Лонгория, Роб Кордри, Адам Палли, Райан Хансен, Джессика Ст. Клер, Томас Леннон, Жасмин Сепас Джонс--О фильме: История о нескольких жителях Лос-Анжелеса в поиске счастья, которым помогают их домашние любимцы-собаки. Проблемы на работе и в личной жизни? Оказывается, псам всё по зубам!-- --Страна: США
Студия: LD Entertainment
Продолжительность: 01:53:05
Перевод: Профессиональный многоголосый | iTunes--Качество: BDRemux 1080p
Видео: MPEG-4 AVC, 1920x1080, 20.0 Mbit/s, 23.976 fps
Аудио #01: 48 kHz, AC3, 5.1, 384 Kbps | iTunes | RUS |
Аудио #02: 48 kHz, DTS-HD MA, 5.1, 3157 Kbps | Оригинал | ENG |
Субтитры: Русские (Full), английские--

Скриншоты

         

Тех.данные видеофайла

General
Unique ID : 853963492207068566459193486435498234 (0xA477A69DA5C401C5D2F5820AC138FA)
Complete name : D:\Video111\Dog.Days.2018.BDREMUX.1080p.seleZen.mkv
Format : Matroska
Format version : Version 4
File size : 18.6 GiB
Duration : 1 h 53 min
Overall bit rate mode : Variable
Overall bit rate : 23.5 Mb/s
Movie name : Dog Days 2018 from селезень
Encoded date : UTC 2019-09-13 22:35:11
Writing application : mkvmerge v22.0.0 ('At The End Of The World') 64-bit
Writing library : libebml v1.3.5 + libmatroska v1.4.8
Video
ID : 1
Format : AVC
Format/Info : Advanced Video Codec
Format profile : [email protected]
Format settings : CABAC / 4 Ref Frames
Format settings, CABAC : Yes
Format settings, Reference : 4 frames
Codec ID : V_MPEG4/ISO/AVC
Duration : 1 h 53 min
Bit rate mode : Variable
Bit rate : 20.0 Mb/s
Maximum bit rate : 35.0 Mb/s
Width : 1 920 pixels
Height : 1 080 pixels
Display aspect ratio : 16:9
Frame rate mode : Constant
Frame rate : 23.976 (24000/1001) FPS
Standard : NTSC
Color space : YUV
Chroma subsampling : 4:2:0
Bit depth : 8 bits
Scan type : Progressive
Bits/(Pixel*Frame) : 0.402
Stream size : 15.8 GiB (85%)
Language : English
Default : Yes
Forced : No
Color range : Limited
Color primaries : BT.709
Transfer characteristics : BT.709
Matrix coefficients : BT.709
Audio #1
ID : 2
Format : AC-3
Format/Info : Audio Coding 3
Commercial name : Dolby Digital
Codec ID : A_AC3
Duration : 1 h 53 min
Bit rate mode : Constant
Bit rate : 384 kb/s
Channel(s) : 6 channels
Channel layout : L R C LFE Ls Rs
Sampling rate : 48.0 kHz
Frame rate : 31.250 FPS (1536 SPF)
Bit depth : 16 bits
Compression mode : Lossy
Stream size : 311 MiB (2%)
Title : iTunes
Language : Russian
Service kind : Complete Main
Default : Yes
Forced : Yes
Audio #2
ID : 3
Format : DTS XLL
Format/Info : Digital Theater Systems
Commercial name : DTS-HD Master Audio
Codec ID : A_DTS
Duration : 1 h 53 min
Bit rate mode : Variable
Bit rate : 3 157 kb/s
Channel(s) : 6 channels
Channel layout : C L R Ls Rs LFE
Sampling rate : 48.0 kHz
Frame rate : 93.750 FPS (512 SPF)
Bit depth : 24 bits
Compression mode : Lossless
Stream size : 2.49 GiB (13%)
Title : Original
Language : English
Default : No
Forced : No
Text #1
ID : 4
Format : UTF-8
Codec ID : S_TEXT/UTF8
Codec ID/Info : UTF-8 Plain Text
Duration : 1 h 52 min
Bit rate : 117 b/s
Count of elements : 1988
Stream size : 97.0 KiB (0%)
Title : Full
Language : Russian
Default : No
Forced : No
Text #2
ID : 5
Format : UTF-8
Codec ID : S_TEXT/UTF8
Codec ID/Info : UTF-8 Plain Text
Duration : 1 h 52 min
Bit rate : 104 b/s
Count of elements : 2472
Stream size : 86.3 KiB (0%)
Title : Full
Language : English
Default : No
Forced : No
Menu
00:00:00.000 : en:Chapter 1
00:09:05.211 : en:Chapter 2
00:18:35.406 : en:Chapter 3
00:26:43.060 : en:Chapter 4
00:37:27.370 : en:Chapter 5
00:46:41.090 : en:Chapter 6
00:55:18.607 : en:Chapter 7
01:05:39.644 : en:Chapter 8
01:14:10.071 : en:Chapter 9
01:23:10.819 : en:Chapter 10
01:33:17.759 : en:Chapter 11
01:44:43.110 : en:Chapter 12

Орлов Владимир

Post 14-Sep-2019 05:02

[Quote]

--Собачьи дни / Dog Days (Кен Марино) [2018, Драма, комедия, BDRip 1080p] [MVO] [iTunes]-- Информация о фильме
Название: Собачьи дни
Оригинальное название: Dog Days
Год выхода: 2018
Жанр: Драма, комедия
Режиссер: Кен Марино--В ролях: Нина Добрев, Ванесса Энн Хадженс, Тони Белл, Ева Лонгория, Роб Кордри, Адам Палли, Райан Хансен, Джессика Ст. Клер, Томас Леннон, Жасмин Сепас Джонс--О фильме: История о нескольких жителях Лос-Анжелеса в поиске счастья, которым помогают их домашние любимцы-собаки. Проблемы на работе и в личной жизни? Оказывается, псам всё по зубам!-- --Страна: США
Студия: LD Entertainment
Продолжительность: 01:53:05
Перевод: Профессиональный многоголосый iTunes--Качество: BDRip 1080p
Видео: MPEG-4 AVC, 1920x800, 8143 Kbit/s, 23.976 fps
Аудио #01: 48 kHz, AC3, 5.1, 384 Kbps | iTunes | RUS |
Аудио #02: 48 kHz, AC3, 5.1, 640 Kbps | Оригинал | ENG |
Субтитры: Русские (Full), английские--

Скриншоты

         

Тех.данные видеофайла

General
Unique ID: 199435106000820694887791929416395890510 (0x9609CDE40AE0DE2C007CE21274B19F4E)
Complete name: D:\Video111\Dog.Days.2018.BDRip.1080p.seleZen.mkv
Format: Matroska
Format version: Version 4
File size: 7.24 GiB
Duration: 1 h 53 min
Overall bit rate: 9 164 kb/s
Movie name: Dog Days 2018 from селезень
Encoded date: UTC 2019-09-13 22:09:53
Writing application: mkvmerge v22.0.0 ('At The End Of The World') 64-bit
Writing library: libebml v1.3.5 + libmatroska v1.4.8
Video
ID: 1
Format: AVC
Format/Info: Advanced Video Codec
Format profile: [email protected]
Format settings: CABAC / 5 Ref Frames
Format settings, CABAC: Yes
Format settings, Reference: 5 frames
Codec ID: V_MPEG4/ISO/AVC
Duration: 1 h 53 min
Bit rate: 8 143 kb/s
Width: 1 920 pixels
Height: 800 pixels
Display aspect ratio: 2.40:1
Frame rate mode: Constant
Frame rate: 23.976 (24000/1001) FPS
Color space: YUV
Chroma subsampling: 4:2:0
Bit depth: 8 bits
Scan type: Progressive
Bits/(Pixel*Frame): 0.221
Stream size: 6.43 GiB (89%)
Title: Encoded by seleZen
Writing library: x264 core 148 r2705kMod 3f5ed56
Encoding settings: cabac=1 / ref=5 / deblock=1:-2:-2 / analyse=0x3:0x113 / me=umh / subme=11 / psy=1 / fade_compensate=0.00 / psy_rd=1.00:0.00 / mixed_ref=1 / me_range=32 / chroma_me=1 / trellis=2 / 8x8dct=1 / cqm=0 / deadzone=21,11 / fast_pskip=0 / chroma_qp_offset=-2 / threads=24 / lookahead_threads=6 / sliced_threads=0 / nr=0 / decimate=0 / interlaced=0 / bluray_compat=0 / constrained_intra=0 / fgo=0 / bframes=10 / b_pyramid=2 / b_adapt=2 / b_bias=0 / direct=3 / weightb=1 / open_gop=0 / weightp=2 / keyint=240 / keyint_min=23 / scenecut=40 / intra_refresh=0 / rc_lookahead=50 / rc=2pass / mbtree=0 / bitrate=8143 / ratetol=1.0 / qcomp=0.60 / qpmin=0 / qpmax=51 / qpstep=4 / cplxblur=20.0 / qblur=0.5 / vbv_maxrate=50000 / vbv_bufsize=62500 / nal_hrd=none / filler=0 / ip_ratio=1.40 / pb_ratio=1.30 / aq=3:0.80
Language: English
Default: Yes
Forced: No
Audio #1
ID: 2
Format: AC-3
Format/Info: Audio Coding 3
Commercial name: Dolby Digital
Codec ID: A_AC3
Duration: 1 h 53 min
Bit rate mode: Constant
Bit rate: 384 kb/s
Channel(s): 6 channels
Channel layout: L R C LFE Ls Rs
Sampling rate: 48.0 kHz
Frame rate: 31.250 FPS (1536 SPF)
Bit depth: 16 bits
Compression mode: Lossy
Stream size: 311 MiB (4%)
Title: iTunes
Language: Russian
Service kind: Complete Main
Default: Yes
Forced: Yes
Audio #2
ID: 3
Format: AC-3
Format/Info: Audio Coding 3
Commercial name: Dolby Digital
Codec ID: A_AC3
Duration: 1 h 53 min
Bit rate mode: Constant
Bit rate: 640 kb/s
Channel(s): 6 channels
Channel layout: L R C LFE Ls Rs
Sampling rate: 48.0 kHz
Frame rate: 31.250 FPS (1536 SPF)
Bit depth: 16 bits
Compression mode: Lossy
Stream size: 517 MiB (7%)
Title: Original
Language: English
Service kind: Complete Main
Default: No
Forced: No
Text #1
ID: 4
Format: UTF-8
Codec ID: S_TEXT/UTF8
Codec ID/Info: UTF-8 Plain Text
Duration: 1 h 52 min
Bit rate: 117 b/s
Count of elements: 1988
Stream size: 97.0 KiB (0%)
Title: Full
Language: Russian
Default: No
Forced: No
Text #2
ID: 5
Format: UTF-8
Codec ID: S_TEXT/UTF8
Codec ID/Info: UTF-8 Plain Text
Duration: 1 h 52 min
Bit rate: 104 b/s
Count of elements: 2472
Stream size: 86.3 KiB (0%)
Title: Full
Language: English
Default: No
Forced: No
Menu
00:00:00.000: en:Chapter 1
00:09:05.211: en:Chapter 2
00:18:35.406: en:Chapter 3
00:26:43.060: en:Chapter 4
00:37:27.370: en:Chapter 5
00:46:41.090: en:Chapter 6
00:55:18.607: en:Chapter 7
01:05:39.644: en:Chapter 8
01:14:10.071: en:Chapter 9
01:23:10.819: en:Chapter 10
01:33:17.759: en:Chapter 11
01:44:43.110: en:Chapter 12

Орлов Владимир

Post 13-Sep-2019 17:35

[Quote]

--Некромант / Nekrotronic ( Кия Роуч-Тернер) [2018, ужасы, фантастика, комедия, BDRip 720p] [DUB] [iTunes]-- Информация о фильме
Год выпуска: 2018
Жанр: ужасы, фантастика, комедия
Страна: Австралия
Режиссёр: Кия Роуч-Тернер
Перевод: Дублированный [iTunes]
Субтитры: Английские
Продолжительность: 01:27:49-- В ролях: Бен О Тул, Моника Беллуччи, Боб Савеа, Дэвид Бимиш, Чармэйн Бингва, Уилльям Чун, Майкл Дункан, Кэролайн Форд, Аллира Гибсон, Роберт Грин-- Описание: Однажды, зависнув в сети, обычный парень осознает, что он - член таинственной организации некромантов, один из охотников на демонов, овладевающих душами людей через смартфоны.-- --Файлы
Качество: BDRip 720p
Формат: MKV
Видео: MPEG-4 AVC, 1280x536, 5327 Kbit/s, 23.976 fps
Аудио: 48 kHz, AC3, 5.1, 384 Kbps | iTunes | RUS
Аудио 2: 48 kHz, AC3, 5.1, 640 Kbps | Оригинал | ENG

Скриншоты

         

Тех.данные видеофайла

General
Unique ID: 32147099804472697591907530435381138839 (0x182F4E6408230ACCF847DA58313B9597)
Complete name: D:\Video111\Nekrotronic.2018.BDRip.720p.seleZen.mkv
Format: Matroska
Format version: Version 4
File size: 4.28 GiB
Duration: 1 h 36 min
Overall bit rate: 6 332 kb/s
Movie name: Nekrotronic 2018 from селезень
Encoded date: UTC 2019-09-13 13:08:22
Writing application: mkvmerge v22.0.0 ('At The End Of The World') 64-bit
Writing library: libebml v1.3.5 + libmatroska v1.4.8
Video
ID: 1
Format: AVC
Format/Info: Advanced Video Codec
Format profile: [email protected]
Format settings: CABAC / 12 Ref Frames
Format settings, CABAC: Yes
Format settings, Reference: 12 frames
Codec ID: V_MPEG4/ISO/AVC
Duration: 1 h 36 min
Bit rate: 5 327 kb/s
Width: 1 280 pixels
Height: 536 pixels
Display aspect ratio: 2.40:1
Frame rate mode: Constant
Frame rate: 23.976 (24000/1001) FPS
Color space: YUV
Chroma subsampling: 4:2:0
Bit depth: 8 bits
Scan type: Progressive
Bits/(Pixel*Frame): 0.324
Stream size: 3.58 GiB (84%)
Title: Encoded by seleZen
Writing library: x264 core 148 r2705kMod 3f5ed56
Encoding settings: cabac=1 / ref=12 / deblock=1:-2:-2 / analyse=0x3:0x113 / me=umh / subme=11 / psy=1 / fade_compensate=0.00 / psy_rd=1.00:0.00 / mixed_ref=1 / me_range=32 / chroma_me=1 / trellis=2 / 8x8dct=1 / cqm=0 / deadzone=21,11 / fast_pskip=0 / chroma_qp_offset=-2 / threads=17 / lookahead_threads=4 / sliced_threads=0 / nr=0 / decimate=0 / interlaced=0 / bluray_compat=0 / constrained_intra=0 / fgo=0 / bframes=10 / b_pyramid=2 / b_adapt=2 / b_bias=0 / direct=3 / weightb=1 / open_gop=0 / weightp=2 / keyint=240 / keyint_min=23 / scenecut=40 / intra_refresh=0 / rc_lookahead=50 / rc=2pass / mbtree=0 / bitrate=5327 / ratetol=1.0 / qcomp=0.60 / qpmin=0 / qpmax=51 / qpstep=4 / cplxblur=20.0 / qblur=0.5 / vbv_maxrate=50000 / vbv_bufsize=62500 / nal_hrd=none / filler=0 / ip_ratio=1.40 / pb_ratio=1.30 / aq=3:0.80
Language: English
Default: Yes
Forced: No
Audio #1
ID: 2
Format: AC-3
Format/Info: Audio Coding 3
Commercial name: Dolby Digital
Codec ID: A_AC3
Duration: 1 h 36 min
Bit rate mode: Constant
Bit rate: 384 kb/s
Channel(s): 6 channels
Channel layout: L R C LFE Ls Rs
Sampling rate: 48.0 kHz
Frame rate: 31.250 FPS (1536 SPF)
Bit depth: 16 bits
Compression mode: Lossy
Stream size: 266 MiB (6%)
Title: iTunes
Language: Russian
Service kind: Complete Main
Default: Yes
Forced: Yes
Audio #2
ID: 3
Format: AC-3
Format/Info: Audio Coding 3
Commercial name: Dolby Digital
Codec ID: A_AC3
Duration: 1 h 36 min
Bit rate mode: Constant
Bit rate: 640 kb/s
Channel(s): 6 channels
Channel layout: L R C LFE Ls Rs
Sampling rate: 48.0 kHz
Frame rate: 31.250 FPS (1536 SPF)
Bit depth: 16 bits
Compression mode: Lossy
Stream size: 443 MiB (10%)
Title: Original
Language: English
Service kind: Complete Main
Default: No
Forced: No
Text #1
ID: 4
Format: UTF-8
Codec ID: S_TEXT/UTF8
Codec ID/Info: UTF-8 Plain Text
Duration: 1 h 30 min
Bit rate: 39 b/s
Count of elements: 997
Stream size: 26.6 KiB (0%)
Title: Full
Language: English
Default: No
Forced: No
Text #2
ID: 5
Format: UTF-8
Codec ID: S_TEXT/UTF8
Codec ID/Info: UTF-8 Plain Text
Duration: 1 h 31 min
Bit rate: 49 b/s
Count of elements: 1330
Stream size: 32.8 KiB (0%)
Title: SDH
Language: English
Default: No
Forced: No
Menu
00:00:00.000: en:00:00:00.000
00:05:02.427: en:00:05:02.427
00:09:52.675: en:00:09:52.675
00:17:47.692: en:00:17:47.692
00:25:40.873: en:00:25:40.873
00:33:46.399: en:00:33:46.399
00:38:33.186: en:00:38:33.186
00:42:50.526: en:00:42:50.526
00:47:39.732: en:00:47:39.732
00:55:36.750: en:00:55:36.750
00:59:54.466: en:00:59:54.466
01:03:45.071: en:01:03:45.071
01:11:30.077: en:01:11:30.077
01:17:15.756: en:01:17:15.756
01:22:25.065: en:01:22:25.065
01:31:23.603: en:01:31:23.603

Орлов Владимир

Post 13-Sep-2019 14:39

[Quote]

согласен..

Орлов Владимир

Post 13-Sep-2019 14:35

[Quote]

--Дылда / Tall Girl (Зинга Стюарт ) [2019, Комедия , WEBRip 1080p] [DUB] [Пифагор]-- Информация о фильме
Название: Дылда
Оригинальное название: Tall Girl
Год выхода: 2019
Жанр: Комедия
Режиссер: Зинга Стюарт--В ролях: Ава Мишель, Сабрина Карпентер, Анджела Кинси, Пэрис Берелс, Люк Эйснер, Стив Зан, Гриффин Глюк, Кэнди Брукс, Эми Ле, Conway Solomon и др.--О фильме: Джоди, самая высокая девушка в школе, всегда чувствовала себя неловко в собственной шкуре. Но после многих лет насмешек и избегания внимания любой ценой, Джоди, наконец, решает обрести уверенность в себе.-- --Страна: США
Студия: Wonderland Sound and Vision
Продолжительность: 01:42:43
Перевод: Дублированный | Пифагор по заказу Netflix--Файл
Качество: WEBRip 1080p | Tall.Girl.2019.1080p.NF.WEBRip.DDP5.1.x264-CM
Видео: MPEG-4 AVC, 1920x1080, 3830 kbps, 23,976 fps
Звук#1: русский, EAC3, 5.1 ch, 48 kHz, 640 kbps
Звук#2: русский, AC3, 5.1 ch, 48 kHz, 448 kbps
Звук#3: английский, EAC3, 5.1 ch, 48 kHz, 640 kbps
Субтитры: русские (форс., полные), английские (SDH)
--

Тех.данные видеофайла

Общее
Уникальный идентификатор: 251572812674934339056063558056134924037 (0xBD43294BC59C4573919B2F68C0495705)
Полное имя: G:Torrent2TallGirlWEBRip1080p.mkv
Формат: Matroska
Версия формата: Version 4 / Version 2
Размер файла: 3,95 Гбайт
Продолжительность: 1 ч. 42 м.
Режим общего битрейта: Переменный
Общий поток: 5510 Кбит/сек
Название фильма: CMRG
Дата кодирования: UTC 2019-09-13 08:53:52
Программа кодирования: mkvmerge v9.5.0 ('Quiet Fire') 64bit
Библиотека кодирования: libebml v1.3.4 + libmatroska v1.4.5
Видео
Идентификатор: 1
Формат: AVC
Формат/Информация: Advanced Video Codec
Профиль формата: [email protected]
Настройки формата: CABAC / 3 Ref Frames
Параметр CABAC формата: Да
Параметр RefFrames формата: 3 кадра
Идентификатор кодека: V_MPEG4/ISO/AVC
Продолжительность: 1 ч. 42 м.
Вид битрейта: Переменный
Битрейт: 3830 Кбит/сек
Максимальный битрейт: 5745 Кбит/сек
Ширина: 1920 пикселей
Высота: 1080 пикселей
Соотношение сторон: 16:9
Режим частоты кадров: Постоянный
Частота кадров: 23,976 (24000/1001) кадра/сек
Цветовое пространство: YUV
Субдискретизация насыщенности: 4:2:0
Битовая глубина: 8 бит
Тип развёртки: Прогрессивная
Бит/(Пиксели*Кадры): 0.077
Размер потока: 2,71 Гбайт (69%)
Библиотека кодирования: x264 core 148 r2715 7e75228
Настройки программы: cabac=1 / ref=3 / deblock=1:0:0 / analyse=0x1:0x111 / me=umh / subme=10 / psy=1 / psy_rd=1.00:0.00 / mixed_ref=1 / me_range=24 / chroma_me=1 / trellis=2 / 8x8dct=0 / cqm=0 / deadzone=21,11 / fast_pskip=1 / chroma_qp_offset=-2 / threads=8 / lookahead_threads=1 / sliced_threads=0 / nr=0 / decimate=1 / interlaced=0 / bluray_compat=0 / stitchable=1 / constrained_intra=0 / bframes=2 / b_pyramid=0 / b_adapt=2 / b_bias=0 / direct=3 / weightb=1 / open_gop=0 / weightp=2 / keyint=250 / keyint_min=23 / scenecut=0 / intra_refresh=0 / rc_lookahead=48 / rc=2pass / mbtree=1 / bitrate=3830 / ratetol=1.0 / qcomp=0.50 / qpmin=6 / qpmax=51 / qpstep=4 / cplxblur=20.0 / qblur=0.5 / vbv_maxrate=5745 / vbv_bufsize=7660 / nal_hrd=vbr / filler=0 / ip_ratio=1.40 / aq=1:1.00
Язык: English
Default: Да
Forced: Нет
Аудио #1
Идентификатор: 2
Формат: E-AC-3
Формат/Информация: Enhanced Audio Coding 3
Параметр Endianness формата: Big
Идентификатор кодека: A_EAC3
Продолжительность: 1 ч. 42 м.
Вид битрейта: Постоянный
Битрейт: 640 Кбит/сек
Каналы: 6 каналов
Расположение каналов: Front: L C R, Side: L R, LFE
Частота: 48,0 КГц
Частота кадров: 187,500 кадров/сек (256 SPF)
Метод сжатия: С потерями
Размер потока: 470 Мбайт (12%)
Заголовок: rus
Язык: Russian
Default: Да
Forced: Нет
Аудио #2
Идентификатор: 3
Формат: AC-3
Формат/Информация: Audio Coding 3
Параметр Endianness формата: Big
Идентификатор кодека: A_AC3
Продолжительность: 1 ч. 42 м.
Вид битрейта: Постоянный
Битрейт: 448 Кбит/сек
Каналы: 6 каналов
Расположение каналов: Front: L C R, Side: L R, LFE
Частота: 48,0 КГц
Частота кадров: 31,250 кадров/сек (1536 SPF)
Битовая глубина: 16 бит
Метод сжатия: С потерями
Размер потока: 329 Мбайт (8%)
Заголовок: rus2
Язык: Russian
Default: Нет
Forced: Нет
Аудио #3
Идентификатор: 4
Формат: E-AC-3
Формат/Информация: Enhanced Audio Coding 3
Параметр Endianness формата: Big
Идентификатор кодека: A_EAC3
Продолжительность: 1 ч. 42 м.
Вид битрейта: Постоянный
Битрейт: 640 Кбит/сек
Каналы: 6 каналов
Расположение каналов: Front: L C R, Side: L R, LFE
Частота: 48,0 КГц
Частота кадров: 187,500 кадров/сек (256 SPF)
Метод сжатия: С потерями
Размер потока: 470 Мбайт (12%)
Заголовок: eng
Язык: English
Default: Нет
Forced: Нет
Текст #1
Идентификатор: 5
Формат: UTF-8
Идентификатор кодека: S_TEXT/UTF8
Идентификатор кодека/Информация: UTF-8 Plain Text
Продолжительность: 1 ч. 23 м.
Битрейт: 2 бит/сек
ElementCount: 31
Размер потока: 1,48 Кбайт (0%)
Заголовок: rusForced
Язык: Russian
Default: Да
Forced: Да
Текст #2
Идентификатор: 6
Формат: UTF-8
Идентификатор кодека: S_TEXT/UTF8
Идентификатор кодека/Информация: UTF-8 Plain Text
Продолжительность: 1 ч. 40 м.
Битрейт: 100 бит/сек
ElementCount: 1494
Размер потока: 74,2 Кбайт (0%)
Заголовок: rusFull
Язык: Russian
Default: Нет
Forced: Нет
Текст #3
Идентификатор: 7
Формат: UTF-8
Идентификатор кодека: S_TEXT/UTF8
Идентификатор кодека/Информация: UTF-8 Plain Text
Продолжительность: 1 ч. 40 м.
Битрейт: 88 бит/сек
ElementCount: 1846
Размер потока: 65,1 Кбайт (0%)
Заголовок: engSDH
Язык: English
Default: Нет
Forced: Нет

Скриншоты

               

Орлов Владимир

Post 13-Sep-2019 14:06

[Quote]

--Некромант / Nekrotronic ( Кия Роуч-Тернер) [2018, ужасы, фантастика, комедия, BDRemux 1080p] [DUB] [iTunes]-- Информация о фильме
Название: Некромант
Оригинальное название: Nekrotronic
Год выхода: 2018
Жанр: Ужасы, фантастика, комедия
Режиссер: Кия Роуч-Тернер--В ролях: Бен О'Тул, Моника Беллуччи, Боб Савеа, Дэвид Бимиш, Чармэйн Бингва, Уилльям Чун, Майкл Дункан, Кэролайн Форд, Аллира Гибсон, Роберт Грин--О фильме: Однажды, зависнув в сети, обычный парень осознает, что он - член таинственной организации некромантов, один из охотников на демонов, овладевающих душами людей через смартфоны.-- --Страна: Австралия
Студия: Guerilla Films, Hopscotch Features
Продолжительность: 01:36:43
Перевод: Дублированный iTunes--Качество: BDRemux 1080p
Видео: MPEG-4 AVC, 1920x1080, 30.0 Mbit/s, 23.976 fps
Аудио #01: 48 kHz, AC3, 5.1, 384 Kbps | iTunes | RUS |
Аудио #02: 48 kHz, DTS-HD MA, 5.1, 2078 Kbps | Оригинал | ENG |
Субтитры: Английские
--

Скриншоты

         

Тех.данные видеофайла

General
Unique ID: 54977266117594132430457650543421843950 (0x295C3C7EA85A53FD434BB1AEA66469EE)
Complete name: D:\Video111\Nekrotronic.2018.BDREMUX.1080p.seleZen.mkv
Format: Matroska
Format version: Version 4
File size: 21.9 GiB
Duration: 1 h 36 min
Overall bit rate mode: Variable
Overall bit rate: 32.5 Mb/s
Movie name: Nekrotronic 2018 from селезень
Encoded date: UTC 2019-09-13 06:20:39
Writing application: mkvmerge v22.0.0 ('At The End Of The World') 64-bit
Writing library: libebml v1.3.5 + libmatroska v1.4.8
Video
ID: 1
Format: AVC
Format/Info: Advanced Video Codec
Format profile: [email protected]
Format settings: CABAC / 4 Ref Frames
Format settings, CABAC: Yes
Format settings, Reference: 4 frames
Format settings, GOP: M=3, N=24
Codec ID: V_MPEG4/ISO/AVC
Duration: 1 h 36 min
Bit rate mode: Variable
Bit rate: 30.0 Mb/s
Maximum bit rate: 35.0 Mb/s
Width: 1 920 pixels
Height: 1 080 pixels
Display aspect ratio: 16:9
Frame rate mode: Constant
Frame rate: 23.976 (24000/1001) FPS
Standard: NTSC
Color space: YUV
Chroma subsampling: 4:2:0
Bit depth: 8 bits
Scan type: Progressive
Bits/(Pixel*Frame): 0.603
Stream size: 20.3 GiB (92%)
Language: English
Default: Yes
Forced: No
Color range: Limited
Color primaries: BT.709
Transfer characteristics: BT.709
Matrix coefficients: BT.709
Audio #1
ID: 2
Format: AC-3
Format/Info: Audio Coding 3
Commercial name: Dolby Digital
Codec ID: A_AC3
Duration: 1 h 36 min
Bit rate mode: Constant
Bit rate: 384 kb/s
Channel(s): 6 channels
Channel layout: L R C LFE Ls Rs
Sampling rate: 48.0 kHz
Frame rate: 31.250 FPS (1536 SPF)
Bit depth: 16 bits
Compression mode: Lossy
Stream size: 266 MiB (1%)
Title: iTunes
Language: Russian
Service kind: Complete Main
Default: Yes
Forced: Yes
Audio #2
ID: 3
Format: DTS XLL
Format/Info: Digital Theater Systems
Commercial name: DTS-HD Master Audio
Codec ID: A_DTS
Duration: 1 h 36 min
Bit rate mode: Variable
Bit rate: 2 078 kb/s
Channel(s): 6 channels
Channel layout: C L R Ls Rs LFE
Sampling rate: 48.0 kHz
Frame rate: 93.750 FPS (512 SPF)
Bit depth: 16 bits
Compression mode: Lossless
Stream size: 1.40 GiB (6%)
Title: Original
Language: English
Default: No
Forced: No
Text #1
ID: 4
Format: UTF-8
Codec ID: S_TEXT/UTF8
Codec ID/Info: UTF-8 Plain Text
Duration: 1 h 30 min
Bit rate: 39 b/s
Count of elements: 997
Stream size: 26.6 KiB (0%)
Title: Full
Language: English
Default: No
Forced: No
Text #2
ID: 5
Format: UTF-8
Codec ID: S_TEXT/UTF8
Codec ID/Info: UTF-8 Plain Text
Duration: 1 h 31 min
Bit rate: 49 b/s
Count of elements: 1330
Stream size: 32.8 KiB (0%)
Title: SDH
Language: English
Default: No
Forced: No
Menu
00:00:00.000: en:00:00:00.000
00:05:02.427: en:00:05:02.427
00:09:52.675: en:00:09:52.675
00:17:47.692: en:00:17:47.692
00:25:40.873: en:00:25:40.873
00:33:46.399: en:00:33:46.399
00:38:33.186: en:00:38:33.186
00:42:50.526: en:00:42:50.526
00:47:39.732: en:00:47:39.732
00:55:36.750: en:00:55:36.750
00:59:54.466: en:00:59:54.466
01:03:45.071: en:01:03:45.071
01:11:30.077: en:01:11:30.077
01:17:15.756: en:01:17:15.756
01:22:25.065: en:01:22:25.065
01:31:23.603: en:01:31:23.603

Орлов Владимир

Post 13-Sep-2019 14:03

[Quote]

--Некромант / Nekrotronic ( Кия Роуч-Тернер) [2018, ужасы, фантастика, комедия, BDRip 1080p] [DUB] [iTunes]-- Информация о фильме
Название: Некромант
Оригинальное название: Nekrotronic
Год выхода: 2018
Жанр: Ужасы, фантастика, комедия
Режиссер: Кия Роуч-Тернер--В ролях: Бен О'Тул, Моника Беллуччи, Боб Савеа, Дэвид Бимиш, Чармэйн Бингва, Уилльям Чун, Майкл Дункан, Кэролайн Форд, Аллира Гибсон, Роберт Грин--О фильме: Однажды, зависнув в сети, обычный парень осознает, что он - член таинственной организации некромантов, один из охотников на демонов, овладевающих душами людей через смартфоны.-- --Страна: Австралия
Студия: Guerilla Films, Hopscotch Features
Продолжительность: 01:36:43
Перевод: Дублированный | iTunes--Качество: BDRip 1080p
Видео: MPEG-4 AVC, 1920x804, 11.2 Mbit/s, 23.976 fps
Аудио #01: 48 kHz, AC3, 5.1, 384 Kbps | iTunes | RUS |
Аудио #02: 48 kHz, AC3, 5.1, 640 Kbps | Оригинал | ENG |
Субтитры: Английские--

Скриншоты

         

Тех.данные видеофайла

General
Unique ID: 183116840087396363497479444882618528656 (0x89C30543B88B5676A2FCA0D127DF3390)
Complete name: D:\Video111\Nekrotronic.2018.BDRip.1080p.seleZen.mkv
Format: Matroska
Format version: Version 4
File size: 8.25 GiB
Duration: 1 h 36 min
Overall bit rate: 12.2 Mb/s
Movie name: Nekrotronic 2018 from селезень
Encoded date: UTC 2019-09-13 09:59:56
Writing application: mkvmerge v22.0.0 ('At The End Of The World') 64-bit
Writing library: libebml v1.3.5 + libmatroska v1.4.8
Video
ID: 1
Format: AVC
Format/Info: Advanced Video Codec
Format profile: [email protected]
Format settings: CABAC / 5 Ref Frames
Format settings, CABAC: Yes
Format settings, Reference: 5 frames
Codec ID: V_MPEG4/ISO/AVC
Duration: 1 h 36 min
Bit rate: 11.2 Mb/s
Width: 1 920 pixels
Height: 804 pixels
Display aspect ratio: 2.40:1
Frame rate mode: Constant
Frame rate: 23.976 (24000/1001) FPS
Color space: YUV
Chroma subsampling: 4:2:0
Bit depth: 8 bits
Scan type: Progressive
Bits/(Pixel*Frame): 0.303
Stream size: 7.56 GiB (92%)
Title: Encoded by seleZen
Writing library: x264 core 148 r2705kMod 3f5ed56
Encoding settings: cabac=1 / ref=5 / deblock=1:-2:-2 / analyse=0x3:0x113 / me=umh / subme=11 / psy=1 / fade_compensate=0.00 / psy_rd=1.00:0.00 / mixed_ref=1 / me_range=32 / chroma_me=1 / trellis=2 / 8x8dct=1 / cqm=0 / deadzone=21,11 / fast_pskip=0 / chroma_qp_offset=-2 / threads=24 / lookahead_threads=6 / sliced_threads=0 / nr=0 / decimate=0 / interlaced=0 / bluray_compat=0 / constrained_intra=0 / fgo=0 / bframes=10 / b_pyramid=2 / b_adapt=2 / b_bias=0 / direct=3 / weightb=1 / open_gop=0 / weightp=2 / keyint=240 / keyint_min=23 / scenecut=40 / intra_refresh=0 / rc_lookahead=50 / rc=2pass / mbtree=0 / bitrate=11200 / ratetol=1.0 / qcomp=0.60 / qpmin=0 / qpmax=51 / qpstep=4 / cplxblur=20.0 / qblur=0.5 / vbv_maxrate=50000 / vbv_bufsize=62500 / nal_hrd=none / filler=0 / ip_ratio=1.40 / pb_ratio=1.30 / aq=3:0.80
Language: English
Default: Yes
Forced: No
Audio #1
ID: 2
Format: AC-3
Format/Info: Audio Coding 3
Commercial name: Dolby Digital
Codec ID: A_AC3
Duration: 1 h 36 min
Bit rate mode: Constant
Bit rate: 384 kb/s
Channel(s): 6 channels
Channel layout: L R C LFE Ls Rs
Sampling rate: 48.0 kHz
Frame rate: 31.250 FPS (1536 SPF)
Bit depth: 16 bits
Compression mode: Lossy
Stream size: 266 MiB (3%)
Title: iTunes
Language: Russian
Service kind: Complete Main
Default: Yes
Forced: Yes
Audio #2
ID: 3
Format: AC-3
Format/Info: Audio Coding 3
Commercial name: Dolby Digital
Codec ID: A_AC3
Duration: 1 h 36 min
Bit rate mode: Constant
Bit rate: 640 kb/s
Channel(s): 6 channels
Channel layout: L R C LFE Ls Rs
Sampling rate: 48.0 kHz
Frame rate: 31.250 FPS (1536 SPF)
Bit depth: 16 bits
Compression mode: Lossy
Stream size: 443 MiB (5%)
Title: Original
Language: English
Service kind: Complete Main
Default: No
Forced: No
Text #1
ID: 4
Format: UTF-8
Codec ID: S_TEXT/UTF8
Codec ID/Info: UTF-8 Plain Text
Duration: 1 h 30 min
Bit rate: 39 b/s
Count of elements: 997
Stream size: 26.6 KiB (0%)
Title: Full
Language: English
Default: No
Forced: No
Text #2
ID: 5
Format: UTF-8
Codec ID: S_TEXT/UTF8
Codec ID/Info: UTF-8 Plain Text
Duration: 1 h 31 min
Bit rate: 49 b/s
Count of elements: 1330
Stream size: 32.8 KiB (0%)
Title: SDH
Language: English
Default: No
Forced: No
Menu
00:00:00.000: en:00:00:00.000
00:05:02.427: en:00:05:02.427
00:09:52.675: en:00:09:52.675
00:17:47.692: en:00:17:47.692
00:25:40.873: en:00:25:40.873
00:33:46.399: en:00:33:46.399
00:38:33.186: en:00:38:33.186
00:42:50.526: en:00:42:50.526
00:47:39.732: en:00:47:39.732
00:55:36.750: en:00:55:36.750
00:59:54.466: en:00:59:54.466
01:03:45.071: en:01:03:45.071
01:11:30.077: en:01:11:30.077
01:17:15.756: en:01:17:15.756
01:22:25.065: en:01:22:25.065
01:31:23.603: en:01:31:23.603
 

The time now is: Today 23:17

All times are GMT + 3 Hours