Today is a free download without charge Download

Search found 500 matches

Author Message

Theseus

Post 31-Jul-2020 13:24

[Quote]

Захар Беркут | The Rising Hawk- Год выхода: 2019
Страна: Украина, США
Жанр: боевик, драма, история
Продолжительность: 01:43:44
Перевод Профессиональный (многоголосый, закадровый) | HDRezka Studio
Субтитры: Русские (форс.)-Режиссер: Ахтем Сейтаблаев, Джон Винн-В ролях: Элисон Дуди, Томми Флэнаган, Роберт Патрик, Поппи Дрейтон, Алекс МакНиколл, Роки Майерс, Oliver Trevena, Алина Коваленко, Олег Волощенко, Виктор Жданов-О фильме: 1241 год. Монгольская орда во главе с ханом Бурундой движется на запад, истребляя все на своём пути и захватывая пленных. Дойдя до высоких Карпатских гор, войско останавливается у подножия. Ночью несколько местных охотников, братья Беркуты, тайком пробираются в лагерь и освобождают пленных. Узнав об этом, Бурунда приходит в ярость и решает отомстить, уничтожив местные поселения. Для этого он находит предателя среди местных, который открывает ему тайный проход в горах. Однако у горских охотников под предводительством Захара Беркута есть свой план, как раз и навсегда остановить врага.- -Качество: WEB-DL 1080p
Формат: MKV
Видео кодек: x.264
Аудио кодек: AC3
Видео: AVC, 1912x796 (2.40:1), 25.000 fps, 4 449 kb/s
Аудио 1: AC-3, 48.0 kHz, 6 ch, 384 kb/s | RUS
Аудио 2: AC-3, 48.0 kHz, 6 ch, 384 kb/s | ENG-Рекламы нет-Сэмпл-

MI

Код:
Общее
Уникальный идентификатор                 : 194099526705646397487597352110980446716 (0x9206358570955743B7E821DED82DB9FC)
Полное имя                               : The.Rising.Hawk.2019.MVO.1080p.WEB-DL.ExKinoRay.mkv
Формат                                   : Matroska
Версия формата                           : Version 2
Размер файла                             : 3,86 Гбайт
Продолжительность                        : 1 ч. 43 м.
Общий поток                              : 5323 Кбит/сек
Название фильма                          : The Rising Hawk 2019 from ExKinoRay
Дата кодирования                         : UTC 2020-07-30 20:21:08
Программа кодирования                    : mkvmerge v5.6.0 ('Kenya Kane') built on May 27 2012 16:44:04
Библиотека кодирования                   : libebml v1.2.3 + libmatroska v1.3.0
Видео
Идентификатор                            : 1
Формат                                   : AVC
Формат/Информация                        : Advanced Video Codec
Профиль формата                          : [email protected]
Настройки формата                        : CABAC / 5 Ref Frames
Параметр CABAC формата                   : Да
Параметр RefFrames формата               : 5 кадров
Идентификатор кодека                     : V_MPEG4/ISO/AVC
Продолжительность                        : 1 ч. 43 м.
Битрейт                                  : 4449 Кбит/сек
Ширина                                   : 1912 пикселей
Высота                                   : 796 пикселей
Соотношение сторон                       : 2,40:1
Режим частоты кадров                     : Постоянный
Частота кадров                           : 25,000 кадров/сек
Цветовое пространство                    : YUV
Субдискретизация насыщенности            : 4:2:0
Битовая глубина                          : 8 бит
Тип развёртки                            : Прогрессивная
Бит/(Пиксели*Кадры)                      : 0.117
Размер потока                            : 3,22 Гбайт (84%)
Default                                  : Да
Forced                                   : Нет
Цветовой диапазон                        : Limited
Основные цвета                           : BT.709
Характеристики трансфера                 : BT.709
Коэффициенты матрицы                     : BT.709
Аудио #1
Идентификатор                            : 2
Формат                                   : AC-3
Формат/Информация                        : Audio Coding 3
Коммерческое название                    : Dolby Digital
Идентификатор кодека                     : A_AC3
Продолжительность                        : 1 ч. 43 м.
Вид битрейта                             : Постоянный
Битрейт                                  : 384 Кбит/сек
Каналы                                   : 6 каналов
Channel layout                           : L R C LFE Ls Rs
Частота                                  : 48,0 КГц
Частота кадров                           : 31,250 кадров/сек (1536 SPF)
Битовая глубина                          : 16 бит
Метод сжатия                             : С потерями
Размер потока                            : 285 Мбайт (7%)
Заголовок                                : MVO (HDRezka Studio)
Язык                                     : Russian
ServiceKind/String                       : Complete Main
Default                                  : Да
Forced                                   : Нет
Аудио #2
Идентификатор                            : 3
Формат                                   : AC-3
Формат/Информация                        : Audio Coding 3
Коммерческое название                    : Dolby Digital
Идентификатор кодека                     : A_AC3
Продолжительность                        : 1 ч. 43 м.
Вид битрейта                             : Постоянный
Битрейт                                  : 384 Кбит/сек
Каналы                                   : 6 каналов
Channel layout                           : L R C LFE Ls Rs
Частота                                  : 48,0 КГц
Частота кадров                           : 31,250 кадров/сек (1536 SPF)
Битовая глубина                          : 16 бит
Метод сжатия                             : С потерями
Размер потока                            : 285 Мбайт (7%)
Язык                                     : English
ServiceKind/String                       : Complete Main
Default                                  : Нет
Forced                                   : Нет
Текст
Идентификатор                            : 4
Формат                                   : UTF-8
Идентификатор кодека                     : S_TEXT/UTF8
Идентификатор кодека/Информация          : UTF-8 Plain Text
Заголовок                                : Forced
Язык                                     : Russian
Default                                  : Да
Forced                                   : Нет
Меню
00:00:00.000                             : en:Capítulo 1
00:10:10.200                             : en:Capítulo 2
00:20:25.920                             : en:Capítulo 3
00:30:14.240                             : en:Capítulo 4
00:41:09.720                             : en:Capítulo 5
00:51:01.720                             : en:Capítulo 6
01:02:40.359                             : en:Capítulo 7
01:11:11.158                             : en:Capítulo 8
01:21:37.717                             : en:Capítulo 9
01:30:49.437                             : en:Capítulo 10

Official Teaser Trailer

-    - -

Kon912

Post 02-Jun-2020 11:39

[Quote]

Квин и Слим / Queen & Slim- Год выхода: 2019
Страна: Канада, США
Студия: BRON Studios, 3Blackdot, Creative Wealth Media Finance
Жанр: Драма
Продолжительность: 02:12:23
Перевод: Дублированный | Лицензия-Режиссер:
Мелина Матсукас-В ролях:
Дэниэл Калуя, Джоди Тёрнер-Смит, Боким Вудбайн, Клоэ Севиньи, Фли, Стерджил Симпсон, Индия Мур, Бенито Мартинес, Джахи Диалло Уинстон, Грэйлен Брайант Бэнкс-О фильме:
Однажды, двое абсолютных незнакомцев, познакомившись в социальных сетях, наконец, устраивают встречу в реале. Но, первое свидание для девушки и парня заканчивается не совсем удачно. Поначалу они ужинают в хорошем ресторане, а после часа приятного времяпровождения в компании друг дружки, решают прокатиться по безлюдным улочкам вечернего города. Не успев выехать на основную трассу, они замечают за машиной хвост. Какой-то полицейский с мигалками останавливает их и на обочине объясняет, что те нарушили законодательство, и совершили жуткое преступление — угон автомобиля.- -Качество: BDRemux 1080p
Формат: MKV
Видео: MPEG-4 AVC, 1920x1080, 30.4 Mbit/s, 23.976 fps
Аудио #01: 48 kHz, AC3, 5.1, 640 Kbps | Лицензия | RUS |
Аудио #02: 48 kHz, TrueHD, 7.1, 3466 Kbps | Оригинал | ENG |
Аудио #03: 48 kHz, AC3, 5.1, 448 Kbps | Оригинал | ENG |
Субтитры: Русские (Forced, full), английские-

Скриншоты

       

MI

General
Unique ID : 24979022014787984001404621982794565875 (0x12CAC8DEB09FE35BF56BAD8A322CC8F3)
Complete name : E:Video111Queen.and.Slim.2019.BDREMUX.1080p.seleZen.mkv
Format : Matroska
Format version : Version 4
File size : 32.4 GiB
Duration : 2 h 12 min
Overall bit rate mode : Variable
Overall bit rate : 35.0 Mb/s
Movie name : Queen & Slim 2019 from селезень
Encoded date : UTC 2020-06-02 05:58:59
Writing application : mkvmerge v40.0.0 ('Old Town Road + Pony') 64-bit
Writing library : libebml v1.3.9 + libmatroska v1.5.2
Video
ID : 1
Format : AVC
Format/Info : Advanced Video Codec
Format profile : [email protected]
Format settings : CABAC / 4 Ref Frames
Format settings, CABAC : Yes
Format settings, Reference : 4 frames
Codec ID : V_MPEG4/ISO/AVC
Duration : 2 h 12 min
Bit rate mode : Variable
Bit rate : 30.4 Mb/s
Maximum bit rate : 33.9 Mb/s
Width : 1 920 pixels
Height : 1 080 pixels
Display aspect ratio : 16:9
Frame rate mode : Constant
Frame rate : 23.976 (24000/1001) FPS
Color space : YUV
Chroma subsampling : 4:2:0
Bit depth : 8 bits
Scan type : Progressive
Bits/(Pixel*Frame) : 0.612
Stream size : 28.1 GiB (87%)
Language : English
Default : Yes
Forced : No
Audio #1
ID : 2
Format : AC-3
Format/Info : Audio Coding 3
Commercial name : Dolby Digital
Codec ID : A_AC3
Duration : 2 h 12 min
Bit rate mode : Constant
Bit rate : 640 kb/s
Channel(s) : 6 channels
Channel layout : L R C LFE Ls Rs
Sampling rate : 48.0 kHz
Frame rate : 31.250 FPS (1536 SPF)
Compression mode : Lossy
Stream size : 606 MiB (2%)
Title : Dub [License]
Language : Russian
Service kind : Complete Main
Default : Yes
Forced : Yes
Audio #2
ID : 3
Format : MLP FBA 16-ch
Format/Info : Meridian Lossless Packing FBA with 16-channel presentation
Commercial name : Dolby TrueHD with Dolby Atmos
Codec ID : A_TRUEHD
Duration : 2 h 12 min
Bit rate mode : Variable
Bit rate : 3 466 kb/s
Maximum bit rate : 6 375 kb/s
Channel(s) : 8 channels
Channel layout : L R C LFE Ls Rs Lb Rb
Sampling rate : 48.0 kHz
Frame rate : 1 200.000 FPS (40 SPF)
Compression mode : Lossless
Stream size : 3.21 GiB (10%)
Title : Original
Language : English
Default : No
Forced : No
Number of dynamic objects : 11
Bed channel count : 1 channel
Bed channel configuration : LFE
Audio #3
ID : 4
Format : AC-3
Format/Info : Audio Coding 3
Commercial name : Dolby Digital
Codec ID : A_AC3
Duration : 2 h 12 min
Bit rate mode : Constant
Bit rate : 448 kb/s
Channel(s) : 6 channels
Channel layout : L R C LFE Ls Rs
Sampling rate : 48.0 kHz
Frame rate : 31.250 FPS (1536 SPF)
Compression mode : Lossy
Stream size : 424 MiB (1%)
Language : English
Service kind : Complete Main
Default : No
Forced : No
Text #1
ID : 5
Format : UTF-8
Codec ID : S_TEXT/UTF8
Codec ID/Info : UTF-8 Plain Text
Duration : 2 h 6 min
Bit rate : 0 b/s
Count of elements : 16
Stream size : 662 Bytes (0%)
Title : Forced [Blu-Ray EUR]
Language : Russian
Default : Yes
Forced : Yes
Text #2
ID : 6
Format : UTF-8
Codec ID : S_TEXT/UTF8
Codec ID/Info : UTF-8 Plain Text
Duration : 2 h 11 min
Bit rate : 62 b/s
Count of elements : 1393
Stream size : 60.2 KiB (0%)
Title : Full [Blu-Ray EUR]
Language : Russian
Default : No
Forced : No
Text #3
ID : 7
Format : UTF-8
Codec ID : S_TEXT/UTF8
Codec ID/Info : UTF-8 Plain Text
Duration : 2 h 10 min
Bit rate : 53 b/s
Count of elements : 1594
Stream size : 50.9 KiB (0%)
Title : Full
Language : English
Default : No
Forced : No
Text #4
ID : 8
Format : UTF-8
Codec ID : S_TEXT/UTF8
Codec ID/Info : UTF-8 Plain Text
Duration : 2 h 10 min
Bit rate : 59 b/s
Count of elements : 1819
Stream size : 56.8 KiB (0%)
Title : SDH
Language : English
Default : No
Forced : No
Menu
00:00:00.000 : en:Chapter 01
00:05:46.763 : en:Chapter 02
00:14:20.109 : en:Chapter 03
00:18:58.637 : en:Chapter 04
00:24:56.662 : en:Chapter 05
00:31:21.880 : en:Chapter 06
00:36:06.039 : en:Chapter 07
00:41:30.822 : en:Chapter 08
00:50:09.924 : en:Chapter 09
00:58:42.102 : en:Chapter 10
01:05:56.703 : en:Chapter 11
01:11:14.520 : en:Chapter 12
01:16:44.725 : en:Chapter 13
01:23:59.826 : en:Chapter 14
01:28:45.612 : en:Chapter 15
01:34:28.830 : en:Chapter 16
01:42:10.291 : en:Chapter 17
01:50:00.469 : en:Chapter 18
01:56:02.247 : en:Chapter 19
02:04:41.140 : en:Chapter 20
-Релиз от:

Kon912

Post 02-Jun-2020 11:36

[Quote]

Квин и Слим / Queen & Slim- Год выхода: 2019
Страна: Канада, США
Студия: BRON Studios, 3Blackdot, Creative Wealth Media Finance
Жанр: Драма
Продолжительность: 02:12:23
Перевод: Дублированный | Лицензия-Режиссер:
Мелина Матсукас-В ролях:
Дэниэл Калуя, Джоди Тёрнер-Смит, Боким Вудбайн, Клоэ Севиньи, Фли, Стерджил Симпсон, Индия Мур, Бенито Мартинес, Джахи Диалло Уинстон, Грэйлен Брайант Бэнкс-О фильме:
Однажды, двое абсолютных незнакомцев, познакомившись в социальных сетях, наконец, устраивают встречу в реале. Но, первое свидание для девушки и парня заканчивается не совсем удачно. Поначалу они ужинают в хорошем ресторане, а после часа приятного времяпровождения в компании друг дружки, решают прокатиться по безлюдным улочкам вечернего города. Не успев выехать на основную трассу, они замечают за машиной хвост. Какой-то полицейский с мигалками останавливает их и на обочине объясняет, что те нарушили законодательство, и совершили жуткое преступление — угон автомобиля.- -Качество: BDRip 1080p
Формат: MKV
Видео: MPEG-4 AVC, 1920x804, 9472 Kbit/s, 23.976 fps
Аудио #01: 48 kHz, AC3, 5.1, 640 Kbps | Лицензия | RUS |
Аудио #02: 48 kHz, AC3, 5.1, 448 Kbps | Оригинал | ENG |
Субтитры: Русские (Forced, full), английские-

Скриншоты

       

MI

General
Unique ID : 321806929487369155939501194742401346076 (0xF219C29B3A9300ADCAF2BFBBE7CC2A1C)
Complete name : E:Video111Queen.and.Slim.2019.BDRip.1080p.seleZen.mkv
Format : Matroska
Format version : Version 4
File size : 9.77 GiB
Duration : 2 h 12 min
Overall bit rate : 10.6 Mb/s
Movie name : Queen & Slim 2019 from селезень
Encoded date : UTC 2020-06-02 06:51:00
Writing application : mkvmerge v40.0.0 ('Old Town Road + Pony') 64-bit
Writing library : libebml v1.3.9 + libmatroska v1.5.2
Video
ID : 1
Format : AVC
Format/Info : Advanced Video Codec
Format profile : [email protected]
Format settings : CABAC / 5 Ref Frames
Format settings, CABAC : Yes
Format settings, Reference : 5 frames
Codec ID : V_MPEG4/ISO/AVC
Duration : 2 h 12 min
Bit rate : 9 472 kb/s
Width : 1 920 pixels
Height : 804 pixels
Display aspect ratio : 2.40:1
Frame rate mode : Constant
Frame rate : 23.976 (24000/1001) FPS
Color space : YUV
Chroma subsampling : 4:2:0
Bit depth : 8 bits
Scan type : Progressive
Bits/(Pixel*Frame) : 0.256
Stream size : 8.76 GiB (90%)
Writing library : x264 core 158 r2984+49 6932f4a t_mod_New [[email protected] X86_64]
Encoding settings : cabac=1 / ref=5 / deblock=1:-3:-3 / analyse=0x3:0x133 / me=umh / subme=10 / psy=1 / fade_compensate=0.00 / psy_rd=1.00:0.00 / mixed_ref=1 / me_range=32 / chroma_me=1 / trellis=2 / 8x8dct=1 / cqm=0 / deadzone=21,11 / fast_pskip=0 / chroma_qp_offset=-2 / threads=16 / lookahead_threads=4 / sliced_threads=0 / nr=0 / decimate=0 / interlaced=0 / bluray_compat=0 / constrained_intra=0 / fgo=0 / bframes=12 / b_pyramid=2 / b_adapt=2 / b_bias=0 / direct=3 / weightb=1 / open_gop=0 / weightp=2 / keyint=480 / keyint_min=24 / scenecut=40 / intra_refresh=0 / rc_lookahead=80 / rc=crf / mbtree=0 / crf=18.0000 / qcomp=0.60 / qpmin=0:0:0 / qpmax=69:69:69 / qpstep=4 / vbv_maxrate=62500 / vbv_bufsize=78125 / crf_max=0.0 / nal_hrd=none / filler=0 / ip_ratio=1.30 / pb_ratio=1.20 / aq=3:0.80 / aq-sensitivity=10.00 / aq-factor=1.00:1.00:1.00 / aq2=0 / aq3=0
Language : English
Default : Yes
Forced : No
Color range : Limited
Color primaries : BT.709
Transfer characteristics : BT.709
Matrix coefficients : BT.709
Audio #1
ID : 2
Format : AC-3
Format/Info : Audio Coding 3
Commercial name : Dolby Digital
Codec ID : A_AC3
Duration : 2 h 12 min
Bit rate mode : Constant
Bit rate : 640 kb/s
Channel(s) : 6 channels
Channel layout : L R C LFE Ls Rs
Sampling rate : 48.0 kHz
Frame rate : 31.250 FPS (1536 SPF)
Compression mode : Lossy
Stream size : 606 MiB (6%)
Title : Dub [License]
Language : Russian
Service kind : Complete Main
Default : Yes
Forced : Yes
Audio #2
ID : 3
Format : AC-3
Format/Info : Audio Coding 3
Commercial name : Dolby Digital
Codec ID : A_AC3
Duration : 2 h 12 min
Bit rate mode : Constant
Bit rate : 448 kb/s
Channel(s) : 6 channels
Channel layout : L R C LFE Ls Rs
Sampling rate : 48.0 kHz
Frame rate : 31.250 FPS (1536 SPF)
Compression mode : Lossy
Stream size : 424 MiB (4%)
Title : Original
Language : English
Service kind : Complete Main
Default : No
Forced : No
Text #1
ID : 4
Format : UTF-8
Codec ID : S_TEXT/UTF8
Codec ID/Info : UTF-8 Plain Text
Duration : 2 h 6 min
Bit rate : 0 b/s
Count of elements : 16
Stream size : 662 Bytes (0%)
Title : Forced [Blu-Ray EUR]
Language : Russian
Default : Yes
Forced : Yes
Text #2
ID : 5
Format : UTF-8
Codec ID : S_TEXT/UTF8
Codec ID/Info : UTF-8 Plain Text
Duration : 2 h 11 min
Bit rate : 62 b/s
Count of elements : 1393
Stream size : 60.2 KiB (0%)
Title : Full [Blu-Ray EUR]
Language : Russian
Default : No
Forced : No
Text #3
ID : 6
Format : UTF-8
Codec ID : S_TEXT/UTF8
Codec ID/Info : UTF-8 Plain Text
Duration : 2 h 10 min
Bit rate : 53 b/s
Count of elements : 1594
Stream size : 50.9 KiB (0%)
Title : Full
Language : English
Default : No
Forced : No
Text #4
ID : 7
Format : UTF-8
Codec ID : S_TEXT/UTF8
Codec ID/Info : UTF-8 Plain Text
Duration : 2 h 10 min
Bit rate : 59 b/s
Count of elements : 1819
Stream size : 56.8 KiB (0%)
Title : SDH
Language : English
Default : No
Forced : No
Menu
00:00:00.000 : en:Chapter 01
00:05:46.763 : en:Chapter 02
00:14:20.109 : en:Chapter 03
00:18:58.637 : en:Chapter 04
00:24:56.662 : en:Chapter 05
00:31:21.880 : en:Chapter 06
00:36:06.039 : en:Chapter 07
00:41:30.822 : en:Chapter 08
00:50:09.924 : en:Chapter 09
00:58:42.102 : en:Chapter 10
01:05:56.703 : en:Chapter 11
01:11:14.520 : en:Chapter 12
01:16:44.725 : en:Chapter 13
01:23:59.826 : en:Chapter 14
01:28:45.612 : en:Chapter 15
01:34:28.830 : en:Chapter 16
01:42:10.291 : en:Chapter 17
01:50:00.469 : en:Chapter 18
01:56:02.247 : en:Chapter 19
02:04:41.140 : en:Chapter 20
-Релиз от:

Kon912

Post 02-Jun-2020 11:33

[Quote]

Квин и Слим / Queen & Slim- Год выхода: 2019
Страна: Канада, США
Студия: BRON Studios, 3Blackdot, Creative Wealth Media Finance
Жанр: Драма
Продолжительность: 02:12:23
Перевод: Дублированный | Лицензия-Режиссер:
Мелина Матсукас-В ролях:
Дэниэл Калуя, Джоди Тёрнер-Смит, Боким Вудбайн, Клоэ Севиньи, Фли, Стерджил Симпсон, Индия Мур, Бенито Мартинес, Джахи Диалло Уинстон, Грэйлен Брайант Бэнкс-О фильме:
Однажды, двое абсолютных незнакомцев, познакомившись в социальных сетях, наконец, устраивают встречу в реале. Но, первое свидание для девушки и парня заканчивается не совсем удачно. Поначалу они ужинают в хорошем ресторане, а после часа приятного времяпровождения в компании друг дружки, решают прокатиться по безлюдным улочкам вечернего города. Не успев выехать на основную трассу, они замечают за машиной хвост. Какой-то полицейский с мигалками останавливает их и на обочине объясняет, что те нарушили законодательство, и совершили жуткое преступление — угон автомобиля.- -Качество: BDRip 720p
Формат: MKV
Видео: MPEG-4 AVC, 1280x536, 3887 Kbit/s, 23.976 fps
Аудио #01: 48 kHz, AC3, 5.1, 640 Kbps | Лицензия | RUS |
Аудио #02: 48 kHz, AC3, 5.1, 448 Kbps | Оригинал | ENG |
Субтитры: Русские (Forced, full), английские-

Скриншоты

       

MI

General
Unique ID : 67050383758392207146087549724246307586 (0x32716F26D53E71A19CF69A46584A7302)
Complete name : E:Video111Queen.and.Slim.2019.BDRip.720p.seleZen.mkv
Format : Matroska
Format version : Version 4
File size : 4.60 GiB
Duration : 2 h 12 min
Overall bit rate : 4 977 kb/s
Movie name : Queen & Slim 2019 from селезень
Encoded date : UTC 2020-06-02 07:25:35
Writing application : mkvmerge v40.0.0 ('Old Town Road + Pony') 64-bit
Writing library : libebml v1.3.9 + libmatroska v1.5.2
Video
ID : 1
Format : AVC
Format/Info : Advanced Video Codec
Format profile : [email protected]
Format settings : CABAC / 12 Ref Frames
Format settings, CABAC : Yes
Format settings, Reference : 12 frames
Codec ID : V_MPEG4/ISO/AVC
Duration : 2 h 12 min
Bit rate : 3 887 kb/s
Width : 1 280 pixels
Height : 536 pixels
Display aspect ratio : 2.40:1
Frame rate mode : Constant
Frame rate : 23.976 (24000/1001) FPS
Color space : YUV
Chroma subsampling : 4:2:0
Bit depth : 8 bits
Scan type : Progressive
Bits/(Pixel*Frame) : 0.236
Stream size : 3.59 GiB (78%)
Writing library : x264 core 142 r2431+42 c69a006 tMod [[email protected]:2:0 X86_64]
Encoding settings : cabac=1 / ref=12 / deblock=1:-3:-3 / analyse=0x3:0x113 / me=umh / subme=10 / psy=1 / fade_compensate=0.00 / psy_rd=1.00:0.05 / mixed_ref=1 / me_range=32 / chroma_me=1 / trellis=2 / 8x8dct=1 / cqm=0 / deadzone=21,11 / fast_pskip=0 / chroma_qp_offset=-2 / threads=48 / lookahead_threads=4 / sliced_threads=0 / nr=0 / decimate=1 / interlaced=0 / bluray_compat=0 / constrained_intra=0 / fgo=0 / bframes=8 / b_pyramid=2 / b_adapt=2 / b_bias=0 / direct=3 / weightb=1 / open_gop=0 / weightp=2 / keyint=250 / keyint_min=23 / scenecut=40 / intra_refresh=0 / rc=crf / mbtree=0 / crf=16.8000 / qcomp=0.60 / qpmin=0:0:0 / qpmax=69:69:69 / qpstep=4 / ip_ratio=1.40 / pb_ratio=1.30 / aq=3:0.80 / aq-sensitivity=10.00 / aq-factor=1.00:1.00:1.00 / aq2=0 / aq3=0
Language : English
Default : Yes
Forced : No
Color range : Limited
Matrix coefficients : BT.709
Audio #1
ID : 2
Format : AC-3
Format/Info : Audio Coding 3
Commercial name : Dolby Digital
Codec ID : A_AC3
Duration : 2 h 12 min
Bit rate mode : Constant
Bit rate : 640 kb/s
Channel(s) : 6 channels
Channel layout : L R C LFE Ls Rs
Sampling rate : 48.0 kHz
Frame rate : 31.250 FPS (1536 SPF)
Compression mode : Lossy
Stream size : 606 MiB (13%)
Title : Dub [License]
Language : Russian
Service kind : Complete Main
Default : Yes
Forced : Yes
Audio #2
ID : 3
Format : AC-3
Format/Info : Audio Coding 3
Commercial name : Dolby Digital
Codec ID : A_AC3
Duration : 2 h 12 min
Bit rate mode : Constant
Bit rate : 448 kb/s
Channel(s) : 6 channels
Channel layout : L R C LFE Ls Rs
Sampling rate : 48.0 kHz
Frame rate : 31.250 FPS (1536 SPF)
Compression mode : Lossy
Stream size : 424 MiB (9%)
Title : Original
Language : English
Service kind : Complete Main
Default : No
Forced : No
Text #1
ID : 4
Format : UTF-8
Codec ID : S_TEXT/UTF8
Codec ID/Info : UTF-8 Plain Text
Duration : 2 h 6 min
Bit rate : 0 b/s
Count of elements : 16
Stream size : 662 Bytes (0%)
Title : Forced [Blu-Ray EUR]
Language : Russian
Default : Yes
Forced : Yes
Text #2
ID : 5
Format : UTF-8
Codec ID : S_TEXT/UTF8
Codec ID/Info : UTF-8 Plain Text
Duration : 2 h 11 min
Bit rate : 62 b/s
Count of elements : 1393
Stream size : 60.2 KiB (0%)
Title : Full [Blu-Ray EUR]
Language : Russian
Default : No
Forced : No
Text #3
ID : 6
Format : UTF-8
Codec ID : S_TEXT/UTF8
Codec ID/Info : UTF-8 Plain Text
Duration : 2 h 10 min
Bit rate : 53 b/s
Count of elements : 1594
Stream size : 50.9 KiB (0%)
Title : Full
Language : English
Default : No
Forced : No
Text #4
ID : 7
Format : UTF-8
Codec ID : S_TEXT/UTF8
Codec ID/Info : UTF-8 Plain Text
Duration : 2 h 10 min
Bit rate : 59 b/s
Count of elements : 1819
Stream size : 56.8 KiB (0%)
Title : SDH
Language : English
Default : No
Forced : No
Menu
00:00:00.000 : en:Chapter 01
00:05:46.763 : en:Chapter 02
00:14:20.109 : en:Chapter 03
00:18:58.637 : en:Chapter 04
00:24:56.662 : en:Chapter 05
00:31:21.880 : en:Chapter 06
00:36:06.039 : en:Chapter 07
00:41:30.822 : en:Chapter 08
00:50:09.924 : en:Chapter 09
00:58:42.102 : en:Chapter 10
01:05:56.703 : en:Chapter 11
01:11:14.520 : en:Chapter 12
01:16:44.725 : en:Chapter 13
01:23:59.826 : en:Chapter 14
01:28:45.612 : en:Chapter 15
01:34:28.830 : en:Chapter 16
01:42:10.291 : en:Chapter 17
01:50:00.469 : en:Chapter 18
01:56:02.247 : en:Chapter 19
02:04:41.140 : en:Chapter 20
-Релиз от:

Kon912

Post 02-Jun-2020 00:00

[Quote]

Бог грома / Mortal- Год выпуска: 2020
Страна: Норвегия, США, Великобритания
Жанр: фэнтези, боевик, приключения
Продолжительность: 01:43:58
Перевод: Дублированный | iTunes-
Режиссер:
Андре Овредал-В ролях:
Нат Вулф, Приянка Бозе, Ибен М. Акерлие, Артур Хакалахти, Оддрун Валестранд, Равдип Сингх Баджва, Аня Нова, Суннива Линд Ховерстад, Пер Фриш, Нико Русаков-Описание:
Повелевать стихией, обращать в пепел прикосновением и заставлять всё живое трепетать от страха — удел языческих богов. Но что произойдет, когда планета столкнется с одним из них во плоти? Ведь этот древний Бог всего лишь человек.- | -Качество: WEB-DL 1080p
Формат: MKV
Кодек: MPEG-4 AVC
Видео: 1920x806, ~ 4 488 kb/s, 8 bits, 24.000 FPS
Аудио #1 (русский): AC-3, 384 kb/s, 6 ch (L R C LFE Ls Rs), 48.0 kHz
Субтитры: отсутствуют
Навигация по главам: есть-

Скриншоты

       

MediaInfo

General
Unique ID : 281191437487404568449377926729894382197 (0xD38B803EAAD9B33907B6AB3EFBDECA75)
Complete name : [KORSARS]_Mortal.2020.WEBDL.1080p.iTunes.mkv
Format : Matroska
Format version : Version 4
File size : 3.54 GiB
Duration : 1 h 43 min
Overall bit rate : 4 874 kb/s
Movie name : [KORSARS]_Mortal.2020.WEBDL.1080p.iTunes
Encoded date : UTC 2020-06-01 18:29:52
Writing application : mkvmerge v47.0.0 ('Black Flag') 64-bit
Writing library : libebml v1.3.10 + libmatroska v1.5.2
Video
ID : 1
Format : AVC
Format/Info : Advanced Video Codec
Format profile : [email protected]
Format settings : CABAC / 5 Ref Frames
Format settings, CABAC : Yes
Format settings, Reference : 5 frames
Format settings, GOP : N=1
Codec ID : V_MPEG4/ISO/AVC
Duration : 1 h 43 min
Bit rate : 4 488 kb/s
Width : 1 920 pixels
Height : 806 pixels
Display aspect ratio : 2.40:1
Frame rate mode : Constant
Frame rate : 24.000 FPS
Color space : YUV
Chroma subsampling : 4:2:0
Bit depth : 8 bits
Scan type : Progressive
Bits/(Pixel*Frame) : 0.121
Stream size : 3.26 GiB (92%)
Language : English
Default : Yes
Forced : No
Color range : Limited
Color primaries : BT.709
Transfer characteristics : BT.709
Matrix coefficients : BT.709
Audio
ID : 2
Format : AC-3
Format/Info : Audio Coding 3
Commercial name : Dolby Digital
Codec ID : A_AC3
Duration : 1 h 43 min
Bit rate mode : Constant
Bit rate : 384 kb/s
Channel(s) : 6 channels
Channel layout : L R C LFE Ls Rs
Sampling rate : 48.0 kHz
Frame rate : 31.250 FPS (1536 SPF)
Compression mode : Lossy
Delay relative to video : -42 ms
Stream size : 286 MiB (8%)
Language : Russian
Service kind : Complete Main
Default : Yes
Forced : No
Menu
00:00:00.000 : ru:Глава 1
00:08:32.707 : ru:Глава 2
00:11:07.248 : ru:Глава 3
00:19:53.830 : ru:Глава 4
00:26:12.580 : ru:Глава 5
00:34:42.746 : ru:Глава 6
00:41:34.829 : ru:Глава 7
00:49:08.870 : ru:Глава 8
00:56:04.245 : ru:Глава 9
01:04:20.995 : ru:Глава 10
01:09:20.036 : ru:Глава 11
01:17:58.077 : ru:Глава 12
01:23:49.868 : ru:Глава 13
01:29:09.200 : ru:Глава 14
01:36:50.700 : ru:Глава 15
-

Kon912

Post 31-May-2020 16:04

[Quote]

Прощай / Adios-
Год выхода: 2019
Страна: Испания
Студия: Apache Films, Claqueta, La, Instituto de la Cinematografia y de las Artes Audiovisuales
Жанр: Триллер, драма
Продолжительность: 01:54:36
Перевод: Дублированный | iTunes-Режиссер:
Пако Кабесас-В ролях:
Марио Касас, Наталия де Молина, Рут Диас, Карлос Бардем, Висенте Ромеро, Паулина Феной, Маурисио Моралес, Себастьян Аро, Мона Мартинес, Пилар Гомес-О фильме:
Вышедший на свободу мошенник начинает мстить за убийство своей дочери, которая погибла в автокатастрофе в день первого причастия.- -Качество: BDRemux 1080p
Формат: MKV
Видео: MPEG-4 AVC, 1920x1080, 28.0 Mbit/s, 24.000 fps
Аудио #01: 48 kHz, AC3, 5.1, 384 Kbps | iTunes | RUS |
Аудио #02: 48 kHz, DTS-HD MA, 5.1, 3616 Kbps | Оригинал | SPA |
Субтитры: Нет-

Скриншоты

     

MI

General
Unique ID : 16057347915558666904529007936204291752 (0xC14886031A0E67322CD637B7431BEA8)
Complete name : E:Video111BackupAdiós.2019.BDREMUX.1080p.seleZen.mkv
Format : Matroska
Format version : Version 4
File size : 25.6 GiB
Duration : 1 h 54 min
Overall bit rate mode : Variable
Overall bit rate : 32.0 Mb/s
Movie name : Adiós 2019 from селезень
Encoded date : UTC 2020-05-31 12:28:44
Writing application : mkvmerge v40.0.0 ('Old Town Road + Pony') 64-bit
Writing library : libebml v1.3.9 + libmatroska v1.5.2
Video
ID : 1
Format : AVC
Format/Info : Advanced Video Codec
Format profile : [email protected]
Format settings : CABAC / 4 Ref Frames
Format settings, CABAC : Yes
Format settings, Reference : 4 frames
Codec ID : V_MPEG4/ISO/AVC
Duration : 1 h 54 min
Bit rate mode : Variable
Bit rate : 28.0 Mb/s
Maximum bit rate : 36.0 Mb/s
Width : 1 920 pixels
Height : 1 080 pixels
Display aspect ratio : 16:9
Frame rate mode : Constant
Frame rate : 24.000 FPS
Standard : NTSC
Color space : YUV
Chroma subsampling : 4:2:0
Bit depth : 8 bits
Scan type : Progressive
Bits/(Pixel*Frame) : 0.562
Stream size : 22.4 GiB (87%)
Language : Spanish
Default : Yes
Forced : No
Color range : Limited
Color primaries : BT.709
Transfer characteristics : BT.709
Matrix coefficients : BT.709
Audio #1
ID : 2
Format : AC-3
Format/Info : Audio Coding 3
Commercial name : Dolby Digital
Codec ID : A_AC3
Duration : 1 h 54 min
Bit rate mode : Constant
Bit rate : 384 kb/s
Channel(s) : 6 channels
Channel layout : L R C LFE Ls Rs
Sampling rate : 48.0 kHz
Frame rate : 31.250 FPS (1536 SPF)
Compression mode : Lossy
Stream size : 315 MiB (1%)
Title : iTunes
Language : Russian
Service kind : Complete Main
Default : Yes
Forced : Yes
Audio #2
ID : 3
Format : DTS XLL
Format/Info : Digital Theater Systems
Commercial name : DTS-HD Master Audio
Codec ID : A_DTS
Duration : 1 h 54 min
Bit rate mode : Variable
Bit rate : 3 616 kb/s
Channel(s) : 6 channels
Channel layout : C L R Ls Rs LFE
Sampling rate : 48.0 kHz
Frame rate : 93.750 FPS (512 SPF)
Bit depth : 24 bits
Compression mode : Lossless
Stream size : 2.90 GiB (11%)
Title : Original
Language : Spanish
Default : No
Forced : No
Menu
00:00:00.000 : en:Chapter 01
00:10:29.375 : en:Chapter 02
00:18:31.167 : en:Chapter 03
00:29:25.542 : en:Chapter 04
00:38:19.958 : en:Chapter 05
00:46:50.750 : en:Chapter 06
00:56:34.083 : en:Chapter 07
01:08:54.333 : en:Chapter 08
01:16:37.792 : en:Chapter 09
01:26:49.208 : en:Chapter 10
01:35:55.542 : en:Chapter 11
01:49:35.500 : en:Chapter 12

Релиз от:

Kon912

Post 31-May-2020 16:04

[Quote]

Прощай / Adios-
Год выхода: 2019
Страна: Испания
Студия: Apache Films, Claqueta, La, Instituto de la Cinematografia y de las Artes Audiovisuales
Жанр: Триллер, драма
Продолжительность: 01:54:36
Перевод: Дублированный | iTunes-Режиссер:
Пако Кабесас-В ролях:
Марио Касас, Наталия де Молина, Рут Диас, Карлос Бардем, Висенте Ромеро, Паулина Феной, Маурисио Моралес, Себастьян Аро, Мона Мартинес, Пилар Гомес-О фильме:
Вышедший на свободу мошенник начинает мстить за убийство своей дочери, которая погибла в автокатастрофе в день первого причастия.- -Качество: BDRip 1080p
Формат: MKV
Видео: MPEG-4 AVC, 1920x804, 10.8 Mbit/s, 23.976 fps
Аудио #01: 48 kHz, AC3, 5.1, 384 Kbps | iTunes | RUS |
Аудио #02: 48 kHz, AC3, 5.1, 640 Kbps | Оригинал | SPA |
Субтитры: Нет-

Скриншоты

     

MI

General
Unique ID : 281974790911270908886175155805454633983 (0xD4225E8CECA0F89A070F97B8C6108BFF)
Complete name : E:Video111BackupAdiós.2019.BDRip.1080p.seleZen.mkv
Format : Matroska
Format version : Version 4
File size : 9.43 GiB
Duration : 1 h 54 min
Overall bit rate : 11.8 Mb/s
Movie name : Adiós 2019 from селезень
Encoded date : UTC 2020-05-31 12:11:47
Writing application : mkvmerge v40.0.0 ('Old Town Road + Pony') 64-bit
Writing library : libebml v1.3.9 + libmatroska v1.5.2
Video
ID : 1
Format : AVC
Format/Info : Advanced Video Codec
Format profile : [email protected]
Format settings : CABAC / 5 Ref Frames
Format settings, CABAC : Yes
Format settings, Reference : 5 frames
Codec ID : V_MPEG4/ISO/AVC
Duration : 1 h 54 min
Bit rate : 10.8 Mb/s
Width : 1 920 pixels
Height : 804 pixels
Display aspect ratio : 2.40:1
Frame rate mode : Constant
Frame rate : 24.000 FPS
Color space : YUV
Chroma subsampling : 4:2:0
Bit depth : 8 bits
Scan type : Progressive
Bits/(Pixel*Frame) : 0.291
Stream size : 8.61 GiB (91%)
Writing library : x264 core 142 r2431+42 c69a006 tMod [[email protected] X86_64]
Encoding settings : cabac=1 / ref=5 / deblock=1:-2:-2 / analyse=0x3:0x133 / me=umh / subme=10 / psy=1 / fade_compensate=0.00 / psy_rd=1.00:0.00 / mixed_ref=1 / me_range=32 / chroma_me=1 / trellis=2 / 8x8dct=1 / cqm=0 / deadzone=21,11 / fast_pskip=0 / chroma_qp_offset=-2 / threads=24 / lookahead_threads=4 / sliced_threads=0 / nr=0 / decimate=0 / interlaced=0 / bluray_compat=0 / constrained_intra=0 / fgo=0 / bframes=8 / b_pyramid=2 / b_adapt=2 / b_bias=0 / direct=3 / weightb=1 / open_gop=0 / weightp=2 / keyint=240 / keyint_min=24 / scenecut=40 / intra_refresh=0 / rc_lookahead=50 / rc=2pass / mbtree=0 / bitrate=10765 / ratetol=1.0 / qcomp=0.60 / qpmin=0:0:0 / qpmax=51:51:51 / qpstep=4 / cplxblur=20.0 / qblur=0.5 / vbv_maxrate=50000 / vbv_bufsize=62500 / nal_hrd=none / filler=0 / ip_ratio=1.40 / pb_ratio=1.30 / aq=3:0.80 / aq-sensitivity=10.00 / aq-factor=1.00:1.00:1.00 / aq2=0 / aq3=0
Language : Spanish
Default : Yes
Forced : No
Audio #1
ID : 2
Format : AC-3
Format/Info : Audio Coding 3
Commercial name : Dolby Digital
Codec ID : A_AC3
Duration : 1 h 54 min
Bit rate mode : Constant
Bit rate : 384 kb/s
Channel(s) : 6 channels
Channel layout : L R C LFE Ls Rs
Sampling rate : 48.0 kHz
Frame rate : 31.250 FPS (1536 SPF)
Compression mode : Lossy
Stream size : 315 MiB (3%)
Title : iTunes
Language : Russian
Service kind : Complete Main
Default : Yes
Forced : Yes
Audio #2
ID : 3
Format : AC-3
Format/Info : Audio Coding 3
Commercial name : Dolby Digital
Codec ID : A_AC3
Duration : 1 h 54 min
Bit rate mode : Constant
Bit rate : 640 kb/s
Channel(s) : 6 channels
Channel layout : L R C LFE Ls Rs
Sampling rate : 48.0 kHz
Frame rate : 31.250 FPS (1536 SPF)
Compression mode : Lossy
Stream size : 525 MiB (5%)
Title : Original
Language : Spanish
Service kind : Complete Main
Default : No
Forced : No
Menu
00:00:00.000 : en:Chapter 01
00:10:29.375 : en:Chapter 02
00:18:31.167 : en:Chapter 03
00:29:25.542 : en:Chapter 04
00:38:19.958 : en:Chapter 05
00:46:50.750 : en:Chapter 06
00:56:34.083 : en:Chapter 07
01:08:54.333 : en:Chapter 08
01:16:37.792 : en:Chapter 09
01:26:49.208 : en:Chapter 10
01:35:55.542 : en:Chapter 11
01:49:35.500 : en:Chapter 12

Релиз от:

Kon912

Post 31-May-2020 16:02

[Quote]

Прощай / Adios-
Год выхода: 2019
Страна: Испания
Студия: Apache Films, Claqueta, La, Instituto de la Cinematografia y de las Artes Audiovisuales
Жанр: Триллер, драма
Продолжительность: 01:54:36
Перевод: Дублированный | iTunes-Режиссер:
Пако Кабесас-В ролях:
Марио Касас, Наталия де Молина, Рут Диас, Карлос Бардем, Висенте Ромеро, Паулина Феной, Маурисио Моралес, Себастьян Аро, Мона Мартинес, Пилар Гомес-О фильме:
Вышедший на свободу мошенник начинает мстить за убийство своей дочери, которая погибла в автокатастрофе в день первого причастия.- -Качество: BDRip 720p
Формат: MKV
Видео: MPEG-4 AVC, 1280x536, 5327 Кbit/s, 24.000 fps
Аудио #01: 48 kHz, AC3, 5.1, 384 Kbps | iTunes | RUS |
Аудио #02: 48 kHz, AC3, 5.1, 640 Kbps | Оригинал | SPA |
Субтитры: Нет-

Скриншоты

     

MI

General
Unique ID : 245115744053259415209460132551458789822 (0xB867933BCDEE460F9F3B062B984F99BE)
Complete name : E:Video111BackupAdiós.2019.BDRip.720p.seleZen.mkv
Format : Matroska
Format version : Version 4
File size : 5.08 GiB
Duration : 1 h 54 min
Overall bit rate : 6 349 kb/s
Movie name : Adiós 2019 from селезень
Encoded date : UTC 2020-05-31 12:23:05
Writing application : mkvmerge v40.0.0 ('Old Town Road + Pony') 64-bit
Writing library : libebml v1.3.9 + libmatroska v1.5.2
Video
ID : 1
Format : AVC
Format/Info : Advanced Video Codec
Format profile : [email protected]
Format settings : CABAC / 12 Ref Frames
Format settings, CABAC : Yes
Format settings, Reference : 12 frames
Codec ID : V_MPEG4/ISO/AVC
Duration : 1 h 54 min
Bit rate : 5 327 kb/s
Width : 1 280 pixels
Height : 536 pixels
Display aspect ratio : 2.40:1
Frame rate mode : Constant
Frame rate : 24.000 FPS
Color space : YUV
Chroma subsampling : 4:2:0
Bit depth : 8 bits
Scan type : Progressive
Bits/(Pixel*Frame) : 0.324
Stream size : 4.26 GiB (84%)
Writing library : x264 core 142 r2431+42 c69a006 tMod [[email protected] X86_64]
Encoding settings : cabac=1 / ref=12 / deblock=1:-2:-2 / analyse=0x3:0x133 / me=umh / subme=10 / psy=1 / fade_compensate=0.00 / psy_rd=1.00:0.00 / mixed_ref=1 / me_range=32 / chroma_me=1 / trellis=2 / 8x8dct=1 / cqm=0 / deadzone=21,11 / fast_pskip=0 / chroma_qp_offset=-2 / threads=24 / lookahead_threads=4 / sliced_threads=0 / nr=0 / decimate=0 / interlaced=0 / bluray_compat=0 / constrained_intra=0 / fgo=0 / bframes=8 / b_pyramid=2 / b_adapt=2 / b_bias=0 / direct=3 / weightb=1 / open_gop=0 / weightp=2 / keyint=240 / keyint_min=24 / scenecut=40 / intra_refresh=0 / rc_lookahead=50 / rc=2pass / mbtree=0 / bitrate=5327 / ratetol=1.0 / qcomp=0.60 / qpmin=0:0:0 / qpmax=51:51:51 / qpstep=4 / cplxblur=20.0 / qblur=0.5 / vbv_maxrate=50000 / vbv_bufsize=62500 / nal_hrd=none / filler=0 / ip_ratio=1.40 / pb_ratio=1.30 / aq=3:0.80 / aq-sensitivity=10.00 / aq-factor=1.00:1.00:1.00 / aq2=0 / aq3=0
Language : English
Default : Yes
Forced : No
Audio #1
ID : 2
Format : AC-3
Format/Info : Audio Coding 3
Commercial name : Dolby Digital
Codec ID : A_AC3
Duration : 1 h 54 min
Bit rate mode : Constant
Bit rate : 384 kb/s
Channel(s) : 6 channels
Channel layout : L R C LFE Ls Rs
Sampling rate : 48.0 kHz
Frame rate : 31.250 FPS (1536 SPF)
Compression mode : Lossy
Stream size : 315 MiB (6%)
Title : iTunes
Language : Russian
Service kind : Complete Main
Default : Yes
Forced : Yes
Audio #2
ID : 3
Format : AC-3
Format/Info : Audio Coding 3
Commercial name : Dolby Digital
Codec ID : A_AC3
Duration : 1 h 54 min
Bit rate mode : Constant
Bit rate : 640 kb/s
Channel(s) : 6 channels
Channel layout : L R C LFE Ls Rs
Sampling rate : 48.0 kHz
Frame rate : 31.250 FPS (1536 SPF)
Compression mode : Lossy
Stream size : 525 MiB (10%)
Title : Original
Language : Spanish
Service kind : Complete Main
Default : No
Forced : No
Menu
00:00:00.000 : en:Chapter 01
00:10:29.375 : en:Chapter 02
00:18:31.167 : en:Chapter 03
00:29:25.542 : en:Chapter 04
00:38:19.958 : en:Chapter 05
00:46:50.750 : en:Chapter 06
00:56:34.083 : en:Chapter 07
01:08:54.333 : en:Chapter 08
01:16:37.792 : en:Chapter 09
01:26:49.208 : en:Chapter 10
01:35:55.542 : en:Chapter 11
01:49:35.500 : en:Chapter 12

Релиз от:

DED

Post 21-May-2020 20:52

[Quote]

--Рэмбо: Последняя кровь / Rambo: Last Blood-«Настоящий герой бьётся до конца»-- Год выхода: 2019
Страна: США, Испания, Болгария
Студия: «Balboa Productions, Campbell Grobman Films, Dadi Film Group, …»
Жанр: боевик, триллер
Продолжительность: 01:40:58
Перевод: Профессиональный (дублированный) [Лицензия]
Режиссер: Адриан Грюнберг
В ролях: Сильвестр Сталлоне, Пас Вега, Ивет Монреаль, Луис Мэндилор, Оскар Хаенада, Шила Шах, Серхио Перис-Менчета, Джессика Мэдсен, Хоакин Косио, Адриана Барраса, Джени Ким, Паскасио Лопес, Александр Димитров, ...-Описание: Он хранил секреты всю жизнь, но пришло время взглянуть в глаза прошлому. В последний раз собраться и стать безжалостной машиной для убийства. Рэмбо снова встанет на смертельно опасный путь — путь мести, который ему придется пройти до конца.- -Качество видео: BDRip 720p
Формат видео: MKV
Видеокодек: H.264
Аудиокодек: AC3
Видео: 1280x536 (2.40:1), 23.976 fps, MPEG-4 AVC, ~7000 kbps avg
Аудио #1: [RUS] 48.0 kHz, AC3 Dolby Digital, 5.1 (L,C,R) + LFE ch, ~640.00 kbps avg
Аудио #2: [ENG] 48.0 kHz, AC3 Dolby Digital, 5.1 (L,C,R) + LFE ch, ~640.00 kbps avg
Cубтитры: русские, английские (встроенные, отключаемые)
Дополнительно:Навигация по главам есть
-

MediaInfo:

General
Unique ID : 299614883930606464757957793019495583638 (0xE167BA48E20B57FA89B0B3FB62160F96)
Complete name : E:Video111Rambo.Last.Blood.2019.EXTENDED.BDRip.720p.seleZen.mkv
Format : Matroska
Format version : Version 4
File size : 5.80 GiB
Duration : 1 h 40 min
Overall bit rate : 8 225 kb/s
Movie name : Rambo Last Blood 2019 EXTENDED from селезень
Encoded date : UTC 2020-05-21 13:37:11
Writing application : mkvmerge v40.0.0 ('Old Town Road + Pony') 64-bit
Writing library : libebml v1.3.9 + libmatroska v1.5.2
Video
ID : 1
Format : AVC
Format/Info : Advanced Video Codec
Format profile : [email protected]
Format settings : CABAC / 12 Ref Frames
Format settings, CABAC : Yes
Format settings, Reference : 12 frames
Codec ID : V_MPEG4/ISO/AVC
Duration : 1 h 40 min
Bit rate : 7 000 kb/s
Width : 1 280 pixels
Height : 536 pixels
Display aspect ratio : 2.40:1
Frame rate mode : Constant
Frame rate : 23.976 (24000/1001) FPS
Color space : YUV
Chroma subsampling : 4:2:0
Bit depth : 8 bits
Scan type : Progressive
Bits/(Pixel*Frame) : 0.426
Stream size : 4.90 GiB (84%)
Title : LoRD
Writing library : x264 core 159 r2991+49 ~ LoRD
Encoding settings : cabac=1 / ref=12 / deblock=1:-3:-3 / analyse=0x3:0x133 / me=umh / subme=10 / psy=1 / fade_compensate=0.00 / psy_rd=1.00:0.00 / mixed_ref=1 / me_range=32 / chroma_me=1 / trellis=2 / 8x8dct=1 / cqm=0 / deadzone=21,11 / fast_pskip=0 / chroma_qp_offset=-2 / threads=12 / lookahead_threads=2 / sliced_threads=0 / nr=0 / decimate=0 / interlaced=0 / bluray_compat=0 / constrained_intra=0 / fgo=0 / bframes=8 / b_pyramid=2 / b_adapt=2 / b_bias=0 / direct=3 / weightb=1 / open_gop=0 / weightp=2 / keyint=250 / keyint_min=23 / scenecut=40 / intra_refresh=0 / rc_lookahead=60 / rc=2pass / mbtree=0 / bitrate=7000 / ratetol=1.0 / qcomp=0.60 / qpmin=0:0:0 / qpmax=69:69:69 / qpstep=4 / cplxblur=20.0 / qblur=0.5 / vbv_maxrate=50000 / vbv_bufsize=62500 / nal_hrd=none / filler=0 / ip_ratio=1.25 / pb_ratio=1.25 / aq=3:0.80 / aq-sensitivity=10.00 / aq-factor=1.00:1.00:1.00 / aq2=0 / aq3=0
Language : English
Default : Yes
Forced : No
Audio #1
ID : 2
Format : AC-3
Format/Info : Audio Coding 3
Commercial name : Dolby Digital
Codec ID : A_AC3
Duration : 1 h 40 min
Bit rate mode : Constant
Bit rate : 640 kb/s
Channel(s) : 6 channels
Channel layout : L R C LFE Ls Rs
Sampling rate : 48.0 kHz
Frame rate : 31.250 FPS (1536 SPF)
Compression mode : Lossy
Stream size : 462 MiB (8%)
Title : Dub [License]
Language : Russian
Service kind : Complete Main
Default : Yes
Forced : Yes
Audio #2
ID : 3
Format : AC-3
Format/Info : Audio Coding 3
Commercial name : Dolby Digital
Codec ID : A_AC3
Duration : 1 h 40 min
Bit rate mode : Constant
Bit rate : 640 kb/s
Channel(s) : 6 channels
Channel layout : L R C LFE Ls Rs
Sampling rate : 48.0 kHz
Frame rate : 31.250 FPS (1536 SPF)
Compression mode : Lossy
Stream size : 462 MiB (8%)
Title : Original
Language : English
Service kind : Complete Main
Default : No
Forced : No
Text #1
ID : 4
Format : UTF-8
Codec ID : S_TEXT/UTF8
Codec ID/Info : UTF-8 Plain Text
Duration : 1 h 33 min
Bit rate : 58 b/s
Count of elements : 809
Stream size : 40.0 KiB (0%)
Title : Full [Enigma]
Language : Russian
Default : No
Forced : No
Text #2
ID : 5
Format : UTF-8
Codec ID : S_TEXT/UTF8
Codec ID/Info : UTF-8 Plain Text
Duration : 1 h 19 min
Bit rate : 7 b/s
Count of elements : 202
Stream size : 4.52 KiB (0%)
Title : Forced
Language : English
Default : No
Forced : No
Text #3
ID : 6
Format : UTF-8
Codec ID : S_TEXT/UTF8
Codec ID/Info : UTF-8 Plain Text
Duration : 1 h 29 min
Bit rate : 37 b/s
Count of elements : 913
Stream size : 24.9 KiB (0%)
Title : Full
Language : English
Default : No
Forced : No
Text #4
ID : 7
Format : UTF-8
Codec ID : S_TEXT/UTF8
Codec ID/Info : UTF-8 Plain Text
Duration : 1 h 33 min
Bit rate : 44 b/s
Count of elements : 1197
Stream size : 30.5 KiB (0%)
Title : SDH
Language : English
Default : No
Forced : No
Menu
00:00:00.000 : en:Chapter 01
00:07:54.140 : en:Chapter 02
00:15:33.808 : en:Chapter 03
00:20:55.838 : en:Chapter 04
00:30:20.902 : en:Chapter 05
00:38:26.846 : en:Chapter 06
00:45:24.847 : en:Chapter 07
00:53:24.827 : en:Chapter 08
01:05:10.365 : en:Chapter 09
01:13:51.552 : en:Chapter 10
01:23:06.106 : en:Chapter 11
01:30:59.412 : en:Chapter 12
-

Скриншоты:

       
- -

DED

Post 21-May-2020 20:49

[Quote]

--Рэмбо: Последняя кровь / Rambo: Last Blood-«Настоящий герой бьётся до конца»-- Год выхода: 2019
Страна: США, Испания, Болгария
Студия: «Balboa Productions, Campbell Grobman Films, Dadi Film Group, …»
Жанр: боевик, триллер
Продолжительность: 01:40:30
Перевод: Профессиональный (дублированный) [Лицензия]
Режиссер: Адриан Грюнберг
В ролях: Сильвестр Сталлоне, Пас Вега, Ивет Монреаль, Луис Мэндилор, Оскар Хаенада, Шила Шах, Серхио Перис-Менчета, Джессика Мэдсен, Хоакин Косио, Адриана Барраса, Джени Ким, Паскасио Лопес, Александр Димитров, ...-Описание: Он хранил секреты всю жизнь, но пришло время взглянуть в глаза прошлому. В последний раз собраться и стать безжалостной машиной для убийства. Рэмбо снова встанет на смертельно опасный путь — путь мести, который ему придется пройти до конца.- -Качество видео: BDRip 1080p
Формат видео: MKV
Видеокодек: H.264
Аудиокодек: AC3
Видео: 1920x804 (2.40:1), 23.976 fps, MPEG-4 AVC, ~15.3 Мbps avg
Аудио #1: [RUS] 48.0 kHz, AC3 Dolby Digital, 5.1 (L,C,R) + LFE ch, ~640.00 kbps avg
Аудио #2: [ENG] 48.0 kHz, AC3 Dolby Digital, 5.1 (L,C,R) + LFE ch, ~640.00 kbps avg
Cубтитры: русские, английские (встроенные, отключаемые)
Дополнительно: Навигация по главам есть
-

MediaInfo:

General
Unique ID : 97246422232199983625131582325966673692 (0x4928FACABEDD8D247DC63D8F107A971C)
Complete name : E:Video111Rambo.Last.Blood.2019.EXTENDED.BDRip.1080p.seleZen.mkv
Format : Matroska
Format version : Version 4
File size : 11.0 GiB
Duration : 1 h 40 min
Overall bit rate : 15.6 Mb/s
Movie name : Rambo Last Blood 2019 EXTENDED from селезень
Encoded date : UTC 2020-05-21 13:27:17
Writing application : mkvmerge v40.0.0 ('Old Town Road + Pony') 64-bit
Writing library : libebml v1.3.9 + libmatroska v1.5.2
Video
ID : 1
Format : AVC
Format/Info : Advanced Video Codec
Format profile : [email protected]
Format settings : CABAC / 5 Ref Frames
Format settings, CABAC : Yes
Format settings, Reference : 5 frames
Codec ID : V_MPEG4/ISO/AVC
Duration : 1 h 40 min
Bit rate : 14.3 Mb/s
Width : 1 920 pixels
Height : 804 pixels
Display aspect ratio : 2.40:1
Frame rate mode : Constant
Frame rate : 23.976 (24000/1001) FPS
Color space : YUV
Chroma subsampling : 4:2:0
Bit depth : 8 bits
Scan type : Progressive
Bits/(Pixel*Frame) : 0.387
Stream size : 10.1 GiB (92%)
Title : Legacy pwns u!
Writing library : x264 core 159 r2991+50 ce3db24 t_mod_New [(8 & 10)[email protected] X86_64]
Encoding settings : cabac=1 / ref=5 / deblock=1:-3:-3 / analyse=0x3:0x133 / me=umh / subme=11 / psy=1 / fade_compensate=0.00 / psy_rd=1.05:0.00 / mixed_ref=1 / me_range=32 / chroma_me=1 / trellis=2 / 8x8dct=1 / cqm=0 / deadzone=21,11 / fast_pskip=0 / chroma_qp_offset=-2 / threads=25 / lookahead_threads=6 / sliced_threads=0 / nr=0 / decimate=0 / interlaced=0 / bluray_compat=0 / constrained_intra=0 / fgo=0 / bframes=10 / b_pyramid=2 / b_adapt=2 / b_bias=0 / direct=3 / weightb=1 / open_gop=0 / weightp=2 / keyint=240 / keyint_min=23 / scenecut=40 / intra_refresh=0 / rc_lookahead=80 / rc=2pass / mbtree=0 / bitrate=14324 / ratetol=1.0 / qcomp=0.67 / qpmin=0:0:0 / qpmax=69:69:69 / qpstep=4 / cplxblur=20.0 / qblur=0.5 / vbv_maxrate=62500 / vbv_bufsize=78125 / nal_hrd=none / filler=0 / ip_ratio=1.25 / pb_ratio=1.20 / aq=3:0.81 / aq-sensitivity=10.00 / aq-factor=1.00:1.00:1.00 / aq2=0 / aq3=0
Language : English
Default : Yes
Forced : No
Color range : Limited
Color primaries : BT.709
Transfer characteristics : BT.709
Matrix coefficients : BT.709
Audio #1
ID : 2
Format : AC-3
Format/Info : Audio Coding 3
Commercial name : Dolby Digital
Codec ID : A_AC3
Duration : 1 h 40 min
Bit rate mode : Constant
Bit rate : 640 kb/s
Channel(s) : 6 channels
Channel layout : L R C LFE Ls Rs
Sampling rate : 48.0 kHz
Frame rate : 31.250 FPS (1536 SPF)
Compression mode : Lossy
Stream size : 462 MiB (4%)
Title : Dub [License]
Language : Russian
Service kind : Complete Main
Default : Yes
Forced : Yes
Audio #2
ID : 3
Format : AC-3
Format/Info : Audio Coding 3
Commercial name : Dolby Digital
Codec ID : A_AC3
Duration : 1 h 40 min
Bit rate mode : Constant
Bit rate : 640 kb/s
Channel(s) : 6 channels
Channel layout : L R C LFE Ls Rs
Sampling rate : 48.0 kHz
Frame rate : 31.250 FPS (1536 SPF)
Compression mode : Lossy
Stream size : 462 MiB (4%)
Title : Original
Language : English
Service kind : Complete Main
Default : No
Forced : No
Text #1
ID : 4
Format : UTF-8
Codec ID : S_TEXT/UTF8
Codec ID/Info : UTF-8 Plain Text
Duration : 1 h 33 min
Bit rate : 58 b/s
Count of elements : 809
Stream size : 40.0 KiB (0%)
Title : Full [Enigma]
Language : Russian
Default : No
Forced : No
Text #2
ID : 5
Format : UTF-8
Codec ID : S_TEXT/UTF8
Codec ID/Info : UTF-8 Plain Text
Duration : 1 h 19 min
Bit rate : 7 b/s
Count of elements : 202
Stream size : 4.52 KiB (0%)
Title : Forced
Language : English
Default : No
Forced : No
Text #3
ID : 6
Format : UTF-8
Codec ID : S_TEXT/UTF8
Codec ID/Info : UTF-8 Plain Text
Duration : 1 h 29 min
Bit rate : 37 b/s
Count of elements : 913
Stream size : 24.9 KiB (0%)
Title : Full
Language : English
Default : No
Forced : No
Text #4
ID : 7
Format : UTF-8
Codec ID : S_TEXT/UTF8
Codec ID/Info : UTF-8 Plain Text
Duration : 1 h 33 min
Bit rate : 44 b/s
Count of elements : 1197
Stream size : 30.5 KiB (0%)
Title : SDH
Language : English
Default : No
Forced : No
Menu
00:00:00.000 : en:Chapter 01
00:07:54.140 : en:Chapter 02
00:15:33.808 : en:Chapter 03
00:20:55.838 : en:Chapter 04
00:30:20.902 : en:Chapter 05
00:38:26.846 : en:Chapter 06
00:45:24.847 : en:Chapter 07
00:53:24.827 : en:Chapter 08
01:05:10.365 : en:Chapter 09
01:13:51.552 : en:Chapter 10
01:23:06.106 : en:Chapter 11
01:30:59.412 : en:Chapter 12
-

Скриншоты:

       
- -

DED

Post 21-May-2020 20:46

[Quote]

--Рэмбо: Последняя кровь / Rambo: Last Blood-«Настоящий герой бьётся до конца»-- Год выхода: 2019
Страна: США, Испания, Болгария
Студия: «Balboa Productions, Campbell Grobman Films, Dadi Film Group, …»
Жанр: боевик, триллер
Продолжительность: 01:40:58
Перевод: Профессиональный (дублированный) [Лицензия]
Режиссер: Адриан Грюнберг
В ролях: Сильвестр Сталлоне, Пас Вега, Ивет Монреаль, Луис Мэндилор, Оскар Хаенада, Шила Шах, Серхио Перис-Менчета, Джессика Мэдсен, Хоакин Косио, Адриана Барраса, Джени Ким, Паскасио Лопес, Александр Димитров, ...-Описание: Он хранил секреты всю жизнь, но пришло время взглянуть в глаза прошлому. В последний раз собраться и стать безжалостной машиной для убийства. Рэмбо снова встанет на смертельно опасный путь — путь мести, который ему придется пройти до конца.- -Качество видео: BDRemux 1080p
Формат видео: AVC
Видеокодек: H.264
Аудиокодек: AC3/DTS–HD
Видео: 1920x1080 (1.80:1), 23.976 fps, MPEG-4 AVC, ~28.00 Mbps avg
Аудио #1: [RUS] 48.0 kHz, DTS–HD MA, 5.1 (L,C,R) + LFE ch, ~4226.00 kbps avg
Аудио #2: [RUS] 48.0 kHz, AC3 Dolby Digital, 5.1 (L,C,R) + LFE ch, ~640.00 kbps avg
Аудио #3: [ENG] 48.0 kHz, DTS–HD MA, 7.1 (L,C,R) + LFE ch, 5202.00 kbps avg
Cубтитры: русские, английские (встроенные отключаемые)
Дополнительно: Навигация по главам есть
-

Скриншоты:

       
- -

DED

Post 21-May-2020 20:44

[Quote]

--Рэмбо: Последняя кровь / Rambo: Last Blood-«Настоящий герой бьётся до конца»-- Год выхода: 2019
Страна: США, Испания, Болгария
Студия: «Balboa Productions, Campbell Grobman Films, Dadi Film Group, …»
Жанр: боевик, триллер
Продолжительность: 01:41:04
Перевод: Профессиональный (дублированный) [Лицензия]
Режиссер: Адриан Грюнберг
В ролях: Сильвестр Сталлоне, Пас Вега, Ивет Монреаль, Луис Мэндилор, Оскар Хаенада, Шила Шах, Серхио Перис-Менчета, Джессика Мэдсен, Хоакин Косио, Адриана Барраса, Джени Ким, Паскасио Лопес, Александр Димитров, ...-Описание: Он хранил секреты всю жизнь, но пришло время взглянуть в глаза прошлому. В последний раз собраться и стать безжалостной машиной для убийства. Рэмбо снова встанет на смертельно опасный путь — путь мести, который ему придется пройти до конца.- -Качество видео: BDRemux 2160p
Формат видео: M2TS
Видеокодек: MPEG-H HEVC
Аудиокодек: AC3/DTS-HD MA
Видео: 3840x2160 (1.78:1), 23.976 fps, MPEG-H HEVC HDR, ~74.50 Mbps avg
Аудио #1: [RUS] 48.0 kHz, DTS-HD MA, 5.1 (L,C,R) + LFE ch, ~5226.00 kbps avg
Аудио #2: [RUS] 48.0 kHz, AC3 Dolby Digital, 5.1 (L,C,R) + LFE ch, ~640.00 kbps avg
Аудио #3: [ENG] 48.0 kHz, DTS-HD MA, 5.1 (L,C,R) + LFE ch, 4118.00 kbps avg
Cубтитры: русские, английские (встроенные отключаемые)
Дополнительно: Навигация по главам есть
-

Скриншоты:

       
- -

Орлов Владимир

Post 30-Oct-2019 20:08

[Quote]

--Как отмыть миллион / Падение американской империи / La chute de l'empire américain (Дени Аркан) [2018, комедия, криминал, BDRemux 1080p]--
Информация о фильме
Название: Как отмыть миллион / Падение американской империи
Оригинальное название: La chute de l'empire américain
Год выпуска: 2018
Жанр: Комедия, криминал
Режиссер: Дени Аркан--В ролях: Александр Ландри, Мари-Пьер Морен, Реми Жирар, Максим Рой, Эрик Брюно, Венсан Леклер, Жюльетт Госслен, Пьер Курци, Ян Инглэнд, Роз-Мари Перро, Клод Лего--О фильме:
Скромняга Пьер-Поль, обладатель ученой степени, вынужден подрабатывать курьером. В один прекрасный день, доставляя очередную посылку, он первым оказывается на месте преступления и становится обладателем миллионного куша. Искушение решить все житейские проблемы велико. И пока он размышляет вернуть или присвоить огромную сумму наличных, его начинают преследовать бандиты, а полиция не спускает с него глаз. Спасаясь и от тех, и от других, интеллектуал Пьер-Поль встречает роковую красотку...-- --Страна: Канада
Студия: Cinémaginaire Inc.
Продолжительность: 02:07:41
Перевод: Профессиональный (многоголосый, закадровый) iTunes--Качество: BDRemux 1080p
Видео: MPEG-4 AVC, 1920x1080, 28.0 Mbit/s, 23.976 fps
Аудио #01: 48 kHz, AC3, 5.1, 384 Kbps | iTunes | RUS |
Аудио #02: 48 kHz, DTS-HD MA, 5.1, 1945 Kbps | Оригинал | FRE |
Субтитры: Нет

MI

General
Unique ID : 279458321184976409569683657894257432118 (0xD23DB7038B5D8989FD68907619FF1636)
Complete name : D:Video111La.Chute.De.L.Empire.Americain.2018.BDREMUX.1080p.seleZen.mkv
Format : Matroska
Format version : Version 4
File size : 27.1 GiB
Duration : 2 h 7 min
Overall bit rate mode : Variable
Overall bit rate : 30.3 Mb/s
Movie name : La chute de l'empire américain 2018 from селезень
Encoded date : UTC 2019-10-30 15:48:26
Writing application : mkvmerge v22.0.0 ('At The End Of The World') 64-bit
Writing library : libebml v1.3.5 + libmatroska v1.4.8
Video
ID : 1
Format : AVC
Format/Info : Advanced Video Codec
Format profile : [email protected]
Format settings : CABAC / 4 Ref Frames
Format settings, CABAC : Yes
Format settings, Reference : 4 frames
Format settings, GOP : M=3, N=24
Codec ID : V_MPEG4/ISO/AVC
Duration : 2 h 7 min
Bit rate mode : Variable
Bit rate : 28.0 Mb/s
Maximum bit rate : 35.0 Mb/s
Width : 1 920 pixels
Height : 1 080 pixels
Display aspect ratio : 16:9
Frame rate mode : Constant
Frame rate : 23.976 (24000/1001) FPS
Standard : NTSC
Color space : YUV
Chroma subsampling : 4:2:0
Bit depth : 8 bits
Scan type : Progressive
Bits/(Pixel*Frame) : 0.564
Stream size : 25.0 GiB (92%)
Language : French
Default : Yes
Forced : No
Color range : Limited
Color primaries : BT.709
Transfer characteristics : BT.709
Matrix coefficients : BT.709
Audio #1
ID : 2
Format : AC-3
Format/Info : Audio Coding 3
Commercial name : Dolby Digital
Codec ID : A_AC3
Duration : 2 h 7 min
Bit rate mode : Constant
Bit rate : 384 kb/s
Channel(s) : 6 channels
Channel layout : L R C LFE Ls Rs
Sampling rate : 48.0 kHz
Frame rate : 31.250 FPS (1536 SPF)
Bit depth : 16 bits
Compression mode : Lossy
Stream size : 351 MiB (1%)
Title : iTunes
Language : Russian
Service kind : Complete Main
Default : Yes
Forced : Yes
Audio #2
ID : 3
Format : DTS XLL
Format/Info : Digital Theater Systems
Commercial name : DTS-HD Master Audio
Codec ID : A_DTS
Duration : 2 h 7 min
Bit rate mode : Variable
Bit rate : 1 945 kb/s
Channel(s) : 6 channels
Channel layout : C L R Ls Rs LFE
Sampling rate : 48.0 kHz
Frame rate : 93.750 FPS (512 SPF)
Bit depth : 16 bits
Compression mode : Lossless
Stream size : 1.73 GiB (6%)
Title : Original
Language : French
Default : No
Forced : No
Menu
00:00:00.000 : fr:00:00:00.000
00:05:55.355 : fr:00:05:55.355
00:13:12.458 : fr:00:13:12.458
00:19:00.056 : fr:00:19:00.056
00:23:17.479 : fr:00:23:17.479
00:28:31.418 : fr:00:28:31.418
00:37:02.220 : fr:00:37:02.220
00:47:08.367 : fr:00:47:08.367
00:52:44.078 : fr:00:52:44.078
00:59:20.390 : fr:00:59:20.390
01:05:57.954 : fr:01:05:57.954
01:13:09.885 : fr:01:13:09.885
01:21:15.370 : fr:01:21:15.370
01:29:58.059 : fr:01:29:58.059
01:34:21.906 : fr:01:34:21.906
01:39:28.379 : fr:01:39:28.379
01:44:17.334 : fr:01:44:17.334
01:50:55.440 : fr:01:50:55.440
01:56:52.505 : fr:01:56:52.505
02:01:48.593 : fr:02:01:48.593

Скриншоты

         

Clavik

Post 17-Oct-2019 22:32

[Quote]

Последствия / The Aftermath (2019) DVD9
«In The Aftermath Of War, The Last Thing She Expected To Find Was Love»
- Производство: Германия, Великобритания, США / Fox Searchlight Pictures, Amusement Park Films, Scott Free Productions
Жанр: Драма, мелодрама, военный
Режиссер: Джеймс Кент
Продюсер: Джек Арбутнотт, Клаус Доле, Карло Дуси
Актеры: Кира Найтли, Александр Скарсгард, Джейсон Кларк, Фионн О’Ши, Кейт Филлипс, Мартин Компстон, Александр Шеер, Анна Катарина Шримригк, Нед Виллс, Пандора Колин
Описание:
Германия после Второй мировой войны. В стране беспорядок, разруха, голод. Главный герой — британский военный Льюис Морган, который назначен временным мэром Гамбурга. Ему предстоит восстанавливать город почти с нуля. Вместе с женой Льюис селится в роскошный особняк, где живет немецкий архитектор с эмоционально нестабильной дочерью. Смогут ли бывшие враги ужиться под одной крышей или желание отомстить будет сильнее?

Возраст: 18+ (зрителям, достигшим 18 лет. запрещено для детей)
Рейтинг MPAA: R (лицам до 17 лет обязательно присутствие взрослого)
Дата мировой премьеры: 26 февраля 2019
Дата российской премьеры: 25 апреля 2019, «Двадцатый Век Фокс СНГ»

Продолжительность: 01:44:11
Качество видео: DVD9 R5
Перевод: Дублированный (лицензия)
Субтитры: Русские, английские, датские, финские, норвежские, шведские, эстонские, хинди, латышские, литовские, украинские
Видео: MPEG-2, [email protected] (PAL 16:9), ~6100 Kbps
Аудио 1: AC3 5.1, 448 Kbps (Английский - оригинал)
Аудио 2: AC3 5.1, 384 Kbps (Английский - описательный)
Аудио 3: AC3 5.1, 384 Kbps (Русский - дублированный)
Аудио 4: AC3 5.1, 384 Kbps (Хинди - дублированный)
Аудио 5: AC3 5.1, 384 Kbps (Украинский - дублированный)
Аудио 6: AC3 2.0, 192 Kbps (Английский - комментарии)

DVDInfo:

Title: The Aftermath (2019) DVD9 R5
Size: 7.17 Gb ( 7 516 078,00 KBytes ) - DVD-9
Enabled regions: 1, 2, 3, 4, 5, 6, 7, 8
VTS_01 :
Play Length: 00:00:00+00:00:07+00:00:07+00:00:07+00:00:07+00:00:07+00:00:07+00:00:07+00:00:07+00:00:07+00:00:07+00:00:07+{00:00:00}+{00:00:00}+{00:00:00}+{00:00:00}+{00:00:00}+00:00:05+00:00:05+00:00:06+00:00:06+00:00:06+{00:00:00}+{00:00:00}+{00:00:00}+{00:00:00}+{00:00:00}
Video: PAL 16:9 (720x576) VBR, Auto Letterboxed
VTS_02 :
Play Length: 00:00:11+00:00:00
Video: PAL 16:9 (720x576) VBR, Auto Letterboxed
Audio:
English (Dolby AC3, 6 ch)
VTS_03 :
Play Length: 00:11:40+{00:00:00}+{00:00:00}
Video: PAL 16:9 (720x576) VBR, Auto Letterboxed
Audio:
English (Dolby AC3, 2 ch)
Subtitles:
English
Dansk
Suomi
Norsk
Russian
Svenska
VTS_04 :
Play Length: 00:00:00+{00:00:00}+{00:00:00}+{00:00:00}+00:04:00+{00:00:00}+{00:00:00}+{00:00:00}
Video: PAL 16:9 (720x576) VBR, Auto Letterboxed
VTS_05 :
Play Length: 00:00:00+{00:00:00}+{00:00:00}+{00:00:00}+{00:00:00}+{00:00:00}+{00:00:00}+{00:00:00}+{00:00:00}+00:01:51
Video: PAL 16:9 (720x576) VBR, Auto Letterboxed
Audio:
English (Dolby AC3, 2 ch)
English (Dolby AC3, 2 ch)
Subtitles:
English
English
Dansk
Suomi
Norsk
Russian
Svenska
VTS_06 :
Play Length: 00:00:00+00:01:47+00:05:47+{00:00:00}+{00:02:25}+{00:01:36}+{00:00:00}+{00:00:00}+{00:00:00}+{00:00:00}+{00:00:00}+{00:00:00}
Video: PAL 16:9 (720x576) VBR, Auto Letterboxed
Audio:
English, AC3, 2/0 (L,R) ch, 192 kbps, Delay -49 mSec
English, AC3, 2/0 (L,R) ch, 192 kbps, Delay -49 mSec
Subtitles:
English
Dansk
Suomi
Norsk
Russian
Svenska
English
Dansk
Suomi
Norsk
Russian
Svenska
VTS_07 :
Play Length: 00:00:01+01:44:11
Video: PAL 16:9 (720x576) VBR, Auto Letterboxed
Audio:
English (Dolby AC3, 6 ch)
English (Dolby AC3, 6 ch)
Russian (Dolby AC3, 6 ch)
Hindi (Dolby AC3, 6 ch)
Ukrainian (Dolby AC3, 6 ch)
English (Dolby AC3, 2 ch)
Subtitles:
English
Dansk
Suomi
Norsk
Russian
Svenska
Estonian
Hindi
Latvian
Lithuanian
Ukrainian
English
Russian
Hindi
Ukrainian
English
Dansk
Suomi
Norsk
Russian
Svenska
VTS_08 :
Play Length: 00:00:17+00:02:33
Video: PAL 16:9 (720x576) VBR, Auto Letterboxed
Subtitles:
English
VTS_09 :
Play Length: 00:00:00+{00:00:00}+{00:00:00}+{00:00:00}+{00:00:00}+{00:00:00}+{00:00:00}+{00:00:00}+{00:00:00}+{00:00:00}
Video: PAL 16:9 (720x576) VBR, Auto Letterboxed
VTS_10 :
Play Length: 00:00:00+{00:00:00}+{00:00:00}+{00:00:00}+{00:00:00}
Video: PAL 16:9 (720x576) VBR, Auto Letterboxed
VTS_11 :
Play Length: 00:00:00+{00:00:00}
Video: PAL 16:9 (720x576) VBR, Auto Letterboxed
VTS_12 :
Play Length: 00:00:00
Video: PAL 16:9 (720x576) VBR, Auto Letterboxed
VTS_13 :
Play Length: 00:02:21
Video: PAL 16:9 (720x576) VBR, Auto Letterboxed
Audio:
English (Dolby AC3, 6 ch)

MediaInfo:

Общее
Полное имя : V:\Torrents\The Aftermath (2019) DVD9 R5\VIDEO_TS\VTS_07_5.VOB
Формат : MPEG-PS
Размер файла : 1024 Мбайт
Продолжительность : 16 м. 56 с.
Режим общего битрейта : Переменный
Общий поток : 8447 Кбит/сек
Видео
Идентификатор : 224 (0xE0)
Формат : MPEG Video
Версия формата : Version 2
Профиль формата : [email protected]
Настройки формата : CustomMatrix / BVOP
Параметр BVOP формата : Да
Параметр матрицы формата : Выборочная
Параметр GOP формата : Variable
Продолжительность : 16 м. 56 с.
Вид битрейта : Переменный
Битрейт : 6103 Кбит/сек
Максимальный битрейт : 9800 Кбит/сек
Ширина : 720 пикселей
Высота : 576 пикселей
Соотношение сторон : 16:9
Частота кадров : 25,000 кадров/сек
Стандарт вещания : PAL
Цветовое пространство : YUV
Субдискретизация насыщенности : 4:2:0
Битовая глубина : 8 бит
Тип развёртки : Прогрессивная
Порядок развёртки : Верхнее поле первое
Метод сжатия : С потерями
Бит/(Пиксели*Кадры) : 0.589
Временной код первого кадра : 01:09:42:02
Оригинал временного кода : Group of pictures header
Размер потока : 739 Мбайт (72%)
Аудио #1
Идентификатор : 189 (0xBD)-128 (0x80)
Формат : AC-3
Формат/Информация : Audio Coding 3
Параметр Endianness формата : Big
Режим смешивания : DVD-Video
Продолжительность : 16 м. 56 с.
Вид битрейта : Постоянный
Битрейт : 448 Кбит/сек
Каналы : 6 каналов
Расположение каналов : Front: L C R, Side: L R, LFE
Частота : 48,0 КГц
Частота кадров : 31,250 кадров/сек (1536 SPF)
Битовая глубина : 16 бит
Метод сжатия : С потерями
Задержка видео : -248 мс.
Размер потока : 54,3 Мбайт (5%)
ServiceKind/String : Complete Main
Аудио #2
Идентификатор : 189 (0xBD)-129 (0x81)
Формат : AC-3
Формат/Информация : Audio Coding 3
Параметр Endianness формата : Big
Режим смешивания : DVD-Video
Продолжительность : 16 м. 56 с.
Вид битрейта : Постоянный
Битрейт : 384 Кбит/сек
Каналы : 6 каналов
Расположение каналов : Front: L C R, Side: L R, LFE
Частота : 48,0 КГц
Частота кадров : 31,250 кадров/сек (1536 SPF)
Битовая глубина : 16 бит
Метод сжатия : С потерями
Задержка видео : -280 мс.
Размер потока : 46,5 Мбайт (5%)
ServiceKind/String : Complete Main
Аудио #3
Идентификатор : 189 (0xBD)-130 (0x82)
Формат : AC-3
Формат/Информация : Audio Coding 3
Параметр Endianness формата : Big
Режим смешивания : DVD-Video
Продолжительность : 16 м. 56 с.
Вид битрейта : Постоянный
Битрейт : 384 Кбит/сек
Каналы : 6 каналов
Расположение каналов : Front: L C R, Side: L R, LFE
Частота : 48,0 КГц
Частота кадров : 31,250 кадров/сек (1536 SPF)
Битовая глубина : 16 бит
Метод сжатия : С потерями
Задержка видео : -280 мс.
Размер потока : 46,5 Мбайт (5%)
ServiceKind/String : Complete Main
Аудио #4
Идентификатор : 189 (0xBD)-131 (0x83)
Формат : AC-3
Формат/Информация : Audio Coding 3
Параметр Endianness формата : Big
Режим смешивания : DVD-Video
Продолжительность : 16 м. 56 с.
Вид битрейта : Постоянный
Битрейт : 384 Кбит/сек
Каналы : 6 каналов
Расположение каналов : Front: L C R, Side: L R, LFE
Частота : 48,0 КГц
Частота кадров : 31,250 кадров/сек (1536 SPF)
Битовая глубина : 16 бит
Метод сжатия : С потерями
Задержка видео : -280 мс.
Размер потока : 46,5 Мбайт (5%)
ServiceKind/String : Complete Main
Аудио #5
Идентификатор : 189 (0xBD)-132 (0x84)
Формат : AC-3
Формат/Информация : Audio Coding 3
Параметр Endianness формата : Big
Режим смешивания : DVD-Video
Продолжительность : 16 м. 56 с.
Вид битрейта : Постоянный
Битрейт : 384 Кбит/сек
Каналы : 6 каналов
Расположение каналов : Front: L C R, Side: L R, LFE
Частота : 48,0 КГц
Частота кадров : 31,250 кадров/сек (1536 SPF)
Битовая глубина : 16 бит
Метод сжатия : С потерями
Задержка видео : -280 мс.
Размер потока : 46,5 Мбайт (5%)
ServiceKind/String : Complete Main
Аудио #6
Идентификатор : 189 (0xBD)-133 (0x85)
Формат : AC-3
Формат/Информация : Audio Coding 3
Параметр Endianness формата : Big
Режим смешивания : DVD-Video
Продолжительность : 16 м. 56 с.
Вид битрейта : Постоянный
Битрейт : 192 Кбит/сек
Каналы : 2 канала
Расположение каналов : Front: L R
Частота : 48,0 КГц
Частота кадров : 31,250 кадров/сек (1536 SPF)
Битовая глубина : 16 бит
Метод сжатия : С потерями
Задержка видео : -184 мс.
Размер потока : 23,3 Мбайт (2%)
ServiceKind/String : Complete Main
Текст #1
Идентификатор : 189 (0xBD)-32 (0x20)
Формат : RLE
Формат/Информация : Run-length encoding
Режим смешивания : DVD-Video
Продолжительность : 16 м. 53 с.
Задержка видео : 680 мс.
Текст #2
Идентификатор : 189 (0xBD)-33 (0x21)
Формат : RLE
Формат/Информация : Run-length encoding
Режим смешивания : DVD-Video
Продолжительность : 16 м. 51 с.
Задержка видео : 560 мс.
Текст #3
Идентификатор : 189 (0xBD)-34 (0x22)
Формат : RLE
Формат/Информация : Run-length encoding
Режим смешивания : DVD-Video
Продолжительность : 16 м. 52 с.
Задержка видео : 600 мс.
Текст #4
Идентификатор : 189 (0xBD)-35 (0x23)
Формат : RLE
Формат/Информация : Run-length encoding
Режим смешивания : DVD-Video
Продолжительность : 16 м. 52 с.
Задержка видео : 600 мс.
Текст #5
Идентификатор : 189 (0xBD)-36 (0x24)
Формат : RLE
Формат/Информация : Run-length encoding
Режим смешивания : DVD-Video
Продолжительность : 16 м. 52 с.
Задержка видео : 600 мс.
Текст #6
Идентификатор : 189 (0xBD)-37 (0x25)
Формат : RLE
Формат/Информация : Run-length encoding
Режим смешивания : DVD-Video
Продолжительность : 16 м. 52 с.
Задержка видео : 600 мс.
Текст #7
Идентификатор : 189 (0xBD)-38 (0x26)
Формат : RLE
Формат/Информация : Run-length encoding
Режим смешивания : DVD-Video
Продолжительность : 16 м. 52 с.
Задержка видео : 600 мс.
Текст #8
Идентификатор : 189 (0xBD)-39 (0x27)
Формат : RLE
Формат/Информация : Run-length encoding
Режим смешивания : DVD-Video
Продолжительность : 16 м. 52 с.
Задержка видео : 600 мс.
Текст #9
Идентификатор : 189 (0xBD)-40 (0x28)
Формат : RLE
Формат/Информация : Run-length encoding
Режим смешивания : DVD-Video
Продолжительность : 16 м. 52 с.
Задержка видео : 600 мс.
Текст #10
Идентификатор : 189 (0xBD)-41 (0x29)
Формат : RLE
Формат/Информация : Run-length encoding
Режим смешивания : DVD-Video
Продолжительность : 16 м. 52 с.
Задержка видео : 600 мс.
Текст #11
Идентификатор : 189 (0xBD)-42 (0x2A)
Формат : RLE
Формат/Информация : Run-length encoding
Режим смешивания : DVD-Video
Продолжительность : 16 м. 52 с.
Задержка видео : 600 мс.
Текст #12
Идентификатор : 189 (0xBD)-47 (0x2F)
Формат : RLE
Формат/Информация : Run-length encoding
Режим смешивания : DVD-Video
Продолжительность : 16 м. 55 с.
Задержка видео : 920 мс.
Текст #13
Идентификатор : 189 (0xBD)-48 (0x30)
Формат : RLE
Формат/Информация : Run-length encoding
Режим смешивания : DVD-Video
Продолжительность : 16 м. 55 с.
Задержка видео : 920 мс.
Текст #14
Идентификатор : 189 (0xBD)-49 (0x31)
Формат : RLE
Формат/Информация : Run-length encoding
Режим смешивания : DVD-Video
Продолжительность : 16 м. 55 с.
Задержка видео : 920 мс.
Текст #15
Идентификатор : 189 (0xBD)-50 (0x32)
Формат : RLE
Формат/Информация : Run-length encoding
Режим смешивания : DVD-Video
Продолжительность : 16 м. 55 с.
Задержка видео : 920 мс.
Текст #16
Идентификатор : 189 (0xBD)-51 (0x33)
Формат : RLE
Формат/Информация : Run-length encoding
Режим смешивания : DVD-Video
Продолжительность : 16 м. 55 с.
Задержка видео : 920 мс.
Текст #17
Идентификатор : 189 (0xBD)-52 (0x34)
Формат : RLE
Формат/Информация : Run-length encoding
Режим смешивания : DVD-Video
Продолжительность : 16 м. 52 с.
Задержка видео : 920 мс.
Меню

Доп. материалы:

- Удалённые сцены
- Разработки видеоэффектов
- Первый взгляд
- Комментарий Джеймса Кента
- Галерея
- Кинотеатральный ролик
(переведены русскими субтитрами)

Скриншоты меню:

         
   
Скриншоты:
       

Clavik

Post 11-Oct-2019 17:44

[Quote]

Король Лев / The Lion King (2019) BDRip [H.264/1080p]«The King Has Returned»- Производство: США / Walt Disney Pictures, Fairview Entertainment
Жанр: Мультфильм, мюзикл, драма, приключения, семейный
Режиссер: Джон Фавро
Актеры: Джеймс Эрл Джонс, Дональд Гловер, Чиветел Эджиофор, Джон Оливер, Джон Кани, Элфри Вудард, Джейдон Маккрэри, Шахади Райт Джозеф, Пенни Джонсон, Кигэн-Майкл Ки
Описание:
История об отважном львенке по имени Симба. Знакомые с детства герои взрослеют, влюбляются, познают себя и окружающий мир, совершают ошибки и делают правильный выбор.

Возраст: 6+ (зрителям, достигшим 6 лет)
Рейтинг MPAA: PG (рекомендуется присутствие родителей)
Дата мировой премьеры: 9 июля 2019
Дата российской премьеры: 18 июля 2019, «WDSSPR»
Продолжительность: 01:58:15
Качество видео: BDRip 1080p (SIMBA)
Перевод: Дублированный (iTunes)
Субтитры: Русские (Full, SDH), английские (Full)
Видео: AVC/H.264, 1920x1080, ~8447 Kbps, 23.976 fps
Аудио 1: AC3, 6 ch, 384 Kbps - Русский
Аудио 2: DTS, 6 ch, 1509 Kbps - Английский

Mediainfo:

Общее
Уникальный идентификатор : 293105149989813902382331724448023315262 (0xDC81FF9F226D512F75AF8498C3B6033E)
Полное имя : The Lion King.2019.BDRip.1080p.mkv
Формат : Matroska
Версия формата : Version 4
Размер файла : 8,54 Гбайт
Продолжительность : 1 ч. 58 м.
Общий поток : 10,3 Мбит/сек
Название фильма : The Lion King.2019.BDRip.1080p
Дата кодирования : UTC 2019-10-10 20:01:33
Программа кодирования : mkvmerge v23.0.0 ('The Bride Said No') 64-bit
Библиотека кодирования : libebml v1.3.6 + libmatroska v1.4.9
Видео
Идентификатор : 1
Формат : AVC
Формат/Информация : Advanced Video Codec
Профиль формата : [url=mailto:[email protected]][email protected][/url]
Настройки формата : CABAC / 4 Ref Frames
Параметр CABAC формата : Да
Параметр RefFrames формата : 4 кадра
Идентификатор кодека : V_MPEG4/ISO/AVC
Продолжительность : 1 ч. 58 м.
Битрейт : 8447 Кбит/сек
Ширина : 1920 пикселей
Высота : 1080 пикселей
Соотношение сторон : 16:9
Режим частоты кадров : Постоянный
Частота кадров : 23,976 (24000/1001) кадра/сек
Цветовое пространство : YUV
Субдискретизация насыщенности : 4:2:0
Битовая глубина : 8 бит
Тип развёртки : Прогрессивная
Бит/(Пиксели*Кадры) : 0.170
Размер потока : 6,98 Гбайт (82%)
Библиотека кодирования : x264 core 152 r2851 ba24899
Настройки программы : cabac=1 / ref=3 / deblock=1:0:0 / analyse=0x3:0x113 / me=hex / subme=7 / psy=1 / psy_rd=1.00:0.00 / mixed_ref=1 / me_range=16 / chroma_me=1 / trellis=1 / 8x8dct=1 / cqm=0 / deadzone=21,11 / fast_pskip=1 / chroma_qp_offset=-2 / threads=12 / lookahead_threads=2 / sliced_threads=0 / nr=0 / decimate=1 / interlaced=0 / bluray_compat=0 / constrained_intra=0 / bframes=3 / b_pyramid=2 / b_adapt=1 / b_bias=0 / direct=1 / weightb=1 / open_gop=0 / weightp=2 / keyint=240 / keyint_min=23 / scenecut=40 / intra_refresh=0 / rc_lookahead=40 / rc=2pass / mbtree=1 / bitrate=8447 / ratetol=1.0 / qcomp=0.60 / qpmin=0 / qpmax=69 / qpstep=4 / cplxblur=20.0 / qblur=0.5 / vbv_maxrate=62500 / vbv_bufsize=78125 / nal_hrd=none / filler=0 / ip_ratio=1.40 / aq=1:1.00
Язык : English
Default : Да
Forced : Нет
Аудио #1
Идентификатор : 2
Формат : AC-3
Формат/Информация : Audio Coding 3
Коммерческое название : Dolby Digital
Идентификатор кодека : A_AC3
Продолжительность : 1 ч. 58 м.
Вид битрейта : Постоянный
Битрейт : 384 Кбит/сек
Каналы : 6 каналов
ChannelLayout : L R C LFE Ls Rs
Частота : 48,0 КГц
Частота кадров : 31,250 кадров/сек (1536 SPF)
Метод сжатия : С потерями
Размер потока : 325 Мбайт (4%)
Заголовок : DUB (iTunes)
Язык : Russian
ServiceKind/String : Complete Main
Default : Да
Forced : Нет
Аудио #2
Идентификатор : 3
Формат : DTS
Формат/Информация : Digital Theater Systems
Идентификатор кодека : A_DTS
Продолжительность : 1 ч. 58 м.
Вид битрейта : Постоянный
Битрейт : 1509 Кбит/сек
Каналы : 6 каналов
ChannelLayout : C L R Ls Rs LFE
Частота : 48,0 КГц
Частота кадров : 93,750 кадра/сек (512 SPF)
Битовая глубина : 24 бит
Метод сжатия : С потерями
Размер потока : 1,25 Гбайт (15%)
Язык : English
Default : Нет
Forced : Нет
Текст #1
Идентификатор : 4
Формат : UTF-8
Идентификатор кодека : S_TEXT/UTF8
Идентификатор кодека/Информация : UTF-8 Plain Text
Продолжительность : 1 ч. 46 м.
Битрейт : 73 бит/сек
ElementCount : 1370
Размер потока : 57,2 Кбайт (0%)
Заголовок : Full
Язык : Russian
Default : Нет
Forced : Нет
Текст #2
Идентификатор : 5
Формат : UTF-8
Идентификатор кодека : S_TEXT/UTF8
Идентификатор кодека/Информация : UTF-8 Plain Text
Продолжительность : 1 ч. 47 м.
Битрейт : 208 бит/сек
ElementCount : 1642
Размер потока : 163 Кбайт (0%)
Заголовок : SDH
Язык : Russian
Default : Нет
Forced : Нет
Текст #3
Идентификатор : 6
Формат : UTF-8
Идентификатор кодека : S_TEXT/UTF8
Идентификатор кодека/Информация : UTF-8 Plain Text
Продолжительность : 1 ч. 52 м.
Битрейт : 56 бит/сек
ElementCount : 1740
Размер потока : 46,6 Кбайт (0%)
Язык : English
Default : Нет
Forced : Нет
Меню
00:00:00.000 : :Capítulo 01
00:04:50.498 : :Capítulo 02
00:10:51.067 : :Capítulo 03
00:17:47.691 : :Capítulo 04
00:23:53.014 : :Capítulo 05
00:30:00.131 : :Capítulo 06
00:33:05.066 : :Capítulo 07
00:37:09.310 : :Capítulo 08
00:43:42.911 : :Capítulo 09
00:50:47.335 : :Capítulo 10
00:55:02.716 : :Capítulo 11
00:59:48.459 : :Capítulo 12
01:06:27.233 : :Capítulo 13
01:14:32.092 : :Capítulo 14
01:18:26.410 : :Capítulo 15
01:23:07.899 : :Capítulo 16
01:28:04.654 : :Capítulo 17
01:33:10.876 : :Capítulo 18
01:37:13.744 : :Capítulo 19
01:44:39.189 : :Capítulo 20
01:47:47.335 : :Capítulo 21
Скриншоты:
       
 

The time now is: Today 08:57

All times are GMT + 3 Hours