Today is a free download without charge Download

Search found 500 matches

Author Message

Kon912

Post 09-Jul-2020 22:57

[Quote]

Кубанские казаки- Год выхода: 1949
Страна: СССР
Студия: Мосфильм
Жанр: Мюзикл, комедия
Продолжительность: 01:48:54
Перевод: Не требуется | Лицензия Blu-ray RUS-Режиссер:
Иван Пырьев-В ролях:
Сергей Лукьянов, Марина Ладынина, Александр Хвыля, Владлен Давыдов, Владимир Володин, Екатерина Савинова, Андрей Петров, Владимир Дорофеев, Елена Савицкая, Валентина Телегина-О фильме:
На колхозной ярмарке встречаются представители двух процветающих кубанских колхозов — Галина Пересветова и Гордей Ворон. Они любят друг друга, но скрывают свои чувства, ведь Галина и Гордей — давние конкуренты. Они соревнуются в трудовых подвигах, и главное для каждого из них — вывести свой колхоз на первое место..- -Качество: BDRip 1080p
Формат: MKV
Видео: 1488x1080 (1,378:1), 23,976 fps, MPEG-4 AVC, 13,4 Мbps avg, 0.349 bit/pixel
Аудио: AC3, 48 kHz, 2 ch, ~640.00 kbps avg | русский | Blu-ray RUS
Субтитры: Отсутствуют-

Инфо-файл

Общее
Уникальный идентификатор : 201072666947289089814011899204751268030 (0x97452FE1030982B27180CAA79EE718BE)
Полное имя : Kubanskie.kazaki.1949.1080p.BluRay.DD2.0.x264.mkv
Формат : Matroska
Версия формата : Version 4
Размер файла : 10,7 Гбайт
Продолжительность : 1 ч. 48 м.
Общий поток : 14,1 Мбит/сек
Название фильма : Кубанские казаки (1949)
Дата кодирования : UTC 2020-07-09 07:50:12
Программа кодирования : mkvmerge v47.0.0 ('Black Flag') 64-bit
Библиотека кодирования : libebml v1.3.10 + libmatroska v1.5.2
Обложка : Yes
Attachments : cover.jpg
Видео
Идентификатор : 1
Формат : AVC
Формат/Информация : Advanced Video Codec
Профиль формата : [email protected]
Настройки формата : CABAC / 5 Ref Frames
Параметр CABAC формата : Да
Параметр RefFrames формата : 5 кадров
Идентификатор кодека : V_MPEG4/ISO/AVC
Продолжительность : 1 ч. 48 м.
Битрейт : 13,4 Мбит/сек
Ширина : 1 488 пикселей
Высота : 1 080 пикселей
Соотношение сторон : 1,378
Режим частоты кадров : Постоянный
Частота кадров : 23,976 (24000/1001) кадра/сек
Цветовое пространство : YUV
Субдискретизация насыщенности : 4:2:0
Битовая глубина : 8 бит
Тип развёртки : Прогрессивная
Бит/(Пиксели*Кадры) : 0.349
Размер потока : 10,2 Гбайт (95%)
Заголовок : #stillet
Библиотека кодирования : x264 core 152 r2851bm ba24899
Настройки программы : cabac=1 / ref=5 / deblock=1:-3:-3 / analyse=0x3:0x113 / me=umh / subme=10 / psy=1 / psy_rd=1.00:0.15 / mixed_ref=1 / me_range=32 / chroma_me=1 / trellis=2 / 8x8dct=1 / cqm=0 / deadzone=21,11 / fast_pskip=0 / chroma_qp_offset=-3 / threads=12 / lookahead_threads=3 / sliced_threads=0 / nr=0 / decimate=0 / interlaced=0 / bluray_compat=0 / constrained_intra=0 / bframes=10 / b_pyramid=2 / b_adapt=2 / b_bias=0 / direct=3 / weightb=1 / open_gop=0 / weightp=2 / keyint=240 / keyint_min=23 / scenecut=40 / intra_refresh=0 / rc_lookahead=40 / rc=2pass / mbtree=0 / bitrate=13442 / ratetol=1.0 / qcomp=0.60 / qpmin=0 / qpmax=69 / qpstep=4 / cplxblur=20.0 / qblur=0.5 / vbv_maxrate=50000 / vbv_bufsize=62500 / nal_hrd=none / filler=0 / ip_ratio=1.40 / pb_ratio=1.30 / aq=1:1.00
Язык : English
Default : Да
Forced : Нет
Аудио
Идентификатор : 2
Формат : AC-3
Формат/Информация : Audio Coding 3
Коммерческое название : Dolby Digital
Идентификатор кодека : A_AC3
Продолжительность : 1 ч. 48 м.
Вид битрейта : Постоянный
Битрейт : 640 Кбит/сек
Каналы : 2 канала
Channel layout : L R
Частота : 48,0 КГц
Частота кадров : 31,250 кадров/сек (1536 SPF)
Метод сжатия : С потерями
Размер потока : 499 Мбайт (5%)
Заголовок : Blu-ray RUS
Язык : Russian
Default : Да
Forced : Нет

Скриншоты

         

Kon912

Post 09-Jul-2020 22:55

[Quote]

Кубанские казаки- Год выхода: 1949
Страна: СССР
Студия: Мосфильм
Жанр: Мюзикл, комедия
Продолжительность: 01:48:54
Перевод: Не требуется | Лицензия Blu-ray RUS-Режиссер:
Иван Пырьев-В ролях:
Сергей Лукьянов, Марина Ладынина, Александр Хвыля, Владлен Давыдов, Владимир Володин, Екатерина Савинова, Андрей Петров, Владимир Дорофеев, Елена Савицкая, Валентина Телегина-О фильме:
На колхозной ярмарке встречаются представители двух процветающих кубанских колхозов — Галина Пересветова и Гордей Ворон. Они любят друг друга, но скрывают свои чувства, ведь Галина и Гордей — давние конкуренты. Они соревнуются в трудовых подвигах, и главное для каждого из них — вывести свой колхоз на первое место..- -Качество: BDRip 720p
Формат: MKV
Видео: 992x720 (1,378:1), 23,976 fps, MPEG-4 AVC, 6320 Kbps avg, 0.369 bit/pixel
Аудио: AC3, 48 kHz, 2 ch, ~640.00 kbps avg | русский | Blu-ray RUS
Субтитры: Отсутствуют-

Инфо-файл

Общее
Уникальный идентификатор : 210711300023464754118438709614088945588 (0x9E85852E07665EB7E04EBA4056A9FFB4)
Полное имя : Kubanskie.kazaki.1949.720p.BluRay.DD2.0.x264.mkv
Формат : Matroska
Версия формата : Version 4
Размер файла : 5,30 Гбайт
Продолжительность : 1 ч. 48 м.
Общий поток : 6 962 Кбит/сек
Название фильма : Кубанские казаки (1949)
Дата кодирования : UTC 2020-07-09 10:10:31
Программа кодирования : mkvmerge v47.0.0 ('Black Flag') 64-bit
Библиотека кодирования : libebml v1.3.10 + libmatroska v1.5.2
Обложка : Yes
Attachments : cover.jpg
Видео
Идентификатор : 1
Формат : AVC
Формат/Информация : Advanced Video Codec
Профиль формата : [email protected]
Настройки формата : CABAC / 9 Ref Frames
Параметр CABAC формата : Да
Параметр RefFrames формата : 9 кадров
Идентификатор кодека : V_MPEG4/ISO/AVC
Продолжительность : 1 ч. 48 м.
Битрейт : 6 320 Кбит/сек
Ширина : 992 пикселя
Высота : 720 пикселей
Соотношение сторон : 1,378
Режим частоты кадров : Постоянный
Частота кадров : 23,976 (24000/1001) кадра/сек
Цветовое пространство : YUV
Субдискретизация насыщенности : 4:2:0
Битовая глубина : 8 бит
Тип развёртки : Прогрессивная
Бит/(Пиксели*Кадры) : 0.369
Размер потока : 4,81 Гбайт (91%)
Заголовок : #stillet
Библиотека кодирования : x264 core 152 r2851bm ba24899
Настройки программы : cabac=1 / ref=9 / deblock=1:-3:-3 / analyse=0x3:0x113 / me=umh / subme=10 / psy=1 / psy_rd=1.00:0.15 / mixed_ref=1 / me_range=32 / chroma_me=1 / trellis=2 / 8x8dct=1 / cqm=0 / deadzone=21,11 / fast_pskip=0 / chroma_qp_offset=-3 / threads=12 / lookahead_threads=3 / sliced_threads=0 / nr=0 / decimate=0 / interlaced=0 / bluray_compat=0 / constrained_intra=0 / bframes=8 / b_pyramid=2 / b_adapt=2 / b_bias=0 / direct=3 / weightb=1 / open_gop=0 / weightp=2 / keyint=240 / keyint_min=23 / scenecut=40 / intra_refresh=0 / rc_lookahead=40 / rc=2pass / mbtree=0 / bitrate=6320 / ratetol=1.0 / qcomp=0.60 / qpmin=0 / qpmax=69 / qpstep=4 / cplxblur=20.0 / qblur=0.5 / vbv_maxrate=50000 / vbv_bufsize=62500 / nal_hrd=none / filler=0 / ip_ratio=1.40 / pb_ratio=1.30 / aq=1:1.00
Язык : English
Default : Да
Forced : Нет
Аудио
Идентификатор : 2
Формат : AC-3
Формат/Информация : Audio Coding 3
Коммерческое название : Dolby Digital
Идентификатор кодека : A_AC3
Продолжительность : 1 ч. 48 м.
Вид битрейта : Постоянный
Битрейт : 640 Кбит/сек
Каналы : 2 канала
Channel layout : L R
Частота : 48,0 КГц
Частота кадров : 31,250 кадров/сек (1536 SPF)
Метод сжатия : С потерями
Размер потока : 499 Мбайт (9%)
Заголовок : Blu-ray RUS
Язык : Russian
Default : Да
Forced : Нет

Скриншоты

         

Kon912

Post 03-Jul-2020 23:58

[Quote]

Текст- Год выхода: 2019
Страна: Россия
Студия: Фонд развития современного кинематографа «КИНОПРАЙМ», Централ Партнершип, START Studio
Жанр: Драма, триллер
Продолжительность: 02:11:30
Перевод: Лицензия BD RUS (ненормативная лексика)-Режиссер:
Клим Шипенко-В ролях:
Александр Петров, Кристина Асмус, Иван Янковский, Софья Озерова, Максим Виноградов, Дмитрий Глуховский, Кирилл Нагиев, Елена Финогеева, Владимир Капустин, Павел Голубев и др.-О фильме:
27-летний Илья Горюнов семь лет отсидел в тюрьме по ложному обвинению в распространении наркотиков. Теперь он выходит на свободу движимый лишь одним желанием — отомстить тому мажору Петру, который подбросил ему наркотики и поломал жизнь. Встретившись лицом к лицу со своим обидчиком, Илья совершает импульсивный поступок и получает доступ к смартфону Петра, а с ним и к жизни молодого человека — его фотографиям и видео, перепискам с родителями и девушкой Ниной, к странным, полным недомолвок и угроз переговорам с коллегами. На время Илья становится для всех Петром — через текст на экране телефона.- -Качество: BDRip 1080p
Формат: MKV
Видео: MPEG-4 AVC, 1920x804, 12083 kbps, 24,000 fps
Звук#1: русский, AC3, 5.1 ch, 48 kHz, 640 kbps
Звук#2: русский, DTS, 5.1 ch, 48 kHz, 1509 kbps
Субтитры: нет-

MI

Общее
Уникальный идентификатор : 211630372775728797691205001068904908240 (0x9F3686F70ABCF048A6A650AAEDB305D0)
Полное имя : G:Torrent2TekstBDRip1080p.mkv
Формат : Matroska
Версия формата : Version 4 / Version 2
Размер файла : 13,1 Гбайт
Продолжительность : 2 ч. 11 м.
Общий поток : 14,2 Мбит/сек
Дата кодирования : UTC 2020-04-24 11:41:38
Программа кодирования : mkvmerge v9.5.0 ('Quiet Fire') 64bit
Библиотека кодирования : libebml v1.3.4 + libmatroska v1.4.5
Видео
Идентификатор : 1
Формат : AVC
Формат/Информация : Advanced Video Codec
Профиль формата : [email protected]
Настройки формата : CABAC / 5 Ref Frames
Параметр CABAC формата : Да
Параметр RefFrames формата : 5 кадров
Идентификатор кодека : V_MPEG4/ISO/AVC
Продолжительность : 2 ч. 11 м.
Битрейт : 12,1 Мбит/сек
Ширина : 1920 пикселей
Высота : 804 пикселя
Соотношение сторон : 2,40:1
Режим частоты кадров : Постоянный
Частота кадров : 24,000 кадра/сек
Цветовое пространство : YUV
Субдискретизация насыщенности : 4:2:0
Битовая глубина : 8 бит
Тип развёртки : Прогрессивная
Бит/(Пиксели*Кадры) : 0.326
Размер потока : 11,1 Гбайт (85%)
Заголовок : Sisendrovich(R)
Библиотека кодирования : x264 core 159 r2991 1771b55
Настройки программы : cabac=1 / ref=5 / deblock=1:-1:-1 / analyse=0x3:0x133 / me=tesa / subme=11 / psy=1 / psy_rd=1.00:0.00 / mixed_ref=1 / me_range=32 / chroma_me=1 / trellis=2 / 8x8dct=1 / cqm=0 / deadzone=21,11 / fast_pskip=0 / chroma_qp_offset=-2 / threads=24 / lookahead_threads=6 / sliced_threads=0 / nr=0 / decimate=0 / interlaced=0 / bluray_compat=0 / constrained_intra=0 / bframes=10 / b_pyramid=2 / b_adapt=2 / b_bias=0 / direct=3 / weightb=1 / open_gop=0 / weightp=2 / keyint=240 / keyint_min=23 / scenecut=40 / intra_refresh=0 / rc_lookahead=60 / rc=2pass / mbtree=0 / bitrate=12083 / ratetol=1.0 / qcomp=0.70 / qpmin=0 / qpmax=69 / qpstep=4 / cplxblur=20.0 / qblur=0.5 / vbv_maxrate=50000 / vbv_bufsize=62500 / nal_hrd=none / filler=0 / ip_ratio=1.40 / pb_ratio=1.30 / aq=3:0.90
Язык : Russian
Default : Да
Forced : Нет
Аудио #1
Идентификатор : 2
Формат : AC-3
Формат/Информация : Audio Coding 3
Параметр Endianness формата : Big
Идентификатор кодека : A_AC3
Продолжительность : 2 ч. 11 м.
Вид битрейта : Постоянный
Битрейт : 640 Кбит/сек
Каналы : 6 каналов
Расположение каналов : Front: L C R, Side: L R, LFE
Частота : 48,0 КГц
Частота кадров : 31,250 кадров/сек (1536 SPF)
Битовая глубина : 16 бит
Метод сжатия : С потерями
Размер потока : 602 Мбайт (4%)
Заголовок : rusAC3
Язык : Russian
Default : Да
Forced : Нет
Аудио #2
Идентификатор : 3
Формат : DTS
Формат/Информация : Digital Theater Systems
Режим : 16
Параметр Endianness формата : Big
Идентификатор кодека : A_DTS
Продолжительность : 2 ч. 11 м.
Вид битрейта : Постоянный
Битрейт : 1509 Кбит/сек
Каналы : 6 каналов
Расположение каналов : Front: L C R, Side: L R, LFE
Частота : 48,0 КГц
Частота кадров : 93,750 кадра/сек (512 SPF)
Битовая глубина : 24 бит
Метод сжатия : С потерями
Размер потока : 1,39 Гбайт (11%)
Заголовок : rusDTS
Язык : Russian
Default : Нет
Forced : Нет
Меню
00:00:00.000 : en:Chapter 1
00:00:33.083 : en:Chapter 2
00:11:21.666 : en:Chapter 3
00:22:13.000 : en:Chapter 4
00:34:28.166 : en:Chapter 5
00:50:25.375 : en:Chapter 6
01:03:27.666 : en:Chapter 7
01:18:00.625 : en:Chapter 8
01:30:13.750 : en:Chapter 9
01:44:06.916 : en:Chapter 10
01:57:59.083 : en:Chapter 11

Скриншоты

         

Рип и релиз от:

Kon912

Post 03-Jul-2020 23:57

[Quote]

Текст- Год выхода: 2019
Страна: Россия
Студия: Фонд развития современного кинематографа «КИНОПРАЙМ», Централ Партнершип, START Studio
Жанр: Драма, триллер
Продолжительность: 02:11:30
Перевод: Лицензия BD RUS (ненормативная лексика)-Режиссер:
Клим Шипенко-В ролях:
Александр Петров, Кристина Асмус, Иван Янковский, Софья Озерова, Максим Виноградов, Дмитрий Глуховский, Кирилл Нагиев, Елена Финогеева, Владимир Капустин, Павел Голубев и др.-О фильме:
27-летний Илья Горюнов семь лет отсидел в тюрьме по ложному обвинению в распространении наркотиков. Теперь он выходит на свободу движимый лишь одним желанием — отомстить тому мажору Петру, который подбросил ему наркотики и поломал жизнь. Встретившись лицом к лицу со своим обидчиком, Илья совершает импульсивный поступок и получает доступ к смартфону Петра, а с ним и к жизни молодого человека — его фотографиям и видео, перепискам с родителями и девушкой Ниной, к странным, полным недомолвок и угроз переговорам с коллегами. На время Илья становится для всех Петром — через текст на экране телефона.- -Качество: BDRip 720p
Формат: MKV
Видео: MPEG-4 AVC, 1280x536, 5246 kbps, 24,000 fps
Звук#1: русский, AC3, 5.1 ch, 48 kHz, 640 kbps
Звук#2: русский, DTS, 5.1 ch, 48 kHz, 1509 kbps
Субтитры: нет-

MI

Общее
Уникальный идентификатор : 232379338949900974777056336846588903627 (0xAED2A1FADBDEBB2D8145B6F4DFF680CB)
Полное имя : G:Torrent2TekstBDRip720p.mkv
Формат : Matroska
Версия формата : Version 4 / Version 2
Размер файла : 6,79 Гбайт
Продолжительность : 2 ч. 11 м.
Общий поток : 7391 Кбит/сек
Дата кодирования : UTC 2020-04-24 12:05:47
Программа кодирования : mkvmerge v9.5.0 ('Quiet Fire') 64bit
Библиотека кодирования : libebml v1.3.4 + libmatroska v1.4.5
Видео
Идентификатор : 1
Формат : AVC
Формат/Информация : Advanced Video Codec
Профиль формата : [email protected]
Настройки формата : CABAC / 12 Ref Frames
Параметр CABAC формата : Да
Параметр RefFrames формата : 12 кадров
Идентификатор кодека : V_MPEG4/ISO/AVC
Продолжительность : 2 ч. 11 м.
Битрейт : 5246 Кбит/сек
Ширина : 1280 пикселей
Высота : 536 пикселей
Соотношение сторон : 2,40:1
Режим частоты кадров : Постоянный
Частота кадров : 24,000 кадра/сек
Цветовое пространство : YUV
Субдискретизация насыщенности : 4:2:0
Битовая глубина : 8 бит
Тип развёртки : Прогрессивная
Бит/(Пиксели*Кадры) : 0.319
Размер потока : 4,81 Гбайт (71%)
Заголовок : Sisendrovich(R)
Библиотека кодирования : x264 core 159 r2991 1771b55
Настройки программы : cabac=1 / ref=12 / deblock=1:-1:-1 / analyse=0x3:0x133 / me=tesa / subme=11 / psy=1 / psy_rd=1.00:0.00 / mixed_ref=1 / me_range=32 / chroma_me=1 / trellis=2 / 8x8dct=1 / cqm=0 / deadzone=21,11 / fast_pskip=0 / chroma_qp_offset=-2 / threads=17 / lookahead_threads=4 / sliced_threads=0 / nr=0 / decimate=0 / interlaced=0 / bluray_compat=0 / constrained_intra=0 / bframes=14 / b_pyramid=2 / b_adapt=2 / b_bias=0 / direct=3 / weightb=1 / open_gop=0 / weightp=2 / keyint=240 / keyint_min=23 / scenecut=40 / intra_refresh=0 / rc_lookahead=60 / rc=2pass / mbtree=0 / bitrate=5246 / ratetol=1.0 / qcomp=0.70 / qpmin=0 / qpmax=69 / qpstep=4 / cplxblur=20.0 / qblur=0.5 / vbv_maxrate=50000 / vbv_bufsize=62500 / nal_hrd=none / filler=0 / ip_ratio=1.40 / pb_ratio=1.30 / aq=3:0.90
Язык : Russian
Default : Да
Forced : Нет
Аудио #1
Идентификатор : 2
Формат : AC-3
Формат/Информация : Audio Coding 3
Параметр Endianness формата : Big
Идентификатор кодека : A_AC3
Продолжительность : 2 ч. 11 м.
Вид битрейта : Постоянный
Битрейт : 640 Кбит/сек
Каналы : 6 каналов
Расположение каналов : Front: L C R, Side: L R, LFE
Частота : 48,0 КГц
Частота кадров : 31,250 кадров/сек (1536 SPF)
Битовая глубина : 16 бит
Метод сжатия : С потерями
Размер потока : 602 Мбайт (9%)
Заголовок : rusAC3
Язык : Russian
Default : Да
Forced : Нет
Аудио #2
Идентификатор : 3
Формат : DTS
Формат/Информация : Digital Theater Systems
Режим : 16
Параметр Endianness формата : Big
Идентификатор кодека : A_DTS
Продолжительность : 2 ч. 11 м.
Вид битрейта : Постоянный
Битрейт : 1509 Кбит/сек
Каналы : 6 каналов
Расположение каналов : Front: L C R, Side: L R, LFE
Частота : 48,0 КГц
Частота кадров : 93,750 кадра/сек (512 SPF)
Битовая глубина : 24 бит
Метод сжатия : С потерями
Размер потока : 1,39 Гбайт (20%)
Заголовок : rusDTS
Язык : Russian
Default : Нет
Forced : Нет
Меню
00:00:00.000 : en:Chapter 1
00:00:33.083 : en:Chapter 2
00:11:21.666 : en:Chapter 3
00:22:13.000 : en:Chapter 4
00:34:28.166 : en:Chapter 5
00:50:25.375 : en:Chapter 6
01:03:27.666 : en:Chapter 7
01:18:00.625 : en:Chapter 8
01:30:13.750 : en:Chapter 9
01:44:06.916 : en:Chapter 10
01:57:59.083 : en:Chapter 11

Скриншоты

         

Рип и релиз от:

Kon912

Post 11-Jun-2020 20:13

[Quote]

Тайна печати дракона / Viy 2 / The Mystery of Dragon Seal: The Journey to China- Год выхода: 2019
Страна: Россия, Китай
Жанр: Приключения
Продолжительность: 02:00:24
Переводы: Дублированный | Лицензия BD RUS-Режиссер:
Олег Степченко-В ролях:
Джейсон Флеминг, Арнольд Шварценеггер, Чарльз Дэнс, Джеки Чан, Яо Синтун, Кристофер Фэйрбэнк, Рутгер Хауэр, Мартин Клебба, Юрий Колокольников, Павел Воля и др.-О фильме:
Английский путешественник Джонатан Грин получает от Петра I заказ на изготовление карт Дальнего Востока России. Ему вновь предстоит долгий путь, полный невероятных приключений, который приведет его в Китай. Картограф столкнется с массой головокружительных открытий, неожиданных встреч с диковинными существами, китайскими принцессами, мастерами смертоносных боевых искусств и самим Лун-Ван, Царем всех драконов. Что может быть опаснее, чем посмотреть в глаза Вию? Разве что встретиться с ним вновь. Что на этот раз окажется сильнее — непоколебимый скептицизм ученого или древняя черная магия, уже давно захватившая власть в Восточных землях?- -Качество: BDRip 1080p
Формат: MKV
Видео: MPEG-4 AVC, 1920x1080, 18719 kbps, 24,000 fps
Звук#1: русский, AC3, 5.1 ch, 48 kHz, 640 kbps
Звук#2: русский, DTS, 5.1 ch, 48 kHz, 1509 kbps
Субтитры: русские (форс.)-

MI

Общее
Уникальный идентификатор : 239317473134120308909365612852620044609 (0xB40ADE67DE5C61848BC6B9542C502941)
Полное имя : E:Torrent4Tajna.Pechati.DrakonaBDRip1080p.mkv
Формат : Matroska
Версия формата : Version 4 / Version 2
Размер файла : 17,5 Гбайт
Продолжительность : 2 ч. 0 м.
Общий поток : 20,8 Мбит/сек
Дата кодирования : UTC 2020-06-11 09:08:24
Программа кодирования : mkvmerge v9.5.0 ('Quiet Fire') 64bit
Библиотека кодирования : libebml v1.3.4 + libmatroska v1.4.5
Видео
Идентификатор : 1
Формат : AVC
Формат/Информация : Advanced Video Codec
Профиль формата : [email protected]
Настройки формата : CABAC / 4 Ref Frames
Параметр CABAC формата : Да
Параметр RefFrames формата : 4 кадра
Идентификатор кодека : V_MPEG4/ISO/AVC
Продолжительность : 2 ч. 0 м.
Битрейт : 18,7 Мбит/сек
Ширина : 1920 пикселей
Высота : 1080 пикселей
Соотношение сторон : 16:9
Режим частоты кадров : Постоянный
Частота кадров : 24,000 кадра/сек
Цветовое пространство : YUV
Субдискретизация насыщенности : 4:2:0
Битовая глубина : 8 бит
Тип развёртки : Прогрессивная
Бит/(Пиксели*Кадры) : 0.376
Размер потока : 15,7 Гбайт (90%)
Заголовок : Sisendrovich(R)
Библиотека кодирования : x264 core 159 r2991 1771b55
Настройки программы : cabac=1 / ref=4 / deblock=1:-1:-1 / analyse=0x3:0x133 / me=tesa / subme=11 / psy=1 / psy_rd=1.00:0.00 / mixed_ref=1 / me_range=32 / chroma_me=1 / trellis=2 / 8x8dct=1 / cqm=0 / deadzone=21,11 / fast_pskip=0 / chroma_qp_offset=-2 / threads=24 / lookahead_threads=4 / sliced_threads=0 / nr=0 / decimate=0 / interlaced=0 / bluray_compat=0 / constrained_intra=0 / bframes=8 / b_pyramid=2 / b_adapt=2 / b_bias=0 / direct=3 / weightb=1 / open_gop=0 / weightp=2 / keyint=240 / keyint_min=23 / scenecut=40 / intra_refresh=0 / rc_lookahead=60 / rc=2pass / mbtree=0 / bitrate=18719 / ratetol=1.0 / qcomp=0.70 / qpmin=0 / qpmax=69 / qpstep=4 / cplxblur=20.0 / qblur=0.5 / vbv_maxrate=50000 / vbv_bufsize=62500 / nal_hrd=none / filler=0 / ip_ratio=1.40 / pb_ratio=1.30 / aq=3:0.80
Язык : English
Default : Да
Forced : Нет
Аудио #1
Идентификатор : 2
Формат : AC-3
Формат/Информация : Audio Coding 3
Параметр Endianness формата : Big
Идентификатор кодека : A_AC3
Продолжительность : 2 ч. 0 м.
Вид битрейта : Постоянный
Битрейт : 640 Кбит/сек
Каналы : 6 каналов
Расположение каналов : Front: L C R, Side: L R, LFE
Частота : 48,0 КГц
Частота кадров : 31,250 кадров/сек (1536 SPF)
Битовая глубина : 16 бит
Метод сжатия : С потерями
Размер потока : 551 Мбайт (3%)
Заголовок : rus AC3
Язык : Russian
Default : Да
Forced : Нет
Аудио #2
Идентификатор : 3
Формат : DTS
Формат/Информация : Digital Theater Systems
Режим : 16
Параметр Endianness формата : Big
Идентификатор кодека : A_DTS
Продолжительность : 2 ч. 0 м.
Вид битрейта : Постоянный
Битрейт : 1509 Кбит/сек
Каналы : 6 каналов
Расположение каналов : Front: L C R, Side: L R, LFE
Частота : 48,0 КГц
Частота кадров : 93,750 кадра/сек (512 SPF)
Битовая глубина : 24 бит
Метод сжатия : С потерями
Размер потока : 1,27 Гбайт (7%)
Заголовок : rus DTS
Язык : Russian
Default : Нет
Forced : Нет
Текст
Идентификатор : 4
Формат : UTF-8
Идентификатор кодека : S_TEXT/UTF8
Идентификатор кодека/Информация : UTF-8 Plain Text
Продолжительность : 12 м. 31 с.
Битрейт : 11 бит/сек
ElementCount : 23
Размер потока : 1,04 Кбайт (0%)
Заголовок : rusForced
Язык : Russian
Default : Да
Forced : Нет
Меню
00:00:00.000 : en:Chapter 1
00:04:29.083 : en:Chapter 2
00:15:36.958 : en:Chapter 3
00:27:35.000 : en:Chapter 4
00:42:31.916 : en:Chapter 5
00:54:39.000 : en:Chapter 6
01:06:23.333 : en:Chapter 7
01:19:20.041 : en:Chapter 8
01:31:20.833 : en:Chapter 9
01:42:30.291 : en:Chapter 10
01:49:41.916 : en:Chapter 11

Скриншоты

           

Kon912

Post 11-Jun-2020 20:10

[Quote]

Тайна печати дракона / Viy 2 / The Mystery of Dragon Seal: The Journey to China- Год выхода: 2019
Страна: Россия, Китай
Жанр: Приключения
Продолжительность: 02:00:24
Переводы: Дублированный | Лицензия BD RUS-Режиссер:
Олег Степченко-В ролях:
Джейсон Флеминг, Арнольд Шварценеггер, Чарльз Дэнс, Джеки Чан, Яо Синтун, Кристофер Фэйрбэнк, Рутгер Хауэр, Мартин Клебба, Юрий Колокольников, Павел Воля и др.-О фильме:
Английский путешественник Джонатан Грин получает от Петра I заказ на изготовление карт Дальнего Востока России. Ему вновь предстоит долгий путь, полный невероятных приключений, который приведет его в Китай. Картограф столкнется с массой головокружительных открытий, неожиданных встреч с диковинными существами, китайскими принцессами, мастерами смертоносных боевых искусств и самим Лун-Ван, Царем всех драконов. Что может быть опаснее, чем посмотреть в глаза Вию? Разве что встретиться с ним вновь. Что на этот раз окажется сильнее — непоколебимый скептицизм ученого или древняя черная магия, уже давно захватившая власть в Восточных землях?- -Качество: BDRip 720p
Формат: MKV
Видео: MPEG-4 AVC, 1280x720, 11453 kbps, 24,000 fps
Звук#1: русский, AC3, 5.1 ch, 48 kHz, 640 kbps
Звук#2: русский, DTS, 5.1 ch, 48 kHz, 1509 kbps
Субтитры: русские (форс.)-

MI

Общее
Уникальный идентификатор : 175439407933055095781066817258565999076 (0x83FC66A274C5045AA1CEBEFD7A2519E4)
Полное имя : E:Torrent4Tajna.Pechati.DrakonaBDRip720p.mkv
Формат : Matroska
Версия формата : Version 4 / Version 2
Размер файла : 11,4 Гбайт
Продолжительность : 2 ч. 0 м.
Общий поток : 13,6 Мбит/сек
Дата кодирования : UTC 2020-06-11 09:20:59
Программа кодирования : mkvmerge v9.5.0 ('Quiet Fire') 64bit
Библиотека кодирования : libebml v1.3.4 + libmatroska v1.4.5
Видео
Идентификатор : 1
Формат : AVC
Формат/Информация : Advanced Video Codec
Профиль формата : [email protected]
Настройки формата : CABAC / 9 Ref Frames
Параметр CABAC формата : Да
Параметр RefFrames формата : 9 кадров
Идентификатор кодека : V_MPEG4/ISO/AVC
Продолжительность : 2 ч. 0 м.
Битрейт : 11,5 Мбит/сек
Ширина : 1280 пикселей
Высота : 720 пикселей
Соотношение сторон : 16:9
Режим частоты кадров : Постоянный
Частота кадров : 24,000 кадра/сек
Цветовое пространство : YUV
Субдискретизация насыщенности : 4:2:0
Битовая глубина : 8 бит
Тип развёртки : Прогрессивная
Бит/(Пиксели*Кадры) : 0.518
Размер потока : 9,61 Гбайт (84%)
Заголовок : Sisendrovich(R)
Библиотека кодирования : x264 core 159 r2991 1771b55
Настройки программы : cabac=1 / ref=9 / deblock=1:-1:-1 / analyse=0x3:0x133 / me=tesa / subme=11 / psy=1 / psy_rd=1.00:0.00 / mixed_ref=1 / me_range=32 / chroma_me=1 / trellis=2 / 8x8dct=1 / cqm=0 / deadzone=21,11 / fast_pskip=0 / chroma_qp_offset=-2 / threads=22 / lookahead_threads=3 / sliced_threads=0 / nr=0 / decimate=0 / interlaced=0 / bluray_compat=0 / constrained_intra=0 / bframes=8 / b_pyramid=2 / b_adapt=2 / b_bias=0 / direct=3 / weightb=1 / open_gop=0 / weightp=2 / keyint=240 / keyint_min=23 / scenecut=40 / intra_refresh=0 / rc_lookahead=60 / rc=2pass / mbtree=0 / bitrate=11453 / ratetol=1.0 / qcomp=0.70 / qpmin=0 / qpmax=69 / qpstep=4 / cplxblur=20.0 / qblur=0.5 / vbv_maxrate=50000 / vbv_bufsize=62500 / nal_hrd=none / filler=0 / ip_ratio=1.40 / pb_ratio=1.30 / aq=3:0.80
Язык : English
Default : Да
Forced : Нет
Аудио #1
Идентификатор : 2
Формат : AC-3
Формат/Информация : Audio Coding 3
Параметр Endianness формата : Big
Идентификатор кодека : A_AC3
Продолжительность : 2 ч. 0 м.
Вид битрейта : Постоянный
Битрейт : 640 Кбит/сек
Каналы : 6 каналов
Расположение каналов : Front: L C R, Side: L R, LFE
Частота : 48,0 КГц
Частота кадров : 31,250 кадров/сек (1536 SPF)
Битовая глубина : 16 бит
Метод сжатия : С потерями
Размер потока : 551 Мбайт (5%)
Заголовок : rus AC3
Язык : Russian
Default : Да
Forced : Нет
Аудио #2
Идентификатор : 3
Формат : DTS
Формат/Информация : Digital Theater Systems
Режим : 16
Параметр Endianness формата : Big
Идентификатор кодека : A_DTS
Продолжительность : 2 ч. 0 м.
Вид битрейта : Постоянный
Битрейт : 1509 Кбит/сек
Каналы : 6 каналов
Расположение каналов : Front: L C R, Side: L R, LFE
Частота : 48,0 КГц
Частота кадров : 93,750 кадра/сек (512 SPF)
Битовая глубина : 24 бит
Метод сжатия : С потерями
Размер потока : 1,27 Гбайт (11%)
Заголовок : rus DTS
Язык : Russian
Default : Нет
Forced : Нет
Текст
Идентификатор : 4
Формат : UTF-8
Идентификатор кодека : S_TEXT/UTF8
Идентификатор кодека/Информация : UTF-8 Plain Text
Продолжительность : 12 м. 31 с.
Битрейт : 11 бит/сек
ElementCount : 23
Размер потока : 1,04 Кбайт (0%)
Заголовок : rusForced
Язык : Russian
Default : Да
Forced : Нет
Меню
00:00:00.000 : en:Chapter 1
00:04:29.083 : en:Chapter 2
00:15:36.958 : en:Chapter 3
00:27:35.000 : en:Chapter 4
00:42:31.916 : en:Chapter 5
00:54:39.000 : en:Chapter 6
01:06:23.333 : en:Chapter 7
01:19:20.041 : en:Chapter 8
01:31:20.833 : en:Chapter 9
01:42:30.291 : en:Chapter 10
01:49:41.916 : en:Chapter 11

Скриншоты

           

Theseus

Post 28-May-2020 15:38

[Quote]

Аванпост- Год выхода: 2019
Страна: Россия
Жанр: Триллер, фантастика, боевик
Продолжительность: 02:07:29
Перевод: Не требуется | Лицензия
Субтитры: Русские-Режиссер: Егор Баранов-В ролях: Лукерья Ильяшенко, Пётр Фёдоров, Светлана Иванова, Алексей Чадов, Ксения Кутепова, Константин Лавроненко, Филипп Авдеев, Артем Маркарьян, Сергей Годин, Артем Ткаченко-О фильме: В недалеком будущем что-то произошло. Связь с большей частью населенных пунктов Земли оборвалась. Космонавты передали с орбиты, что видят сверху небольшое пятно в Восточной Европе, по своим очертаниям напоминающее круг. То, что военные находят за границей этого круга, шокирует. В магазинах, в автомобилях, на дорогах, в зданиях больниц и вокзалов, повсюду — следы столкновений. Кто или что уничтожает все живое? И как долго продержится последний аванпост человечества?- -Качество: BDRemux 1080p
Формат: MKV
Видео кодек: H.264
Аудио кодек: AC3, DTS-HD MA
Видео: MPEG-4 AVC, 1920x1080 (16:9), 23.976 fps, 36.0 Mb/s
Аудио 1: AC-3, 48.0 kHz, 6 ch, 640 kb/s | RUS
Аудио 2: DTS-HD MA, 48.0 kHz, 6 ch, 2784 kb/s | RUS
Аудио 2: DTS-HD MA, 48.0 kHz, 6 ch, 2698 kb/s | ENG-

MI

Код:
General
Unique ID : 190466347638707462859295642810687209057 (0x8F4A7BF6993BF4949F6CCC22EBB4BE61)
Complete name : The.Blackout.2019.BDRemux.1080p.ExKinoRay.mkv
Format : Matroska
Format version : Version 4
File size : 36.5 GiB
Duration : 2 h 7 min
Overall bit rate mode : Variable
Overall bit rate : 41.0 Mb/s
Movie name : The Blackout 2019 from ExKinoRay
Encoded date : UTC 2020-05-28 00:03:40
Writing application : mkvmerge v7.3.0 ('Nouages') 64bit built on Oct 22 2014 18:53:34
Writing library : libebml v1.3.0 + libmatroska v1.4.1
Video
ID : 1
Format : AVC
Format/Info : Advanced Video Codec
Format profile : [email protected]
Format settings : CABAC / 4 Ref Frames
Format settings, CABAC : Yes
Format settings, Reference : 4 frames
Codec ID : V_MPEG4/ISO/AVC
Duration : 2 h 7 min
Bit rate mode : Constant
Bit rate : 36.0 Mb/s
Width : 1 920 pixels
Height : 1 080 pixels
Display aspect ratio : 16:9
Frame rate mode : Constant
Frame rate : 23.976 (24000/1001) FPS
Color space : YUV
Chroma subsampling : 4:2:0
Bit depth : 8 bits
Scan type : Progressive
Bits/(Pixel*Frame) : 0.724
Stream size : 31.1 GiB (85%)
Language : English
Default : Yes
Forced : No
Audio #1
ID : 2
Format : AC-3
Format/Info : Audio Coding 3
Commercial name : Dolby Digital
Codec ID : A_AC3
Duration : 2 h 7 min
Bit rate mode : Constant
Bit rate : 640 kb/s
Channel(s) : 6 channels
Channel layout : L R C LFE Ls Rs
Sampling rate : 48.0 kHz
Frame rate : 31.250 FPS (1536 SPF)
Compression mode : Lossy
Stream size : 584 MiB (2%)
Language : Russian
Service kind : Complete Main
Default : Yes
Forced : No
Audio #2
ID : 3
Format : DTS XLL
Format/Info : Digital Theater Systems
Commercial name : DTS-HD Master Audio
Codec ID : A_DTS
Duration : 2 h 7 min
Bit rate mode : Variable
Bit rate : 2 784 kb/s
Channel(s) : 6 channels
Channel layout : C L R Ls Rs LFE
Sampling rate : 48.0 kHz
Frame rate : 93.750 FPS (512 SPF)
Bit depth : 24 bits
Compression mode : Lossless
Stream size : 2.48 GiB (7%)
Language : Russian
Default : No
Forced : No
Audio #3
ID : 4
Format : DTS XLL
Format/Info : Digital Theater Systems
Commercial name : DTS-HD Master Audio
Codec ID : A_DTS
Duration : 2 h 7 min
Bit rate mode : Variable
Bit rate : 2 698 kb/s
Channel(s) : 6 channels
Channel layout : C L R Ls Rs LFE
Sampling rate : 48.0 kHz
Frame rate : 93.750 FPS (512 SPF)
Bit depth : 24 bits
Compression mode : Lossless
Stream size : 2.40 GiB (7%)
Language : English
Default : No
Forced : No
Text
ID : 5
Format : UTF-8
Codec ID : S_TEXT/UTF8
Codec ID/Info : UTF-8 Plain Text
Duration : 42 min 6 s
Bit rate : 2 b/s
Count of elements : 15
Stream size : 790 Bytes (0%)
Title : Forced
Language : Russian
Default : Yes
Forced : No
Menu
00:00:00.000 : en:Chapter 01
00:09:30.278 : en:Chapter 02
00:19:34.423 : en:Chapter 03
00:29:52.666 : en:Chapter 04
00:40:16.581 : en:Chapter 05
00:50:11.342 : en:Chapter 06
01:01:00.031 : en:Chapter 07
01:10:54.876 : en:Chapter 08
01:22:56.471 : en:Chapter 09
01:34:43.511 : en:Chapter 10
01:46:17.329 : en:Chapter 11
02:04:02.727 : en:Chapter 12

Трейлер

-     - -

Theseus

Post 27-May-2020 15:16

[Quote]

Аванпост- Год выхода: 2019
Страна: Россия
Жанр: Триллер, фантастика, боевик
Продолжительность: 02:07:30
Перевод: Не требуется | Лицензия
Субтитры: Английские-Режиссер: Егор Баранов-В ролях: Лукерья Ильяшенко, Пётр Фёдоров, Светлана Иванова, Алексей Чадов, Ксения Кутепова, Константин Лавроненко, Филипп Авдеев, Артем Маркарьян, Сергей Годин, Артем Ткаченко-О фильме: В недалеком будущем что-то произошло. Связь с большей частью населенных пунктов Земли оборвалась. Космонавты передали с орбиты, что видят сверху небольшое пятно в Восточной Европе, по своим очертаниям напоминающее круг. То, что военные находят за границей этого круга, шокирует. В магазинах, в автомобилях, на дорогах, в зданиях больниц и вокзалов, повсюду — следы столкновений. Кто или что уничтожает все живое? И как долго продержится последний аванпост человечества?- -Качество: BDRip 1080p
Формат: MKV
Видео кодек: H.265
Аудио кодек: AC3
Видео: HEVC, 1920x800 (2.40:1), 23.976 fps, 5 962 kb/s
Аудио 1: AC-3, 48.0 kHz, 6 ch, 640 kb/s | RUS
Аудио 2: AC-3, 48.0 kHz, 6 ch, 640 kb/s | ENG-Сэмпл-

MI

Код:
Общее
Уникальный идентификатор                 : 196236562346094181004418520310879188391 (0x93A1C9835B56971ABF7E2D018FED75A7)
Полное имя                               : The Blackout.2020.BDRip.1080p.HEVC.mkv
Формат                                   : Matroska
Версия формата                           : Version 4
Размер файла                             : 6,45 Гбайт
Продолжительность                        : 2 ч. 7 м.
Общий поток                              : 7244 Кбит/сек
Дата кодирования                         : UTC 2020-05-26 20:16:51
Программа кодирования                    : mkvmerge v8.3.0 ('Over the Horizon') 64bit
Библиотека кодирования                   : libebml v1.3.1 + libmatroska v1.4.2
Видео
Идентификатор                            : 1
Формат                                   : HEVC
Формат/Информация                        : High Efficiency Video Coding
Профиль формата                          : Main [email protected]@High
Идентификатор кодека                     : V_MPEGH/ISO/HEVC
Продолжительность                        : 2 ч. 7 м.
Битрейт                                  : 5962 Кбит/сек
Ширина                                   : 1920 пикселей
Высота                                   : 800 пикселей
Соотношение сторон                       : 2,40:1
Режим частоты кадров                     : Постоянный
Частота кадров                           : 23,976 (24000/1001) кадра/сек
Цветовое пространство                    : YUV
Субдискретизация насыщенности            : 4:2:0
Битовая глубина                          : 10 бит
Бит/(Пиксели*Кадры)                      : 0.162
Размер потока                            : 5,31 Гбайт (82%)
Язык                                     : English
Default                                  : Да
Forced                                   : Нет
Цветовой диапазон                        : Limited
Основные цвета                           : BT.709
Характеристики трансфера                 : BT.709
Коэффициенты матрицы                     : BT.709
Аудио #1
Идентификатор                            : 2
Формат                                   : AC-3
Формат/Информация                        : Audio Coding 3
Коммерческое название                    : Dolby Digital
Идентификатор кодека                     : A_AC3
Продолжительность                        : 2 ч. 7 м.
Вид битрейта                             : Постоянный
Битрейт                                  : 640 Кбит/сек
Каналы                                   : 6 каналов
Channel layout                           : L R C LFE Ls Rs
Частота                                  : 48,0 КГц
Частота кадров                           : 31,250 кадров/сек (1536 SPF)
Битовая глубина                          : 16 бит
Метод сжатия                             : С потерями
Размер потока                            : 584 Мбайт (9%)
Язык                                     : Russian
ServiceKind/String                       : Complete Main
Default                                  : Да
Forced                                   : Нет
Аудио #2
Идентификатор                            : 3
Формат                                   : AC-3
Формат/Информация                        : Audio Coding 3
Коммерческое название                    : Dolby Digital
Идентификатор кодека                     : A_AC3
Продолжительность                        : 2 ч. 7 м.
Вид битрейта                             : Постоянный
Битрейт                                  : 640 Кбит/сек
Каналы                                   : 6 каналов
Channel layout                           : L R C LFE Ls Rs
Частота                                  : 48,0 КГц
Частота кадров                           : 31,250 кадров/сек (1536 SPF)
Битовая глубина                          : 16 бит
Метод сжатия                             : С потерями
Размер потока                            : 584 Мбайт (9%)
Язык                                     : English
ServiceKind/String                       : Complete Main
Default                                  : Нет
Forced                                   : Нет
Текст #1
Идентификатор                            : 4
Формат                                   : UTF-8
Идентификатор кодека                     : S_TEXT/UTF8
Идентификатор кодека/Информация          : UTF-8 Plain Text
Продолжительность                        : 16 м. 50 с.
Битрейт                                  : 1 бит/сек
ElementCount                             : 5
Размер потока                            : 130 байт (0%)
Заголовок                                : Forced
Язык                                     : English
Default                                  : Нет
Forced                                   : Нет
Текст #2
Идентификатор                            : 5
Формат                                   : UTF-8
Идентификатор кодека                     : S_TEXT/UTF8
Идентификатор кодека/Информация          : UTF-8 Plain Text
Продолжительность                        : 2 ч. 1 м.
Битрейт                                  : 43 бит/сек
ElementCount                             : 1262
Размер потока                            : 38,5 Кбайт (0%)
Заголовок                                : Full
Язык                                     : English
Default                                  : Нет
Forced                                   : Нет
Меню
00:00:00.000                             : en:Chapter 01
00:09:30.278                             : en:Chapter 02
00:19:34.423                             : en:Chapter 03
00:29:52.666                             : en:Chapter 04
00:40:16.581                             : en:Chapter 05
00:50:11.342                             : en:Chapter 06
01:01:00.031                             : en:Chapter 07
01:10:54.876                             : en:Chapter 08
01:22:56.471                             : en:Chapter 09
01:34:43.511                             : en:Chapter 10
01:46:17.329                             : en:Chapter 11
02:04:02.727                             : en:Chapter 12

Трейлер

-     - - -Сборка релиза - Theseus

Kon912

Post 24-May-2020 20:19

[Quote]

Аванпост- Год выхода: 2019
Выпущено: Россия / 1-2-3 Production, TNT-Premier, Канал ТВ-3
Жанр: триллер, фантастика, боевик
Продолжительность: 02:07:29
Озвучивание: Оригинальное Лицензия-Режиссер:
Егор Баранов-В ролях:
Лукерья Ильяшенко, Пётр Фёдоров, Светлана Иванова, Алексей Чадов, Ксения Кутепова, Константин Лавроненко, Филипп Авдеев, Артем Маркарьян, Сергей Годин, Артём Ткаченко-О фильме:
В недалеком будущем что-то произошло. Связь с большей частью населенных пунктов Земли оборвалась. Космонавты передали с орбиты, что видят сверху небольшое пятно в Восточной Европе, по своим очертаниям напоминающее круг. То, что военные находят за границей этого круга, шокирует. В магазинах, в автомобилях, на дорогах, в зданиях больниц и вокзалов, повсюду — следы столкновений. Кто или что уничтожает все живое? И как долго продержится последний аванпост человечества?-*** Дата мировой премьеры: 22 ноября 2019
*** Дата российской премьеры: 21 ноября 2019, «Каропрокат»- | -

Доп. инфо

Рецензия от SatDynamo

Имеет место быть мнение, согласно которому любой кинофильм российского производства заведомо обладает низким качеством, и обеспечивать ему кассу (тем более, хвалить) могут лишь люди, абсолютно не разбирающиеся в кино. Представлено это соображение весьма широко, особенно, среди наиболее активного молодого поколения. Не буду оценивать степень его справедливости, констатируя лишь то, что какую-то основу под собой оно определённо имеет. Вероятно, скептический взгляд сегодняшних критиков формировался несколько ранее, в момент становления их кинематографических пристрастий, и теперь он накладывает свой отпечаток на все выходящие из российских «цехов» картины. Но опыт — явление персональное, а среди множества субъективных факторов, которым окружена сфера искусств, имеются и параметры, предрасположенные к измерению «линейкой».
Первым из таких факторов стало то, что российский кинематограф сегодня вполне способен предложить визуальные спецэффекты уровня среднестатистического голливудского блокбастера при многократно меньшей стоимости. Своим «внешним видом» фильм «Аванпост» полностью соответствует этому утверждению и продолжает начинания, заложенные во «Времени первых», «Салюте-7» и «Притяжении», а находящийся в пределах 10 млн долларов его бюджет так же десятикратно меньше величины, требуемой для достижения аналогичного результата на западных студиях.
Вторым фактором, сегодня определяющим российский кинематограф, становится широкая степень свободы. Во времена, когда зарубежные создатели тщательно нащупывают «золотую жилу», уменьшая риски, заигрывают с наиболее платежеспособной в кинотеатрах подростковой аудиторией в ущерб всем остальным, и предоставляют зрителям сиквелы и франшизы (что ныне уже невозможно идентифицировать иначе как кризис идей), российским авторам дозволено осуществлять творческий поиск с привлечением крупных (для нашего рынка) бюджетов в самых разных жанрах — историческом кино всех эпох от Древней Руси через Великую Отечественную войну к Балканскому конфликту, описании достижений СССР в освоении космоса, спортивных драмах, жанровых костюмированных фильмах («Дуэлянт», «Девятая») и фантастике, причем, не только в подростковой.
Этому фактору «Аванпост» так же соответствует: перед нами фантастический фильм по самодостаточному сценарию, не основанному на первоисточнике или предыдущей серии и не рассчитанному на обязательное продолжение — ныне подобное блюдо подаётся редко. Далее фиксируем отсутствие на центральных позициях фильма смазливых подростковых персонажей, обычно вводимых для того, чтобы завлечь в кинозал девичью аудиторию, продать больше билетов и напитков. Обращает на себя внимание и продолжительность: флагманы мирового кинематографа через ручных кинокритиков отчаянно внедряют в широкие массы идею о ненужности длительного хронометража в силу его мнимого неудобства для зрителя, прикрывая таким «фиговым листком» собственное стремление продать больше сеансов и уместить дополнительную рекламу, но «Аванпост» смело приглашает посвятить себе 2,5 часа, даже осознавая желание кинотеатров быстрее избавиться от «длинномера». Некоторые кадры и элементы сценария, и вовсе не ожидаешь увидеть в фильме, снятом при поддержке Вооруженных Сил — достаточно жёсткое подавление силовиками гражданских беспорядков, огромный портрет бен Ладена с намеком на террористическое подполье, упоминание недобрым словом «девяностых» и даже… изнасилование солдатом корреспондентки. Последний из этих примеров позволяет наблюдать, как отсутствие ограничений превращается в банальную глупость. Тонкой иронии авторов (а она здесь действительно есть, и чтобы обойтись без спойлеров, оставлю лишь ключевые слова «размножение и убийства» — кто смотрел, тот поймёт) в момент происходящего на экране уловит лишь ничтожная часть зрителей, но демонстрация российского флага на плече бойца, совершающего противоправное (хоть и без встречи сопротивления) действие — это абсолютно не то, что нужно Вооруженным Силам в момент нахождения их под перекрёстным огнём фэйков о Сирии и легенд об изнасилованных в 45ом году немках.
Начав, после обозначения положительных сторон фильма, обнаруживать просчёты, отметим, что и 2,5-часовой хронометраж — это наследие монтажа изначально двухсерийного фильма в единую картину. Информация эта для нас важна лишь при проверке того, насколько бесшовной произошла трансформация. Нельзя сказать, что последствия остались совсем незаметными: первое знакомство с персонажами несколько затруднено двумя временными линиями, а «эволюции» некоторых персон остались слишком внезапными, но основное действие фильма от смены формата не пострадало.
Наиболее заметной глазу объективной неоднозначностью «Аванпоста» являются заимствования визуально-звуковой стилистики «Бегущего по лезвию» при изображении Москвы недалёкого будущего (что даже оставляет незамеченными самобытные декорации некоторых других объектов) и космогонии и генезиса из «Прометея». Да, приз за новаторство авторы не получат абсолютно точно, но если брать — то у лучших, а фантастика уровня двух названных эталонов — это как раз то, что из-за засилья супергероики пребывает в дефиците.
Следующим поводом для сомнений стал свойственный многим фантастическим фильмам «проход по краю» в логике и физике, достоверно их не разрушающий, но оставляющий вопросы. Изложенная в фильме причина возникновения «круга жизни» гарантирует существование ещё одного не подвергнувшегося вымиранию региона с противоположной стороны планеты, и площадь его должна составлять ровно полушарие, но в фильме на это нет ни намёка. Такое положение можно списать на то, что зрителю предоставлена лишь информация, известная героям, а те из-за отсутствия связи могут не догадываться о другом очаге цивилизации. Следующий же просчёт и вовсе груб: абсолютно не раскрыта мотивация персонажа по имени «Ид», что для фильма, позиционирующего себя не аттракционом, а научной фантастикой в обёртке бодрого боевика, таящей хоть и не самую оригинальную, но вполне серьёзную идею, является серьёзной сценарной пробоиной. Особенно она досадна по причине того, что с другой, куда более сложной задачей сценаристы справились на «отлично»: на протяжении большей части весьма длинного фильма они успешно хранили интригу и нагнетали атмосферу неизвестности, заставляя зрителя неотрывно следить за действом, а в тот момент, когда пришла пора «выкладывать карты на стол» и рассеивать туман, авторы сделали пару «твистов» и обновили локации, что перенаправило интерес в другую плоскость без его снижения.
На этом универсальные критерии заканчиваются, а остальные, например игру актёров, при отсутствии ярко выраженных взлётов или провалов широкая публика обычно оценивает «задним числом» в зависимости от того, понравился фильм в целом или нет, так что оценки эти субъективны.
Стоит ли Вам, читатель этих строк, смотреть «Аванпост»? Чтобы узнать ответ на этот вопрос, пройдите очень лёгкий тест. «Если бы этот фильм был произведён не в России, а в Голливуде, он имел бы амбиции не менее чем на полмиллиарда долларов общемировых сборов» — если подобное моё утверждение не вызывает у Вас рефлекторного отторжения, то отсутствие предубеждений по национальному признаку позволяет уделить картине свой вечер. В таком случае по завершении просмотра Вы с лёгкой иронией отметите про себя, что, не смотря на наличие в фильме «размножения и убийств» (вновь эти ключевые понятия), «Аванпост» не имеет возможности похвастать внушительным спросом и результатами сборов, а значит… мы вовсе не те, кем нам отведено быть сюжетом этой картины.
8 из 10

Рецензия от glasnaroda

Последний оплот человечества
Отечественный кинематограф в последние годы перешел из стадии «лютый треш» в стадию «50/50». Среди кучи откровенно ужасных картин попадаются весьма достойные работы. В том жанре, куда направили свои силы создатели «Аванпоста», самой мощной доминантой последних лет был фильм «Притяжение», мнение о котором разделилось. Кто то считает работу Бондарчука — прорывом и новой вехой российской фантастики, особенно по части нового уровня качества звуковых эффектов, графики и стиля в целом, накладывая на наши а не голливудские реалии, разумеется. Другие, критически восприняли фильм, основываясь на своих многолетних ощущениях и восприятии к продукту под названием «Российское кино 21 века».
Что касается работы Егора Баранова,ему удалось развить положительные векторы и тенденции, во многом избежав ошибок и минусов того же «Притяжения».
В основе сюжета лежит постапокалиптическая ситуация, когда рушится фактически вся земная цивилизация, в живых остаются немногие, и люди пытается понять причины произошедшего, сохраняя призрачную надежду на выживание.
Главным плюсом кинокартины — является сюжетная линия. События и антураж держат в тонусе весь фильм, что позволяет без проблем высидеть два с половиной часа экранного времени. На моей памяти впервые, кода в отечественном фильме сюжетные интриги, ходы и предполагаемый финал — не являются открытой книгой уже на середине просмотра. И за это хочется сказать браво команде и талантливому сценаристу Илье Куликову, который уже привлекал внимание своими смелыми решениями в сериалах « Закон каменных джунглей» и «Чернобыль».
Действие разворачивается примерно в 2040 году, и на предполагаемую дату событий — довольно добротно выдержан стиль футуризма и «хайтека». Кое-что конечно смущало, как типовая электричка РЖД образца начала 2000-х годов, но количество подобных мелочей ничтожно мало и не портит атмосферы происходящего на экране.
Графическая составляющая удивила в положительном ключе. Остается загадкой бюджет, которым оперировали создатели картины, но графика выделяется в более сильную сторону по сравнению с тем же «Притяжением», за которую фильм Федора Бондарчука получил немало лестных отзывов.
Касаемо актерского состава и качества проработки персонажей, могу назвать только одного героя, чей характер, модель поведения, мотивы и поступки — в полной мере раскрыты перед зрителем. Это Юрий — в исполнение Петра Федорова. Образы же других героев — оставляют нам пространство для полета фантазии, позволяют написать предполагаемые мотивы и линии поведения на свой лад. Хорошо это или плохо-вечный вопрос. На мой взгляд, если картина в итоге получается целостной — раскрытие всех персонажей не является обязательным условием.
Еще одной фишкой «Аванпоста» — является, местами очень тонкий троллинг на политически-правовые, религиозные аспекты нашего современного российского общества. Люди, которые понимают о чем речь, без проблем найдут эти «пасхальные яйца» при просмотре.
А теперь к двум главным минусам киноленты.
Во — первых, касаемо ролей и сюжета, нельзя не отметить, что к концу просмотра так и не ясны истинные мотивы Ида. По сути прекрасная, стильная роль, отыгранная Артемом Ткаченко-оставила главный вопрос: «Для чего?».
Самым большим провалом «Аванпоста», является как ни парадоксально, само название кинокартины. Именно ужасное «имя фильма», как это бывает и в случае с зарубежными кинолентами, самым больным образом ударит по кассовым сборам. Сужу по себе. При слове «аванпост», сразу появляются ассоциации ограниченности происходящего, словно действие происходит на конкретном аванпосту, зажатом со всех сторон и только на нем. Потенциальный зритель не поймет до просмотра — что речь о «последнем аванпосте человечества». Добавляем сюда весьма невнятный трейлер, где акцент сделан на «лазерах -сверлящих темный лес». Добавим сюда типичное недоверие к современному российскому кинематографу, и получим, дай бог наполовину заполненные залы на отличный фильм, который заслуживает внимания широких масс.
Конечно, найдутся люди, которые увидят в работе Егора Баранова отсылки к таким Голливудским картинам как «Война миров Z» и «День, когда земля остановилась». Возможно и так. На выходе мы имеем качественный, стильный, футуристичный отечественный кинопродукт, в который вложены старания талантливой съемочной группы.
8 из 10

Рецензия от TakayaPetrushka

Отсчет пошел
«Аванпост» — проект, рассказывающий о России, существующей в годы глобального кризиса. По сюжету, в 2030 году, в результате некоторой катастрофы погибло почти 98 процентов населения Земли. Лишь в круге, диаметром 1000 метров, центром которого является Москва, люди продолжают борьбу за выживание…
Когда сценарист мега-популярных ТВ-проектов «Чернобыль: Зона отчуждения» и «Полицейского с Рублевки» объединил усилия с постановщиком другого хита теле и кинопроката — франшизы «Гоголь» — это стало не только любопытно, но и априори заявкой на успех. Фантастические фильмы смотрю очень редко, это не мой жанр, но почему-то, именно, этот фильм притягивал меня с самого первого просмотра трейлера, и я знала, что обязательно пойду на него. Фильм оказался очень стоящим, и я нисколечко не жалею о своём походе в кинотеатр и о потраченных на билет деньгах.
Пожалуй, начну с того, что поразило больше всего — компьютерная графика. Она была настолько шикарна, что просмотр в кино, лишь подчёркивал красоту и объём картинки при передаче видео. Я смотрела на экран, как завороженная в течении всего фильма, а длился он немало — сеанс начался в девять, а вышла я из зала уже после одиннадцати, точно даже не скажу, настолько находилась под впечатлением. Мне понравилось в фильме всё: подобранные актёры (как на главные, так и на второстепенные роли), и их реалистичная игра, понравилась сама картинка: мрачная и мощная одновременно, понравился сюжет и смысл.
Как бы это не было удивительно, но смысловая нагрузка у фильма очень значимая и на ней то как раз и построен весь фильм. Многие это кино, как я уже успела проглядеть, сравнивают с западными и голливудскими блокбастерами, где иноземные захватчики, пришельцы или зараженные всё крушат на своё пути, пытаются поработить Землю и как итог — происходит какой-нибудь апокалипсис! Как правило, в этих фильмах нет особого смысла: они призваны для большего эффекта разгромить, как можно больше городов, убить и покалечить как можно больше людей и всё обычно заканчивается и сразу же забывается. Я в них никогда не вижу смысла или по крайней мере, даже не пыталась их искать.
У этого фильма смысл заложен и в сюжет, и в каждое действие, в каждый взгляд отдельного персонажа и сразу бросается в глаза, что это не просто кино и захватывающая картинка — этот фильм нам всем наука, это фильм, который заставляет задуматься, что-то переосмыслить, по-другому взглянуть на важные вещи, не только вокруг себя, но и внутри себя! Сквозь призму такой вот авторской подачи постановщик показывает зрителю, насколько порой мы заблуждаемся в своих мыслях, в своей излишней агрессии, всегда и во всём виня других. Отчасти мы сами всегда себя накручиваем и толкаем на отчаянный шаг, на какое-то решение, которое в итоге оказывается неправильным.
Удача фильма — это не только заслуга режиссёра, но и всей сплочённой команды. Операторская работа, считаю, что тоже была на очень высоком уровне. Масштаб и мощь показанной картинки и удивляли, и реально притягивали одновременно. Грамотная подача материала — это тоже залог успеха, так же, как и красивый, смысловой финал с приятным послесловием. Ну и подбор актёров на роли — тоже решение немаловажное. Практически такое же, как и сама игра актёров.
В фильме снялось очень много известных и талантливых актёров — Ильяшенко, Фёдоров, Иванова, Чадов, Лавроненко — смотреть на них и наблюдать за игрой было очень интересно и приятно. Отдельно бы хотелось обратить ваше внимание на очень удачное музыкальное сопровождение и правильно и уместно подобранные треки к фильму. Меня в этом плане всё устроило на пять с плюсом.
Этот фильм мне очень понравился, и я его обязательно посмотрю ещё раз, когда он будет уже в хорошем качестве или когда его будут показывать по телевизору. Но это фильм, который, однозначно заслуживает внимания и хороших оценок. Смотрите, вдумывайтесь и наслаждайтесь зрелищностью и масштабом этой картины. Надеюсь, что разочарованных не будет! Всем спасибо за внимание.
8 из 10
-
Качество: BDRip 1080p
Формат: MKV
Видео кодек: AVC
Видео: MPEG-4 AVC, ~ 16.1 Mбит/с, 1920x804
Аудио 1: Русский (AC3, 6 ch, 640 Кбит/с) - Лицензия
Аудио 2: Английский (DTS, 6 ch, 1509 Кбит/с)
-

Скриншоты

     

Kon912

Post 24-May-2020 20:17

[Quote]

Аванпост- Год выхода: 2019
Выпущено: Россия / 1-2-3 Production, TNT-Premier, Канал ТВ-3
Жанр: триллер, фантастика, боевик
Продолжительность: 02:07:29
Озвучивание: Оригинальное Лицензия-Режиссер:
Егор Баранов-В ролях:
Лукерья Ильяшенко, Пётр Фёдоров, Светлана Иванова, Алексей Чадов, Ксения Кутепова, Константин Лавроненко, Филипп Авдеев, Артем Маркарьян, Сергей Годин, Артём Ткаченко-О фильме:
В недалеком будущем что-то произошло. Связь с большей частью населенных пунктов Земли оборвалась. Космонавты передали с орбиты, что видят сверху небольшое пятно в Восточной Европе, по своим очертаниям напоминающее круг. То, что военные находят за границей этого круга, шокирует. В магазинах, в автомобилях, на дорогах, в зданиях больниц и вокзалов, повсюду — следы столкновений. Кто или что уничтожает все живое? И как долго продержится последний аванпост человечества?-*** Дата мировой премьеры: 22 ноября 2019
*** Дата российской премьеры: 21 ноября 2019, «Каропрокат»- | -

Доп. инфо

Рецензия от SatDynamo

Имеет место быть мнение, согласно которому любой кинофильм российского производства заведомо обладает низким качеством, и обеспечивать ему кассу (тем более, хвалить) могут лишь люди, абсолютно не разбирающиеся в кино. Представлено это соображение весьма широко, особенно, среди наиболее активного молодого поколения. Не буду оценивать степень его справедливости, констатируя лишь то, что какую-то основу под собой оно определённо имеет. Вероятно, скептический взгляд сегодняшних критиков формировался несколько ранее, в момент становления их кинематографических пристрастий, и теперь он накладывает свой отпечаток на все выходящие из российских «цехов» картины. Но опыт — явление персональное, а среди множества субъективных факторов, которым окружена сфера искусств, имеются и параметры, предрасположенные к измерению «линейкой».
Первым из таких факторов стало то, что российский кинематограф сегодня вполне способен предложить визуальные спецэффекты уровня среднестатистического голливудского блокбастера при многократно меньшей стоимости. Своим «внешним видом» фильм «Аванпост» полностью соответствует этому утверждению и продолжает начинания, заложенные во «Времени первых», «Салюте-7» и «Притяжении», а находящийся в пределах 10 млн долларов его бюджет так же десятикратно меньше величины, требуемой для достижения аналогичного результата на западных студиях.
Вторым фактором, сегодня определяющим российский кинематограф, становится широкая степень свободы. Во времена, когда зарубежные создатели тщательно нащупывают «золотую жилу», уменьшая риски, заигрывают с наиболее платежеспособной в кинотеатрах подростковой аудиторией в ущерб всем остальным, и предоставляют зрителям сиквелы и франшизы (что ныне уже невозможно идентифицировать иначе как кризис идей), российским авторам дозволено осуществлять творческий поиск с привлечением крупных (для нашего рынка) бюджетов в самых разных жанрах — историческом кино всех эпох от Древней Руси через Великую Отечественную войну к Балканскому конфликту, описании достижений СССР в освоении космоса, спортивных драмах, жанровых костюмированных фильмах («Дуэлянт», «Девятая») и фантастике, причем, не только в подростковой.
Этому фактору «Аванпост» так же соответствует: перед нами фантастический фильм по самодостаточному сценарию, не основанному на первоисточнике или предыдущей серии и не рассчитанному на обязательное продолжение — ныне подобное блюдо подаётся редко. Далее фиксируем отсутствие на центральных позициях фильма смазливых подростковых персонажей, обычно вводимых для того, чтобы завлечь в кинозал девичью аудиторию, продать больше билетов и напитков. Обращает на себя внимание и продолжительность: флагманы мирового кинематографа через ручных кинокритиков отчаянно внедряют в широкие массы идею о ненужности длительного хронометража в силу его мнимого неудобства для зрителя, прикрывая таким «фиговым листком» собственное стремление продать больше сеансов и уместить дополнительную рекламу, но «Аванпост» смело приглашает посвятить себе 2,5 часа, даже осознавая желание кинотеатров быстрее избавиться от «длинномера». Некоторые кадры и элементы сценария, и вовсе не ожидаешь увидеть в фильме, снятом при поддержке Вооруженных Сил — достаточно жёсткое подавление силовиками гражданских беспорядков, огромный портрет бен Ладена с намеком на террористическое подполье, упоминание недобрым словом «девяностых» и даже… изнасилование солдатом корреспондентки. Последний из этих примеров позволяет наблюдать, как отсутствие ограничений превращается в банальную глупость. Тонкой иронии авторов (а она здесь действительно есть, и чтобы обойтись без спойлеров, оставлю лишь ключевые слова «размножение и убийства» — кто смотрел, тот поймёт) в момент происходящего на экране уловит лишь ничтожная часть зрителей, но демонстрация российского флага на плече бойца, совершающего противоправное (хоть и без встречи сопротивления) действие — это абсолютно не то, что нужно Вооруженным Силам в момент нахождения их под перекрёстным огнём фэйков о Сирии и легенд об изнасилованных в 45ом году немках.
Начав, после обозначения положительных сторон фильма, обнаруживать просчёты, отметим, что и 2,5-часовой хронометраж — это наследие монтажа изначально двухсерийного фильма в единую картину. Информация эта для нас важна лишь при проверке того, насколько бесшовной произошла трансформация. Нельзя сказать, что последствия остались совсем незаметными: первое знакомство с персонажами несколько затруднено двумя временными линиями, а «эволюции» некоторых персон остались слишком внезапными, но основное действие фильма от смены формата не пострадало.
Наиболее заметной глазу объективной неоднозначностью «Аванпоста» являются заимствования визуально-звуковой стилистики «Бегущего по лезвию» при изображении Москвы недалёкого будущего (что даже оставляет незамеченными самобытные декорации некоторых других объектов) и космогонии и генезиса из «Прометея». Да, приз за новаторство авторы не получат абсолютно точно, но если брать — то у лучших, а фантастика уровня двух названных эталонов — это как раз то, что из-за засилья супергероики пребывает в дефиците.
Следующим поводом для сомнений стал свойственный многим фантастическим фильмам «проход по краю» в логике и физике, достоверно их не разрушающий, но оставляющий вопросы. Изложенная в фильме причина возникновения «круга жизни» гарантирует существование ещё одного не подвергнувшегося вымиранию региона с противоположной стороны планеты, и площадь его должна составлять ровно полушарие, но в фильме на это нет ни намёка. Такое положение можно списать на то, что зрителю предоставлена лишь информация, известная героям, а те из-за отсутствия связи могут не догадываться о другом очаге цивилизации. Следующий же просчёт и вовсе груб: абсолютно не раскрыта мотивация персонажа по имени «Ид», что для фильма, позиционирующего себя не аттракционом, а научной фантастикой в обёртке бодрого боевика, таящей хоть и не самую оригинальную, но вполне серьёзную идею, является серьёзной сценарной пробоиной. Особенно она досадна по причине того, что с другой, куда более сложной задачей сценаристы справились на «отлично»: на протяжении большей части весьма длинного фильма они успешно хранили интригу и нагнетали атмосферу неизвестности, заставляя зрителя неотрывно следить за действом, а в тот момент, когда пришла пора «выкладывать карты на стол» и рассеивать туман, авторы сделали пару «твистов» и обновили локации, что перенаправило интерес в другую плоскость без его снижения.
На этом универсальные критерии заканчиваются, а остальные, например игру актёров, при отсутствии ярко выраженных взлётов или провалов широкая публика обычно оценивает «задним числом» в зависимости от того, понравился фильм в целом или нет, так что оценки эти субъективны.
Стоит ли Вам, читатель этих строк, смотреть «Аванпост»? Чтобы узнать ответ на этот вопрос, пройдите очень лёгкий тест. «Если бы этот фильм был произведён не в России, а в Голливуде, он имел бы амбиции не менее чем на полмиллиарда долларов общемировых сборов» — если подобное моё утверждение не вызывает у Вас рефлекторного отторжения, то отсутствие предубеждений по национальному признаку позволяет уделить картине свой вечер. В таком случае по завершении просмотра Вы с лёгкой иронией отметите про себя, что, не смотря на наличие в фильме «размножения и убийств» (вновь эти ключевые понятия), «Аванпост» не имеет возможности похвастать внушительным спросом и результатами сборов, а значит… мы вовсе не те, кем нам отведено быть сюжетом этой картины.
8 из 10

Рецензия от glasnaroda

Последний оплот человечества
Отечественный кинематограф в последние годы перешел из стадии «лютый треш» в стадию «50/50». Среди кучи откровенно ужасных картин попадаются весьма достойные работы. В том жанре, куда направили свои силы создатели «Аванпоста», самой мощной доминантой последних лет был фильм «Притяжение», мнение о котором разделилось. Кто то считает работу Бондарчука — прорывом и новой вехой российской фантастики, особенно по части нового уровня качества звуковых эффектов, графики и стиля в целом, накладывая на наши а не голливудские реалии, разумеется. Другие, критически восприняли фильм, основываясь на своих многолетних ощущениях и восприятии к продукту под названием «Российское кино 21 века».
Что касается работы Егора Баранова,ему удалось развить положительные векторы и тенденции, во многом избежав ошибок и минусов того же «Притяжения».
В основе сюжета лежит постапокалиптическая ситуация, когда рушится фактически вся земная цивилизация, в живых остаются немногие, и люди пытается понять причины произошедшего, сохраняя призрачную надежду на выживание.
Главным плюсом кинокартины — является сюжетная линия. События и антураж держат в тонусе весь фильм, что позволяет без проблем высидеть два с половиной часа экранного времени. На моей памяти впервые, кода в отечественном фильме сюжетные интриги, ходы и предполагаемый финал — не являются открытой книгой уже на середине просмотра. И за это хочется сказать браво команде и талантливому сценаристу Илье Куликову, который уже привлекал внимание своими смелыми решениями в сериалах « Закон каменных джунглей» и «Чернобыль».
Действие разворачивается примерно в 2040 году, и на предполагаемую дату событий — довольно добротно выдержан стиль футуризма и «хайтека». Кое-что конечно смущало, как типовая электричка РЖД образца начала 2000-х годов, но количество подобных мелочей ничтожно мало и не портит атмосферы происходящего на экране.
Графическая составляющая удивила в положительном ключе. Остается загадкой бюджет, которым оперировали создатели картины, но графика выделяется в более сильную сторону по сравнению с тем же «Притяжением», за которую фильм Федора Бондарчука получил немало лестных отзывов.
Касаемо актерского состава и качества проработки персонажей, могу назвать только одного героя, чей характер, модель поведения, мотивы и поступки — в полной мере раскрыты перед зрителем. Это Юрий — в исполнение Петра Федорова. Образы же других героев — оставляют нам пространство для полета фантазии, позволяют написать предполагаемые мотивы и линии поведения на свой лад. Хорошо это или плохо-вечный вопрос. На мой взгляд, если картина в итоге получается целостной — раскрытие всех персонажей не является обязательным условием.
Еще одной фишкой «Аванпоста» — является, местами очень тонкий троллинг на политически-правовые, религиозные аспекты нашего современного российского общества. Люди, которые понимают о чем речь, без проблем найдут эти «пасхальные яйца» при просмотре.
А теперь к двум главным минусам киноленты.
Во — первых, касаемо ролей и сюжета, нельзя не отметить, что к концу просмотра так и не ясны истинные мотивы Ида. По сути прекрасная, стильная роль, отыгранная Артемом Ткаченко-оставила главный вопрос: «Для чего?».
Самым большим провалом «Аванпоста», является как ни парадоксально, само название кинокартины. Именно ужасное «имя фильма», как это бывает и в случае с зарубежными кинолентами, самым больным образом ударит по кассовым сборам. Сужу по себе. При слове «аванпост», сразу появляются ассоциации ограниченности происходящего, словно действие происходит на конкретном аванпосту, зажатом со всех сторон и только на нем. Потенциальный зритель не поймет до просмотра — что речь о «последнем аванпосте человечества». Добавляем сюда весьма невнятный трейлер, где акцент сделан на «лазерах -сверлящих темный лес». Добавим сюда типичное недоверие к современному российскому кинематографу, и получим, дай бог наполовину заполненные залы на отличный фильм, который заслуживает внимания широких масс.
Конечно, найдутся люди, которые увидят в работе Егора Баранова отсылки к таким Голливудским картинам как «Война миров Z» и «День, когда земля остановилась». Возможно и так. На выходе мы имеем качественный, стильный, футуристичный отечественный кинопродукт, в который вложены старания талантливой съемочной группы.
8 из 10

Рецензия от TakayaPetrushka

Отсчет пошел
«Аванпост» — проект, рассказывающий о России, существующей в годы глобального кризиса. По сюжету, в 2030 году, в результате некоторой катастрофы погибло почти 98 процентов населения Земли. Лишь в круге, диаметром 1000 метров, центром которого является Москва, люди продолжают борьбу за выживание…
Когда сценарист мега-популярных ТВ-проектов «Чернобыль: Зона отчуждения» и «Полицейского с Рублевки» объединил усилия с постановщиком другого хита теле и кинопроката — франшизы «Гоголь» — это стало не только любопытно, но и априори заявкой на успех. Фантастические фильмы смотрю очень редко, это не мой жанр, но почему-то, именно, этот фильм притягивал меня с самого первого просмотра трейлера, и я знала, что обязательно пойду на него. Фильм оказался очень стоящим, и я нисколечко не жалею о своём походе в кинотеатр и о потраченных на билет деньгах.
Пожалуй, начну с того, что поразило больше всего — компьютерная графика. Она была настолько шикарна, что просмотр в кино, лишь подчёркивал красоту и объём картинки при передаче видео. Я смотрела на экран, как завороженная в течении всего фильма, а длился он немало — сеанс начался в девять, а вышла я из зала уже после одиннадцати, точно даже не скажу, настолько находилась под впечатлением. Мне понравилось в фильме всё: подобранные актёры (как на главные, так и на второстепенные роли), и их реалистичная игра, понравилась сама картинка: мрачная и мощная одновременно, понравился сюжет и смысл.
Как бы это не было удивительно, но смысловая нагрузка у фильма очень значимая и на ней то как раз и построен весь фильм. Многие это кино, как я уже успела проглядеть, сравнивают с западными и голливудскими блокбастерами, где иноземные захватчики, пришельцы или зараженные всё крушат на своё пути, пытаются поработить Землю и как итог — происходит какой-нибудь апокалипсис! Как правило, в этих фильмах нет особого смысла: они призваны для большего эффекта разгромить, как можно больше городов, убить и покалечить как можно больше людей и всё обычно заканчивается и сразу же забывается. Я в них никогда не вижу смысла или по крайней мере, даже не пыталась их искать.
У этого фильма смысл заложен и в сюжет, и в каждое действие, в каждый взгляд отдельного персонажа и сразу бросается в глаза, что это не просто кино и захватывающая картинка — этот фильм нам всем наука, это фильм, который заставляет задуматься, что-то переосмыслить, по-другому взглянуть на важные вещи, не только вокруг себя, но и внутри себя! Сквозь призму такой вот авторской подачи постановщик показывает зрителю, насколько порой мы заблуждаемся в своих мыслях, в своей излишней агрессии, всегда и во всём виня других. Отчасти мы сами всегда себя накручиваем и толкаем на отчаянный шаг, на какое-то решение, которое в итоге оказывается неправильным.
Удача фильма — это не только заслуга режиссёра, но и всей сплочённой команды. Операторская работа, считаю, что тоже была на очень высоком уровне. Масштаб и мощь показанной картинки и удивляли, и реально притягивали одновременно. Грамотная подача материала — это тоже залог успеха, так же, как и красивый, смысловой финал с приятным послесловием. Ну и подбор актёров на роли — тоже решение немаловажное. Практически такое же, как и сама игра актёров.
В фильме снялось очень много известных и талантливых актёров — Ильяшенко, Фёдоров, Иванова, Чадов, Лавроненко — смотреть на них и наблюдать за игрой было очень интересно и приятно. Отдельно бы хотелось обратить ваше внимание на очень удачное музыкальное сопровождение и правильно и уместно подобранные треки к фильму. Меня в этом плане всё устроило на пять с плюсом.
Этот фильм мне очень понравился, и я его обязательно посмотрю ещё раз, когда он будет уже в хорошем качестве или когда его будут показывать по телевизору. Но это фильм, который, однозначно заслуживает внимания и хороших оценок. Смотрите, вдумывайтесь и наслаждайтесь зрелищностью и масштабом этой картины. Надеюсь, что разочарованных не будет! Всем спасибо за внимание.
8 из 10
-Качество: BDRip 720p
Формат: MKV
Видео: MPEG-4 AVC, ~ 6146 Кбит/с, 1280x536
Аудио 1: Русский (AC3, 6 ch, 640 Кбит/с) - Лицензия
Аудио 2: Английский (DTS, 6 ch, 1509 Кбит/с)
-

Скриншоты

     

mayor

Post 11-Jan-2020 08:42

[Quote]

- Давай разведемся! «Перезагрузка личной жизни»- Производство: Россия / Кинокомпания CTB
Жанр: Комедия
Режиссер: Анна Пармас
Актеры: Анна Михалкова, Антон Филипенко, Светлана Камынина, Максим Лагашкин, Фёдор Лавров, Анна Рыцарева, Надежда Маркина, Сергей Рост, Дарья Румянцева, Майя Скородумова
Описание:
Успешный врач Маша поглощена работой и не сразу замечает, что от нее уходит муж. Жизнь переворачивается вверх дном: на работе аврал, дети требуют постоянного внимания, а привыкшая побеждать Маша не готова уступить любимого мужа красотке фитнес-тренеру. Маша призывает на помощь полный боевой арсенал, включая потусторонние силы. Но новая жизнь открывает новые возможности…

Возраст: 16+ (зрителям, достигшим 16 лет)
Дата мировой премьеры: 23 ноября 2019
Дата российской премьеры: 21 ноября 2019
Релиз от: Sisendrovich
Продолжительность: 01:32:19
Качество видео: WEBRip http://sendfile.su/1540570
Перевод: Не требуется (русский)
Субтитры: Отсутствуют
Видео: AVC/H.264, 1920x804, ~5000 kbps
Аудио: AC3, 2 ch, 192 kbps - Русский

Доп.Информация:

General
Unique ID : 215935752487935485338702873860150989826 (0xA273B692D5DD71CAAFABF0F56A5D1402)
Complete name : DavajRazvedemsyaWebRip1080p.mkv
Format : Matroska
Format version : Version 4
File size : 3.34 GiB
Duration : 1 h 32 min
Overall bit rate : 5 174 kb/s
Encoded date : UTC 2020-01-10 19:24:27
Writing application : mkvmerge v9.5.0 ('Quiet Fire') 64bit
Writing library : libebml v1.3.4 + libmatroska v1.4.5
Video
ID : 1
Format : AVC
Format/Info : Advanced Video Codec
Format profile : [email protected]
Format settings : CABAC / 5 Ref Frames
Format settings, CABAC : Yes
Format settings, Reference : 5 frames
Codec ID : V_MPEG4/ISO/AVC
Duration : 1 h 32 min
Bit rate : 5 000 kb/s
Width : 1 920 pixels
Height : 804 pixels
Display aspect ratio : 2.40:1
Frame rate mode : Constant
Frame rate : 25.000 FPS
Color space : YUV
Chroma subsampling : 4:2:0
Bit depth : 8 bits
Scan type : Progressive
Bits/(Pixel*Frame) : 0.130
Stream size : 3.21 GiB (96%)
Writing library : x264 core 148 r2721 72d53ab
Encoding settings : cabac=1 / ref=5 / deblock=1:0:0 / analyse=0x3:0x133 / me=umh / subme=10 / psy=1 / psy_rd=1.00:0.00 / mixed_ref=1 / me_range=24 / chroma_me=1 / trellis=2 / 8x8dct=1 / cqm=0 / deadzone=21,11 / fast_pskip=1 / chroma_qp_offset=-2 / threads=25 / lookahead_threads=4 / sliced_threads=0 / nr=0 / decimate=1 / interlaced=0 / bluray_compat=0 / constrained_intra=0 / bframes=8 / b_pyramid=2 / b_adapt=2 / b_bias=0 / direct=3 / weightb=1 / open_gop=0 / weightp=2 / keyint=100 / keyint_min=50 / scenecut=40 / intra_refresh=0 / rc_lookahead=60 / rc=2pass / mbtree=1 / bitrate=5000 / ratetol=1.0 / qcomp=0.60 / qpmin=0 / qpmax=69 / qpstep=4 / cplxblur=20.0 / qblur=0.5 / vbv_maxrate=5500 / vbv_bufsize=2500 / nal_hrd=none / filler=0 / ip_ratio=1.40 / aq=1:1.00
Language : Russian
Default : Yes
Forced : No
Audio
ID : 2
Format : AC-3
Format/Info : Audio Coding 3
Commercial name : Dolby Digital
Codec ID : A_AC3
Duration : 1 h 32 min
Bit rate mode : Constant
Bit rate : 192 kb/s
Channel(s) : 2 channels
Channel layout : L R
Sampling rate : 48.0 kHz
Frame rate : 31.250 FPS (1536 SPF)
Compression mode : Lossy
Stream size : 127 MiB (4%)
Language : Russian
Service kind : Complete Main
Default : Yes
Forced : No
Скриншоты:
       

Скриншоты:

       
       

Theseus

Post 28-Oct-2018 18:44

[Quote]

Владыка времени -Год выхода: 2015
Страна: Россия
Жанр: фэнтези, приключения
Продолжительность: 01:32:15
Перевод: Не требуется
Субтитры: Отсутствуют-Режиссер: Александр Баршак-В ролях: Андрей Смоляков, Кирилл Ермичёв, Станислав Тикунов, Виктория Заболотная, Сергей Сосновский, Рина Гришина, Виталий Вашедский, Максим Юдин, Александр Числов-О фильме: В секретной Школе на протяжении нескольких лет готовят четверых «универсальных солдат» в возрасте от 18 до 20 лет. Они должны переместиться в эпоху Царя Ивана Грозного и предотвратить трагическую смерть его старшего сына Ивана, случившуюся 16-го ноября 1581 года. Таким образом, будет нарушен ход исторических событий. Царевич станет следующим Царём. Не будет Великой смуты, польской интервенции, не придут к власти Романовы, а следовательно удастся избежать революции 1917 года и Россия станет совершенно иным государством.- -Качество: WEB-DL 1080p
Формат: MKV
Видео кодек: x.264
Аудио кодек: AC3
Видео: AVC, 1920x802 (2.40:1), 25.000 fps, 5 110 Kbps
Аудио: AC-3, 48.0 KHz, 6 ch, 384 Kbps-Сэмпл-

MediaInfo

Общее
Уникальный идентификатор : 250050415180987547417821703835023906314 (0xBC1DF54DEDD42B818E743F07C1F1160A)
Полное имя : Vladyka.vremenie.2015.WEB-DL.(1080p).Getty.mkv
Формат : Matroska
Версия формата : Version 4 / Version 2
Размер файла : 3,54 Гбайт
Продолжительность : 1 ч. 32 м.
Общий поток : 5496 Кбит/сек
Название фильма : Vladyka.vremenie.2015.WEB-DL.(1080p).Getty
Дата кодирования : UTC 2018-10-18 08:58:07
Программа кодирования : mkvmerge v7.8.0 ('River Man') 32bit built on Mar 27 2015 16:18:02
Библиотека кодирования : libebml v1.3.1 + libmatroska v1.4.2
Видео
Идентификатор : 1
Формат : AVC
Формат/Информация : Advanced Video Codec
Профиль формата : [email protected]
Параметр CABAC формата : Да
Параметр ReFrames формата : 4 кадра
Идентификатор кодека : V_MPEG4/ISO/AVC
Продолжительность : 1 ч. 32 м.
Битрейт : 5110 Кбит/сек
Ширина : 1920 пикселей
Высота : 802 пикселя
Соотношение сторон : 2,40:1
Режим частоты кадров : Переменный
Частота кадров : 25,000 кадров/сек
Цветовое пространство : YUV
Субдискретизация насыщенности : 4:2:0
Битовая глубина : 8 бит
Тип развёртки : Прогрессивная
Бит/(Пиксели*Кадры) : 0.133
Размер потока : 3,29 Гбайт (93%)
Default : Да
Forced : Нет
Аудио
Идентификатор : 2
Формат : AC-3
Формат/Информация : Audio Coding 3
Расширение режима : CM (complete main)
Параметр Endianness формата : Big
Идентификатор кодека : A_AC3
Продолжительность : 1 ч. 32 м.
Вид битрейта : Постоянный
Битрейт : 384 Кбит/сек
Каналы : 6 каналов
Расположение каналов : Front: L C R, Side: L R, LFE
Частота : 48,0 КГц
Частота кадров : 31,250 кадров/сек (1536 spf)
Битовая глубина : 16 бит
Метод сжатия : С потерями
Размер потока : 253 Мбайт (7%)
Default : Да
Forced : Нет

Трейлер

-     - -

gargoylized36

Post 07-Jan-2018 16:08

[Quote]

Спасибо, что поделился

}{@R0N

Post 17-Apr-2017 13:35

[Quote]

Служебный роман - Выпущено: Мосфильм, СССР
Жанр: Комедия, Мелодрама
Продолжительность: 02:30:21
Премьера (мир): 26 октября 1977, ...
Релиз на DVD: 11 января 2011, «Парадиз», ...
Релиз на Blu-Ray: 3 апреля 2012, «Парадиз», ...
Режиссер: Эльдар Рязанов
Актеры: Андрей Мягков, Алиса Фрейндлих, Светлана Немоляева, Олег Басилашвили, Лия Ахеджакова, Георгий Бурков, Зоя Исаева, Людмила Иванова, Петр Щербаков, Мария Виноградова-Описание:
Анатолий Ефремович Новосельцев, рядовой служащий одного статистического управления, — человек робкий и застенчивый. Для него неплохо бы получить вакантное место зав. отделом, но он не знает как подступиться к этому делу. Старый приятель Самохвалов советует ему приударить за Людмилой Прокопьевной Калугиной, — сухарем в юбке и директором заведения…
Полная реставрация изображения и звука от Киноконцерн «Мосфильм» и объединение «Крупный план».
-Качество видео: BDRip
Видеокодек: MPEG-4 AVC/H.264
Битрейт видео: ~10.5 Мбит/с
Размер кадра: 1420x1080
Аудио 1: Русский; (48 kHz / (DTS, 6 ch, 1510 Кбит/с)

Доп.информация

Видеоряд от [email protected]
Сохранены оригинальные чаптеры как на Blu-ray.

Mediainfo

Общее
Уникальный идентификатор : 188832412530060308072203835478560487549 (0x8E0FCCBE22F14DD786EDBAE9A4D8387D)
Полное имя : D:\Sluzhebnyj.roman.1977.BDRip(1080p).mkv
Формат : Matroska
Версия формата : Version 2
Размер файла : 13,1 Гбайт
Продолжительность : 2 ч. 36 м.
Общий поток : 12,0 Мбит/сек
Дата кодирования : UTC 2012-04-23 03:33:18
Программа кодирования : mkvmerge v5.5.0 ('Healer') built on Apr 6 2012 21:43:24
Библиотека кодирования : libebml v1.2.3 + libmatroska v1.3.0
Видео
Идентификатор : 1
Формат : AVC
Формат/Информация : Advanced Video Codec
Профиль формата : [url=mailto:[email protected]][email protected][/url]
Параметр CABAC формата : Да
Параметр ReFrames формата : 4 кадра
Идентификатор кодека : V_MPEG4/ISO/AVC
Продолжительность : 2 ч. 36 м.
Битрейт : 10,5 Мбит/сек
Ширина : 1420 пикселей
Высота : 1080 пикселей
Соотношение сторон : 4:3
Частота кадров : 23,976 кадра/сек
Цветовое пространство : YUV
Субдискретизация насыщенности : 4:2:0
Битовая глубина : 8 бит
Тип развёртки : Прогрессивная
Бит/(Пиксели*Кадры) : 0.286
Размер потока : 11,2 Гбайт (85%)
Библиотека кодирования : x264 core 122 r2184 5c85e0a
Настройки программы : cabac=1 / ref=4 / deblock=1:-3:-3 / analyse=0x3:0x133 / me=umh / subme=10 / psy=1 / psy_rd=1.00:0.00 / mixed_ref=1 / me_range=24 / chroma_me=1 / trellis=2 / 8x8dct=1 / cqm=0 / deadzone=21,11 / fast_pskip=1 / chroma_qp_offset=-2 / threads=6 / sliced_threads=0 / nr=0 / decimate=1 / interlaced=0 / bluray_compat=0 / constrained_intra=0 / bframes=6 / b_pyramid=2 / b_adapt=2 / b_bias=0 / direct=2 / weightb=0 / open_gop=0 / weightp=2 / keyint=240 / keyint_min=23 / scenecut=40 / intra_refresh=0 / rc_lookahead=40 / rc=2pass / mbtree=1 / bitrate=10500 / ratetol=1.0 / qcomp=0.60 / qpmin=0 / qpmax=69 / qpstep=4 / cplxblur=20.0 / qblur=0.5 / ip_ratio=1.40 / aq=1:1.00
Язык : English
Default : Да
Forced : Нет
Аудио
Идентификатор : 2
Формат : DTS
Формат/Информация : Digital Theater Systems
Идентификатор кодека : A_DTS
Продолжительность : 2 ч. 36 м.
Вид битрейта : Постоянный
Битрейт : 1510 Кбит/сек
Каналы : 6 каналов
Расположение каналов : Front: L C R, Side: L R, LFE
Частота : 48,0 КГц
Битовая глубина : 24 бит
Метод сжатия : С потерями
Размер потока : 1,65 Гбайт (13%)
Язык : Russian
Default : Да
Forced : Нет
Меню
00:00:00.000 : :Chapter 01
00:11:41.867 : :Chapter 02
00:17:11.697 : :Chapter 03
00:20:56.505 : :Chapter 04
00:26:32.799 : :Chapter 05
00:29:37.609 : :Chapter 06
00:35:56.237 : :Chapter 07
00:40:04.860 : :Chapter 08
00:43:40.284 : :Chapter 09
00:48:50.844 : :Chapter 10
00:59:37.657 : :Chapter 11
01:03:18.252 : :Chapter 12
01:08:47.456 : :Chapter 13
01:12:09.825 : :Chapter 14
01:19:24.885 : :Chapter 15
01:25:42.095 : :Chapter 16
01:27:09.724 : :Chapter 17
01:38:29.069 : :Chapter 18
01:44:40.774 : :Chapter 19
01:49:47.205 : :Chapter 20
01:53:18.917 : :Chapter 21
02:02:57.828 : :Chapter 22
02:09:21.086 : :Chapter 23
02:14:21.470 : :Chapter 24
02:18:54.909 : :Chapter 25
02:23:25.430 : :Chapter 26
02:28:57.094 : :Chapter 27
02:33:28.490 : :Chapter 28

Знаете ли вы, что...

-- На роль Людмилы Прокофьевны Калугиной режиссер сразу же определил Фрейндлих. Наверное, это был первый случай в отечественном кино, когда Рязанову без кинопроб и утверждений через худсовет разрешили снимать тех актеров, каких он хотел.
-- Олег Басилашвили видел исключительно себя в роли Новосельцева и всячески пытался доказать это Эльдару Александровичу. Роль же Юрия Григорьевича Самохвалова актеру не очень нравилась, но уже в процессе работы он признал, что Рязанов верно распределил роли.
-- «Служебный роман» снят по пьесе «Сослуживцы», написанной Эльдаром Рязановым и Эмилем Брагинским всего за месяц.
-- В пьесе секретарша Вера — молодая длинноногая красавица. Но когда Рязанов и Брагинский писали сценарий для фильма, то Верочку они изменили под Ахеджакову. Актриса не была длинноногой красоткой, поэтому ее героине досталось от секретарши из пьесы только то, что она слыла модницей.
-- Изначально Верочка была представлена как замужняя дама и на роль супруга приглашали Михаила Светина. Но в последний момент от этой идеи решили отказаться. Потом Ахеджаковой «сватали» Александра Фатюшина. Его герой должен был постоянно выбирать между женой и мотоциклом, из-за чего супруги постоянно ссорились. Успели даже снять несколько сцен с Фатюшиным и Ахеджаковой, но актер неожиданно заболел и был вынужден лечь на операцию. Поэтому в картине осталось лишь несколько крохотных эпизодов с его участием, а Вере пришлось ругаться со своим мужем исключительно по телефону.
-- На роль общественницы Шурочки рассматривались Римма Маркова и Нина Агапова, но Людмила Иванова, которая была председателем месткома в «Современнике», была убедительнее других.
-- Эльдар Александрович разрешил всем актерам импровизировать на площадке, «успокаивая» при этом, что все ненужное потом вырежет. В результате в фильм не вошла часть сцены, в которой появляется живой Бубликов. Зрители не увидели, как Шурочка бегает по институту и кричит, что не виновата и сама бы померла, только фамилия у нее другая. А «умерший» Бубликов идет на нее с кулаками. Перед съемками этой сцены Рязанов подговорил актрису, чтобы она при виде Бубликова закричала: «Ура, да здравствует живой товарищ Бубликов!» А ничего не подозревающий актер Петр Щербаков на крик своей партнерши тут же среагировал: «Товарищи, спасибо за все!»
-- Чтобы создать достоверный образ директорши-мымры, Эльдар Рязанов и Алиса Фрейндлих очень долго искали для главной героини подходящую одежду. В самых отдаленных уголках костюмерных «Мосфильма» они отыскивали мешковатые, непонятного цвета и размера юбки и пиджаки. Но все-таки для завершения образа не хватало какой-то детали. Как всегда, помог случай. Оператор картины Владимир Нахабцев на всякий случай принес старые очки своего отца. И когда Алиса Бруновна их надела, то стало понятно — Мымра готова появиться на площадке.
-- В фильме героиня Светланы Немоляевой Ольга Рыжова читала стихи Беллы Ахмадулиной «О мой застенчивый герой, ты ловко избежал позора». Они нигде не издавались, поэтому актриса несколько лет после выхода картины была вынуждена переписывать их от руки и отсылать своим поклонникам.
-- Эльдар Рязанов долгое время скрывал, кто автор текста к песне «У природы нет плохой погоды». Оказалось, что эти стихи написал сам режиссер.
-- «Служебный роман» был принят всеми чиновниками настолько положительно, что его тут же было решено выдвинуть на Государственную премию СССР. Однако почетную премию получили все, кроме исполнительницы главной роли Фрейндлих. Оказывается, по правилам того времени подобные награды нельзя было давать раньше, чем через два года после предыдущей. А у Алисы Бруновны уже была премия за театральную роль.
-- Занимает по посещаемости 19-е место среди отечественных фильмов за всю историю советского кинопроката.
-- Лучший фильм по опросу журнала «Советский экран» в 1979 году.
-- В сцене, где Верочка, прибегая на работу, сразу включает приемник («Московское время — 9:00»), она сначала в брюках, потом сразу же в юбке.
-- Все внутренние помещения (включая кабинеты Калугиной, Самохвалова и зал заседаний) построены в павильонах Мосфильма.
Скриншоты:
       

}{@R0N

Post 21-Feb-2017 18:33

[Quote]

Белое солнце пустыни - Производство: СССР, Мосфильм, Ленфильм
Жанр: боевик, драма, мелодрама, комедия, приключения, военный
Режиссер: Владимир Мотыль
Актеры: Анатолий Кузнецов, Спартак Мишулин, Кахи Кавсадзе, Павел Луспекаев, Раиса Куркина, Татьяна Федотова, Николай Годовиков, Муса Дудаев, Николай Бадьев, Владимир Кадочников
Описание:
Бесконечная пустыня, боец Сухов, прикуривающий с динамитной шашки, нескладный Петруха с вечно заклинивающей трехлинейкой, обаятельный Верещагин, с надоевшей черной икрой и знаменитыми песнями-балладами, ловкий Саид.

Возраст: 6+ (зрителям, достигшим 6 лет)
Релиз от: smithland
Продолжительность: 01:23:32
Качество видео: HDTV
Видео: AVC/H.264, 1280x720, ~8 581 Kbps
Аудио: AC3, 6 ch, 384 kbps, CBR

Mediainfo:

General
Unique ID : 252266240050686323062879045637784919001 (0xBDC8B5E7BAB7D5FE85EFE7EED19EDBD9)
Complete name : Белое солнце пустыни.mkv
Format : Matroska
Format version : Version 4 / Version 2
File size : 5.34 GiB
Duration : 1h 23mn
Overall bit rate : 9 147 Kbps
Movie name : Белое солнце пустыни [remux by smithland]
Encoded date : UTC 2017-01-20 10:22:36
Writing application : mkvmerge v9.5.0 ('Quiet Fire') 64bit
Writing library : libebml v1.3.4 + libmatroska v1.4.5
Attachements : COVER.jpg
DURATION : 01:23:31.680000000
NUMBER_OF_FRAMES : 156615
NUMBER_OF_BYTES : 240560640
_STATISTICS_WRITING_APP : mkvmerge v9.5.0 ('Quiet Fire') 64bit
_STATISTICS_WRITING_DATE_UTC : 2017-01-20 10:22:36
_STATISTICS_TAGS : BPS DURATION NUMBER_OF_FRAMES NUMBER_OF_BYTES
Video
ID : 1
Format : AVC
Format/Info : Advanced Video Codec
Format profile : [url=mailto:[email protected]][email protected][/url]
Format settings, CABAC : Yes
Format settings, ReFrames : 4 frames
Format settings, GOP : M=4, N=24
Codec ID : V_MPEG4/ISO/AVC
Duration : 1h 23mn
Bit rate : 8 581 Kbps
Width : 1 280 pixels
Height : 720 pixels
Display aspect ratio : 16:9
Frame rate mode : Constant
Frame rate : 23.976 fps
Color space : YUV
Chroma subsampling : 4:2:0
Bit depth : 8 bits
Scan type : Progressive
Bits/(Pixel*Frame) : 0.388
Stream size : 5.01 GiB (94%)
Language : Russian
Default : Yes
Forced : Yes
Audio
ID : 2
Format : AC-3
Format/Info : Audio Coding 3
Mode extension : CM (complete main)
Format settings, Endianness : Big
Codec ID : A_AC3
Duration : 1h 23mn
Bit rate mode : Constant
Bit rate : 384 Kbps
Channel(s) : 6 channels
Channel positions : Front: L C R, Side: L R, LFE
Sampling rate : 48.0 KHz
Compression mode : Lossy
Stream size : 229 MiB (4%)
Language : Russian
Default : Yes
Forced : Yes
Скриншоты:
         
 

The time now is: Today 03:38

All times are GMT + 3 Hours