Today is a free download without charge Download

Search found 500 matches

Author Message

mayor

Post 13-Jan-2020 18:41

[Quote]

- Новогодний ремонт - Производство: Россия / ВитЭл
Жанр: Комедия, мелодрама
Режиссер: Артур Пинхасов
Актеры: Зоя Бербер, Сергей Комаров, Артём Осипов, Эрик Бигуля, Вадим Галыгин, Ирина Розанова, Виталия Корниенко, Данил Стеклов, Макар Запорожский, Исмаил Коне
Описание:
У Марго есть 24 часа, чтобы сделать ремонт в квартире к приезду дочери и мамы. В попытке найти решение, она случайно отправляет сообщение с просьбой о помощи всем контактам в телефоне. С этого момента дверной звонок звучит непрерывно, а в квартире Риты один за другим появляются старые и новые друзья — русский депутат, учитель-еврей, армянин — владелец ресторана. Последним как снег на голову падает американец с предложением жениться. Все вместе решают: Маргариту в США отпускать нельзя! Пусть это будет непросто, но русские ведь просто так не сдаются…

Возраст: 12+ (зрителям, достигшим 12 лет)
Дата российской премьеры: 7 ноября 2019
Продолжительность: 01:22:44
Качество видео: WEB-DLRip [http://sendfile.su/1540641]
Перевод: Не требуется (русский)
Субтитры: Отсутствуют
Видео: Xvid, 688x288, ~1114 kbps
Аудио: MP3, 2 ch, 128 kbps

Доп.Информация:

Общее
Полное имя : E:\Novogodniy.remont.2019.WEB-DLRip.740 mb.avi
Формат : AVI
Формат/Информация : Audio Video Interleave
Размер файла : 742 Мбайт
Продолжительность : 1 ч. 22 м.
Общий поток : 1252 Кбит/сек
Программа кодирования : VirtualDubMod 1.5.10.3 | www.virtualdub-fr.org || (build 2550/release)
Библиотека кодирования : VirtualDubMod build 2550/release
Видео
Идентификатор : 0
Формат : MPEG-4 Visual
Профиль формата : Advanced [email protected]
Параметр BVOP формата : 1
Параметр QPel формата : Нет
Параметр GMC формата : Без точки перехода
Параметр матрицы формата : Выборочная
Идентификатор кодека : XVID
Идентификатор кодека/Подсказка : XviD
Продолжительность : 1 ч. 22 м.
Битрейт : 1114 Кбит/сек
Ширина : 688 пикселей
Высота : 288 пикселей
Соотношение сторон : 2,40:1
Частота кадров : 25,000 кадров/сек
Цветовое пространство : YUV
Субдискретизация насыщенности : 4:2:0
Битовая глубина : 8 бит
Тип развёртки : Прогрессивная
Метод сжатия : С потерями
Бит/(Пиксели*Кадры) : 0.225
Размер потока : 661 Мбайт (89%)
Библиотека кодирования : XviD 73
Аудио
Идентификатор : 1
Формат : MPEG Audio
Версия формата : Version 1
Профиль формата : Layer 3
Идентификатор кодека : 55
Идентификатор кодека/Подсказка : MP3
Продолжительность : 1 ч. 22 м.
Вид битрейта : Постоянный
Битрейт : 128 Кбит/сек
Каналы : 2 канала
Частота : 48,0 КГц
Метод сжатия : С потерями
Размер потока : 75,9 Мбайт (10%)
Выравнивание : Соединение по промежуткам
Продолжительность промежутка : 40 мс. (1,00 видеокадр)
Время предзагрузки промежутка : 504 мс.
Библиотека кодирования : LAME3.99r
Настройки программы : -m s -V 4 -q 2 -lowpass 17 -b 128
Скриншоты:
       

Скриншоты:

       

mayor

Post 08-Jan-2020 17:13

[Quote]

- Люби их всех - Производство: Россия / Кинокомпания CTB, Park Cinema Production
Жанр: Драма, триллер
Режиссер: Мария Агранович
Актеры: Алена Михайлова, Александр Кузнецов, Сергей Гармаш, Александр Тронов, Александра Киселева, Кирилл Сафонов
Описание:
У нее всегда есть план. Для каждого свой. Для каждого свое имя. Одному нужна Вера. Другому — Надежда. И почти всем Любовь. К каждому из мужчин у нее особый подход. Но они всегда платят: и чтобы ее завоевать, и чтобы от нее избавиться. Но кто знает, где кончается обман, на который идут только ради денег, и начинается настоящее чувство? И кто знает кто она: простая столичная содержанка, коварная мошенница, талантливая актриса или женщина, которая умеет (только) любить? Любить их всех.

Возраст: 18+ (зрителям, достигшим 18 лет. запрещено для детей)
Дата мировой премьеры: 23 ноября 2019
Дата российской премьеры: 3 октября 2019, «Наше Кино»
Продолжительность: 01:38:14
Качество видео: WEBRip [https://my-files.ru/rmi6k5]
Перевод: Не требуется (русский)
Субтитры: Отсутствуют
Видео: Xvid, 688x288, ~920 kbps
Аудио: MP3, 2 ch, 128 kbps

Доп.Информация:

Общее
Полное имя : E:\Lubi_ih_vseh_2019_WEBRip.740.mb.avi
Формат : AVI
Формат/Информация : Audio Video Interleave
Размер файла : 744 Мбайт
Продолжительность : 1 ч. 38 м.
Общий поток : 1059 Кбит/сек
Программа кодирования : VirtualDubMod 1.5.10.3 | www.virtualdub-fr.org || (build 2550/release)
Библиотека кодирования : VirtualDubMod build 2550/release
Видео
Идентификатор : 0
Формат : MPEG-4 Visual
Профиль формата : Advanced [email protected]
Параметр BVOP формата : 1
Параметр QPel формата : Нет
Параметр GMC формата : Без точки перехода
Параметр матрицы формата : Выборочная
Идентификатор кодека : XVID
Идентификатор кодека/Подсказка : XviD
Продолжительность : 1 ч. 38 м.
Битрейт : 921 Кбит/сек
Ширина : 688 пикселей
Высота : 288 пикселей
Соотношение сторон : 2,40:1
Частота кадров : 25,000 кадров/сек
Цветовое пространство : YUV
Субдискретизация насыщенности : 4:2:0
Битовая глубина : 8 бит
Тип развёртки : Прогрессивная
Метод сжатия : С потерями
Бит/(Пиксели*Кадры) : 0.186
Размер потока : 647 Мбайт (87%)
Библиотека кодирования : XviD 73
Аудио
Идентификатор : 1
Формат : MPEG Audio
Версия формата : Version 1
Профиль формата : Layer 3
Идентификатор кодека : 55
Идентификатор кодека/Подсказка : MP3
Продолжительность : 1 ч. 38 м.
Вид битрейта : Постоянный
Битрейт : 128 Кбит/сек
Каналы : 2 канала
Частота : 48,0 КГц
Метод сжатия : С потерями
Размер потока : 89,9 Мбайт (12%)
Выравнивание : Соединение по промежуткам
Продолжительность промежутка : 40 мс. (1,00 видеокадр)
Время предзагрузки промежутка : 504 мс.
Библиотека кодирования : LAME3.99r
Настройки программы : -m s -V 4 -q 2 -lowpass 17 -b 128
Скриншоты:
       

Скриншоты:

         

mayor

Post 01-Jan-2020 17:27

[Quote]

Одесский пароход--- Год выпуска: 2020
Страна: Россия
Жанр: Фильм, Комедия, Экранизация
Продолжительность: 01:22
Перевод: Не требуется- Режиссер: Сергей Урсуляк- В ролях:
Роман Мадянов, Чулпан Хаматова, Владимир Машков, Тимофей Трибунцев, Сергей Маковецкий, Марина Александрова, Павел Деревянко, Ирина Муравьёва, Михаил Пореченков, Сергей Гармаш
Описание:
По мотивам произведений Михаила Жванецкого. В основе сюжета новой комедии – знаменитые миниатюры Одесский пароход, Два яблока, Собрание на ликеро-водочном заводе и другие произведения одного из самых прославленных писателей-юмористов страны Михаила Жванецкого. Всего – 13 миниатюр. Судьбы героев каждой истории переплетаются, и перед зрителем предстанет панорама жизни, в которой так и не удалось заслушать начальника транспортного цеха, экипаж самолета интересуется у пассажиров, не умеет ли кто сажать самолет, буфетчица встает за штурвал парохода, а отец учит сына арифметике, уничтожая все яблоки в доме…

Качество: SATRip
Формат: MPEG-4
Видео кодек: XVID
Аудио кодек: MP3
Видео: AVC, 720x400 (16:9), 1 696 kbps, 25 fps
Аудио: AC3 / 2.0 / 48 kHz / 192 kbps /

ОтчетМедиаИнфо

General
Complete name : D:\Одесский пароход 2020.avi
Format : AVI
Format/Info : Audio Video Interleave
Format profile : OpenDML
File size : 1.09 GiB
Duration : 1 h 22 min
Overall bit rate : 1 905 kb/s
Movie name : # from 7turza #
Writing application : Lavf58.29.100
Video
ID : 0
Format : MPEG-4 Visual
Format profile : Advanced [email protected]
Format settings : BVOP1
Format settings, BVOP : 1
Format settings, QPel : No
Format settings, GMC : No warppoints
Format settings, Matrix : Default (H.263)
Codec ID : XVID
Codec ID/Hint : XviD
Duration : 1 h 22 min
Bit rate : 1 696 kb/s
Width : 720 pixels
Height : 400 pixels
Display aspect ratio : 16:9
Frame rate : 25.000 FPS
Color space : YUV
Chroma subsampling : 4:2:0
Bit depth : 8 bits
Scan type : Progressive
Compression mode : Lossy
Bits/(Pixel*Frame) : 0.236
Stream size : 996 MiB (89%)
Writing library : XviD 67
Audio
ID : 1
Format : MPEG Audio
Format version : Version 1
Format profile : Layer 3
Format settings : Joint stereo / MS Stereo
Codec ID : 55
Codec ID/Hint : MP3
Duration : 1 h 22 min
Bit rate mode : Constant
Bit rate : 192 kb/s
Channel(s) : 2 channels
Sampling rate : 48.0 kHz
Compression mode : Lossy
Stream size : 113 MiB (10%)
Alignment : Aligned on interleaves
Interleave, duration : 24 ms (0.60 video frame)
Скриншоты
         

Орлов Владимир

Post 05-Dec-2019 23:52

[Quote]

--Время женщин--
Информация о фильме
Оригинальное название: Время женщин
Год выхода: 2018
Жанр: мелодрама
Режиссер: Андрей Троицкий, Владимир Мирзоев, Инна Щербань--В ролях: Полина Ауг, Макар Запорожский, Евгений Цыганов, Евгения Соляных, Надежда Игошина, Анна Нахапетова, Денис Клявер--О фильме: Мира — деревенская девушка — загадывает жениха. Вскоре в их доме на ночлег остается офицер, а через время выясняется, что девушка беременна. Перед Мирой встает вопрос — считать это случаем или судьбой, сохранить или уничтожить ребенка. Русская смерть — Валя мечтала жить в Венеции, продала московскую квартиру, уехала. Младшая, Надежда, осталась одна, на даче. Через пару лет, разочаровавшись в Венеции, Валя вернулась. Теперь, «так по-чеховски», обе сестры живут в доме с мезонином, это одиночество вдвоем. Они застряли между прошлым и будущим. За воротами — пугающая и непонятная повседневность, в которую «каждый раз выходишь, как в Одиссею». Однажды в доме появляется Алексей — зрелый мужчина с интеллигентным лицом. Его подцепила Надя, но и Валентине он нравится. Классический любовный треугольник? Нет, у наших сестер на Алексея совсем другие планы… Вера, балерина Большого театра вышла на пенсию. Протанцевав в кордебалете 20 лет, так и не успела создать семью, не родила ребенка. Чтобы на что-то жить устроилась в отель преподавать йогу. Поклонников было много, но она влюбилась в женатого и не совсем порядочного мужчину. Каждый день Верки похож на предыдущий. Так бы и жила, если бы однажды в их город не приехал экспериментальный испанский театр «Фламенко» с балетом «Кармен».-- --Выпущено: Россия / Vega Film
Продолжительность: 01:22:16
Озвучивание: Оригинальное iTunes--Файл
Формат: MKV
Качество: WEB-DL 1080p
Видео: AVC, 5286 Kb/s, 1920x1080
Аудио: AAC, 2 ch, 160 Kb/s
Субтитры: Нет
Дополнительно: Сохранены оригинальные чаптеры.--

Тех.данные видеофайла

Video
ID: 1
Format: AVC
Format/Info: Advanced Video Codec
Format profile: [email protected]
Format settings: CABAC / 4 Ref Frames
Format settings, CABAC: Yes
Format settings, Reference: 4 frames
Codec ID: V_MPEG4/ISO/AVC
Duration: 1 h 22 min
Width: 1 920 pixels
Height: 1 080 pixels
Display aspect ratio: 16:9
Frame rate mode: Constant
Frame rate: 25.000 FPS
Color space: YUV
Chroma subsampling: 4:2:0
Bit depth: 8 bits
Scan type: Progressive
Title: VREMYA_ZHENSH4IN_2018_WEB-DL_1080p-BLUEBIRD
Language: English
Default: Yes
Forced: No
Color range: Limited
Color primaries: BT.709
Transfer characteristics: BT.709
Matrix coefficients: BT.709
Audio
ID: 2
Format: AAC LC
Format/Info: Advanced Audio Codec Low Complexity
Codec ID: A_AAC-2
Duration: 1 h 22 min
Channel(s): 2 channels
Channel layout: L R
Sampling rate: 48.0 kHz
Frame rate: 46.875 FPS (1024 SPF)
Compression mode: Lossy
Title: [ORIGINAL] AAC 2.0 @ 160 kbps
Language: Russian
Default: Yes
Forced: No
Menu
00:00:00.000: en:Глава 1
00:04:03.120: en:Глава 2
00:12:39.279: en:Глава 3
00:18:16.679: en:Глава 4
00:23:30.719: en:Глава 5
00:28:07.999: en:Глава 6
00:29:54.519: en:Глава 7
00:34:57.279: en:Глава 8
00:43:26.679: en:Глава 9
00:49:02.079: en:Глава 10
00:54:44.639: en:Глава 11
00:56:57.599: en:Глава 12
01:00:30.679: en:Глава 13
01:06:06.079: en:Глава 14
01:11:58.919: en:Глава 15
01:20:36.359: en:Глава 16

Скриншоты

       

Орлов Владимир

Post 05-Dec-2019 23:31

[Quote]

--Время женщин--
Информация о фильме
Оригинальное название: Время женщин
Год выхода: 2018
Жанр: мелодрама
Режиссер: Андрей Троицкий, Владимир Мирзоев, Инна Щербань--В ролях: Полина Ауг, Макар Запорожский, Евгений Цыганов, Евгения Соляных, Надежда Игошина, Анна Нахапетова, Денис Клявер--О фильме: Мира — деревенская девушка — загадывает жениха. Вскоре в их доме на ночлег остается офицер, а через время выясняется, что девушка беременна. Перед Мирой встает вопрос — считать это случаем или судьбой, сохранить или уничтожить ребенка. Русская смерть — Валя мечтала жить в Венеции, продала московскую квартиру, уехала. Младшая, Надежда, осталась одна, на даче. Через пару лет, разочаровавшись в Венеции, Валя вернулась. Теперь, «так по-чеховски», обе сестры живут в доме с мезонином, это одиночество вдвоем. Они застряли между прошлым и будущим. За воротами — пугающая и непонятная повседневность, в которую «каждый раз выходишь, как в Одиссею». Однажды в доме появляется Алексей — зрелый мужчина с интеллигентным лицом. Его подцепила Надя, но и Валентине он нравится. Классический любовный треугольник? Нет, у наших сестер на Алексея совсем другие планы… Вера, балерина Большого театра вышла на пенсию. Протанцевав в кордебалете 20 лет, так и не успела создать семью, не родила ребенка. Чтобы на что-то жить устроилась в отель преподавать йогу. Поклонников было много, но она влюбилась в женатого и не совсем порядочного мужчину. Каждый день Верки похож на предыдущий. Так бы и жила, если бы однажды в их город не приехал экспериментальный испанский театр «Фламенко» с балетом «Кармен».-- --Выпущено: Россия / Vega Film
Продолжительность: 01:22:16
Озвучивание: Оригинальное iTunes--Файл
Формат: AVI (XviD)
Качество: WEB-DLRip
Видео: 2175 Kb/s, 720x304
Аудио: AC3, 2 ch, 192 Kb/s--

Скриншоты

           

kilmister777

Post 24-Nov-2019 12:03

[Quote]

Пришелец- Год выпуска: 2018
Страна: Россия
Жанр: приключения, фантастика, драма
Продолжительность: 01:30:22
Перевод: Не требуется- -Режиссер: Александр Куликов-В ролях: Андрей Смоляков, Юрий Цурило, Григорий Сиятвинда, Максим Виторган, Александр Куликов, Анна Банщикова, Евгения Шипова-Описание: В результате цепи трагических случайностей на далекой планете в одиночестве оказывается космонавт. Его жизнь находится в постоянной опасности. Нечто необъяснимое, вступившее с ним в контакт, навсегда изменит его. С этой минуты он станет потерянным и для себя и для людей. И сколько раз ему придется умереть, чтобы доказать, что он жив...-Качество: BDRip
Формат: AVI
Видео кодек: XviD
Аудио кодек: AC3
Видео: 720x304 (2.37:1), 24 fps, XviD build 73 ~1856 kbps avg, 0.35 bit/pixel
Аудио: 48 kHz, AC3 Dolby Digital, 3/2 (L,C,R,l,r) + LFE ch, ~448 kbps-

Скриншоты

       

Clavik

Post 02-Oct-2019 09:40

[Quote]

Хорошее убийство / Good kill (2014) BDRip [H.264/720p]- Производство: США / Voltage Pictures, Dune Films, Sobini Films
Жанр: Драма, военный
Режиссер: Эндрю Никкол
Актеры: Итан Хоук, Брюс Гринвуд, Зои Кравиц, Джейк Эйбел, Дженьюэри Джонс, Фатима Эль-Бахрауй, Эль-Хттаби Абделуахаб, Райан Монтано, Дилан Кенин, Стэффорд Дуглас
Описание:
Томас Эган — боевой пилот из Лас-Вегаса, которому доверяют управление беспилотным самолётом, бороздящим небо над Афганистаном. Двенадцать часов в день он сражается с силами Талибана, а потом едет в свой дом в тихом американском пригороде, где бой продолжается — с женой и собственными детьми. В какой-то момент героя перестаёт устраивать образ врага, и в голове возникает вопрос: является ли его боевой долг борьбой с терроризмом либо же убийства только увеличивают количество и силы противника.
Эган — солдат, он должен выполнять приказ, даже если этот приказ кажется ему неправильным. Но где та грань, переступив которую, ты сам станешь ничем не лучше террориста?

Возраст: 16+ (зрителям, достигшим 16 лет)
Рейтинг MPAA: R (лицам до 17 лет обязательно присутствие взрослого)
Продолжительность: 01:42:48
Качество видео: BDRip
Перевод: Многоголосый
Субтитры: отсутствуют
Видео: AVC/H.264, 1280x536, ~6200 kbps
Аудио 1: DTS, 6 ch, 768 kbps | Русский - MVO
Аудио 2: AC3, 6 ch, 448 kbps | Русский – MVO (НТВ+)
Аудио 3: AC3, 6 ch, 448 kbps | Английский (Оригинал)

MediaInfo:

Общее
Уникальный идентификатор : 203299958992685445502496073750007263942 (0x98F225DAEAF6F4368DC5CA850ACC32C6)
Полное имя : F:\-\Хорошее убийство\Хорошее убийство. 2014 BDRip 720p.mkv
Формат : Matroska
Версия формата : Version 4 / Version 2
Размер файла : 5,64 Гбайт
Продолжительность : 1 ч. 42 м.
Общий поток : 7854 Кбит/сек
Название фильма : Release for Topmost
Дата кодирования : UTC 2019-10-01 15:34:54
Программа кодирования : mkvmerge v6.2.0 ('Promised Land') built on Apr 28 2013 12:22:01
Библиотека кодирования : libebml v1.3.0 + libmatroska v1.4.0
Attachment : Yes
Видео
Идентификатор : 1
Формат : AVC
Формат/Информация : Advanced Video Codec
Профиль формата : [url=mailto:[email protected]][email protected][/url]
Параметр CABAC формата : Да
Параметр ReFrames формата : 12 кадров
Идентификатор кодека : V_MPEG4/ISO/AVC
Продолжительность : 1 ч. 42 м.
Битрейт : 6200 Кбит/сек
Ширина : 1280 пикселей
Высота : 536 пикселей
Соотношение сторон : 2,40:1
Режим частоты кадров : Постоянный
Частота кадров : 23,976 кадра/сек
Цветовое пространство : YUV
Субдискретизация насыщенности : 4:2:0
Битовая глубина : 8 бит
Тип развёртки : Прогрессивная
Бит/(Пиксели*Кадры) : 0.377
Размер потока : 4,33 Гбайт (77%)
Заголовок : Хорошее убийство. 2014 BDRip 720p (Release for Topmost)
Библиотека кодирования : x264 core 146 r2538 121396c
Настройки программы : cabac=1 / ref=12 / deblock=1:-3:-3 / analyse=0x3:0x113 / me=umh / subme=11 / psy=1 / psy_rd=1.00:0.15 / mixed_ref=1 / me_range=32 / chroma_me=1 / trellis=2 / 8x8dct=1 / cqm=0 / deadzone=21,11 / fast_pskip=0 / chroma_qp_offset=-3 / threads=12 / lookahead_threads=2 / sliced_threads=0 / nr=0 / decimate=0 / interlaced=0 / bluray_compat=0 / constrained_intra=0 / bframes=8 / b_pyramid=2 / b_adapt=2 / b_bias=0 / direct=1 / weightb=1 / open_gop=0 / weightp=2 / keyint=240 / keyint_min=23 / scenecut=40 / intra_refresh=0 / rc_lookahead=40 / rc=2pass / mbtree=0 / bitrate=6200 / ratetol=1.0 / qcomp=0.60 / qpmin=0 / qpmax=69 / qpstep=4 / cplxblur=20.0 / qblur=0.5 / vbv_maxrate=14000 / vbv_bufsize=14000 / nal_hrd=none / filler=0 / ip_ratio=1.40 / pb_ratio=1.30 / aq=1:0.90
Язык : English
Default : Да
Forced : Нет
Аудио #1
Идентификатор : 2
Формат : DTS
Формат/Информация : Digital Theater Systems
Режим : 16
Параметр Endianness формата : Big
Идентификатор кодека : A_DTS
Продолжительность : 1 ч. 42 м.
Вид битрейта : Постоянный
Битрейт : 768 Кбит/сек
Каналы : 6 каналов
Расположение каналов : Front: L C R, Side: L R, LFE
Частота : 48,0 КГц
Битовая глубина : 16 бит
Метод сжатия : С потерями
Размер потока : 565 Мбайт (10%)
Заголовок : DTS. 6 ch, 755 kbps - многоголосый закадровый - iTunes
Язык : Russian
Default : Да
Forced : Нет
Аудио #2
Идентификатор : 3
Формат : AC-3
Формат/Информация : Audio Coding 3
Расширение режима : CM (complete main)
Параметр Endianness формата : Big
Идентификатор кодека : A_AC3
Продолжительность : 1 ч. 42 м.
Вид битрейта : Постоянный
Битрейт : 448 Кбит/сек
Каналы : 6 каналов
Расположение каналов : Front: L C R, Side: L R, LFE
Частота : 48,0 КГц
Битовая глубина : 16 бит
Метод сжатия : С потерями
Размер потока : 329 Мбайт (6%)
Заголовок : AC3, 448 Kbps, 6 channels (ногоголосый, закадровый | НТВ+ |)
Язык : Russian
Default : Нет
Forced : Нет
Аудио #3
Идентификатор : 4
Формат : AC-3
Формат/Информация : Audio Coding 3
Расширение режима : CM (complete main)
Параметр Endianness формата : Big
Идентификатор кодека : A_AC3
Продолжительность : 1 ч. 42 м.
Вид битрейта : Постоянный
Битрейт : 448 Кбит/сек
Каналы : 6 каналов
Расположение каналов : Front: L C R, Side: L R, LFE
Частота : 48,0 КГц
Битовая глубина : 16 бит
Метод сжатия : С потерями
Размер потока : 329 Мбайт (6%)
Заголовок : AC3, 448 Kbps, 6 channels - Оriginal
Язык : English
Default : Нет
Forced : Нет
Скриншоты:
       

kilmister777

Post 23-Sep-2019 12:22

[Quote]

Сдаётся дом со всеми неудобствами- Год выпуска: 2016
Страна: Россия
Жанр: комедия
Продолжительность: 01:26:10
Перевод: Не требуется- -Режиссер: Вера Сторожева-В ролях: Виктория Исакова, Ирина Пегова, Светлана Ходченкова, Нина Дворжецкая, Владимир Вдовиченков, Дарья Урсуляк, Ника Анаскина, Полина Симачёва, Яша Киселевич, Артём Казьмин-Описание: Предприимчивый маклер сдал домик у моря сразу нескольким семьям. Так волей случая в одном «ковчеге» вынуждены «плыть по волнам жизни» несколько совершенно разных женщин с детьми. После клубка эксцентричных, смешных и не очень поступков, событий, выяснений отношений, казалось, они поймут друг друга, но появление вернувшегося из плавания хозяина дома, и не подозревающего о том, что его друг, которому он дал ключи от домика, сдал его, нарушает уже почти возникшую чеховскую атмосферу.-Качество: WEB-DLRip
Формат: AVI
Видео кодек: XviD
Аудио кодек: AC3
Видео: 720x304 (2.37:1), 24.000 fps, XviD build 73 ~2040 kbps avg, 0.36 bit/pixel
Аудио: 48 kHz, AC3 Dolby Digital, 2/0 (L,R) ch, ~192 kbps-

Скриншоты

     

Орлов Владимир

Post 19-Sep-2019 16:56

[Quote]

--Бык (Борис Акопов) [2019,Драма, WEB-DLRip 720p] [RUS] [iTunes]-- Информация о фильме
Название: Бык
Год выпуска: 2019
Жанр: Драма
Режиссер: Борис Акопов--В ролях: Юрий Борисов, Стася Милославская, Афина Кондрашова, Егор Кенжаметов, Александр Самсонов, Игорь Савочкин, Алексей Филимонов, Сергей Двойников, Александр Левин, Роман Колотухин--О фильме:
90-е годы. Экономическая пропасть и криминальные драмы, разворачивающиеся буквально на каждом углу. Молодой лидер преступной группировки Антон Быков по прозвищу «Бык» вынужден зарабатывать любыми способами, чтобы обеспечить свою семью. После районной «стрелки» Антон попадает в отделение милиции, откуда его вызволяет один из московских авторитетов. Взамен он просит героя о маленькой, но опасной услуге.-- --Страна: Россия
Студия: ООО «Шарк»
Продолжительность: 01:39:26
Перевод: Не требуется [iTunes]--Файл
Формат: MKV
Качество: WEB-DLRip 720p
Видео: MPEG-4 AVC, 3878 Кбит/с, 1280x476
Аудио: AC3, 6 ch, 384 Кбит/с
Субтитры: Нет
--

Скриншоты

       

Орлов Владимир

Post 19-Sep-2019 13:58

[Quote]

--Бык (Борис Акопов) [2019,Драма, WEB-DL 1080p] [RUS] [iTunes]-- Информация о фильме
Название: Бык
Год выпуска: 2019
Жанр: Драма
Режиссер: Борис Акопов--В ролях: Юрий Борисов, Стася Милославская, Афина Кондрашова, Егор Кенжаметов, Александр Самсонов, Игорь Савочкин, Алексей Филимонов, Сергей Двойников, Александр Левин, Роман Колотухин--О фильме:
90-е годы. Экономическая пропасть и криминальные драмы, разворачивающиеся буквально на каждом углу. Молодой лидер преступной группировки Антон Быков по прозвищу «Бык» вынужден зарабатывать любыми способами, чтобы обеспечить свою семью. После районной «стрелки» Антон попадает в отделение милиции, откуда его вызволяет один из московских авторитетов. Взамен он просит героя о маленькой, но опасной услуге.-- --Страна: Россия
Студия: ООО «Шарк»
Продолжительность: 01:39:26
Перевод: Не требуется | [iTunes]--Файл
Формат: MKV
Качество: WEB-DL (1080p)
Видео: MPEG-4 AVC, 4554 Кбит/с, 1912x712
Аудио: AC3, 6 ch, 384 Кбит/с
Субтитры: Нет
--

Скриншоты

       

Орлов Владимир

Post 19-Sep-2019 13:53

[Quote]

--Бык (Борис Акопов) [2019,Драма, WEB-DLRip] [RUS] [iTunes]-- Информация о фильме
Название: Бык
Год выпуска: 2019
Жанр: Драма
Режиссер: Борис Акопов--В ролях: Юрий Борисов, Стася Милославская, Афина Кондрашова, Егор Кенжаметов, Александр Самсонов, Игорь Савочкин, Алексей Филимонов, Сергей Двойников, Александр Левин, Роман Колотухин--О фильме:
90-е годы. Экономическая пропасть и криминальные драмы, разворачивающиеся буквально на каждом углу. Молодой лидер преступной группировки Антон Быков по прозвищу «Бык» вынужден зарабатывать любыми способами, чтобы обеспечить свою семью. После районной «стрелки» Антон попадает в отделение милиции, откуда его вызволяет один из московских авторитетов. Взамен он просит героя о маленькой, но опасной услуге.-- --Страна: Россия
Студия: ООО «Шарк»
Продолжительность: 01:39:26
Перевод: Не требуется | iTunes--Файл
Формат: AVI
Качество: WEB-DLRip
Видео: 720x272 (2.65:1), 23.976 fps, XviD build 50 ~876 kbps avg, 0.19 bit/pixel
Звук: 48 kHz, MPEG Layer 3, 2 ch, ~128.00 kbps avg
Субтитры: Нет--

Тех.данные видеофайла

Общее
Полное имя: C:\BykWEBDLRip.740.mb.avi
Формат: AVI
Формат/Информация: Audio Video Interleave
Размер файла: 721 Мбайт
Продолжительность: 1 ч. 39 м.
Общий поток: 1014 Кбит/сек
Программа кодирования: VirtualDubMod 1.5.10.3 | (build 2550/release)
Библиотека кодирования: VirtualDubMod build 2550/release
Видео
Идентификатор: 0
Формат: MPEG-4 Visual
Профиль формата: Advanced [email protected]
Параметр BVOP формата: 1
Параметр QPel формата: Нет
Параметр GMC формата: Без точки перехода
Параметр матрицы формата: Default (H.263)
Идентификатор кодека: XVID
Идентификатор кодека/Подсказка: XviD
Продолжительность: 1 ч. 39 м.
Битрейт: 877 Кбит/сек
Ширина: 720 пикселей
Высота: 272 пикселя
Соотношение сторон: 2,647
Частота кадров: 23,976 кадра/сек
Цветовое пространство: YUV
Субдискретизация насыщенности: 4:2:0
Битовая глубина: 8 бит
Тип развёртки: Прогрессивная
Метод сжатия: С потерями
Бит/(Пиксели*Кадры): 0.187
Размер потока: 624 Мбайт (86%)
Библиотека кодирования: XviD 1.2.1 (UTC 2008-12-04)
Аудио
Идентификатор: 1
Формат: MPEG Audio
Версия формата: Version 1
Профиль формата: Layer 3
Идентификатор кодека: 55
Идентификатор кодека/Подсказка: MP3
Продолжительность: 1 ч. 39 м.
Вид битрейта: Постоянный
Битрейт: 128 Кбит/сек
Каналы: 2 канала
Частота: 48,0 КГц
Метод сжатия: С потерями
Размер потока: 91,0 Мбайт (13%)
Выравнивание: Соединение по промежуткам
Продолжительность промежутка: 42 мс. (1,00 видеокадр)
Время предзагрузки промежутка: 504 мс.
Библиотека кодирования: LAME3.99r
Настройки программы: -m s -V 4 -q 2 -lowpass 17 -b 128

Скриншоты

       

Орлов Владимир

Post 19-Sep-2019 13:48

[Quote]

--Бык (Борис Акопов) [2019,Драма, WEB-DLRip] [RUS] [iTunes]-- Информация о фильме
Название: Бык
Год выпуска: 2019
Жанр: Драма
Режиссер: Борис Акопов--В ролях: Юрий Борисов, Стася Милославская, Афина Кондрашова, Егор Кенжаметов, Александр Самсонов, Игорь Савочкин, Алексей Филимонов, Сергей Двойников, Александр Левин, Роман Колотухин--О фильме:
90-е годы. Экономическая пропасть и криминальные драмы, разворачивающиеся буквально на каждом углу. Молодой лидер преступной группировки Антон Быков по прозвищу «Бык» вынужден зарабатывать любыми способами, чтобы обеспечить свою семью. После районной «стрелки» Антон попадает в отделение милиции, откуда его вызволяет один из московских авторитетов. Взамен он просит героя о маленькой, но опасной услуге.-- --Страна: Россия
Студия: ООО «Шарк»
Продолжительность: 01:39:26
Перевод: Не требуется | [iTunes]--Файл
Формат: AVI
Качество: WEB-DLRip
Видео: 720x272 (2.65:1), 23.976 fps, XviD build 73 ~1710 kbps avg, 0.36 bit/pixel
Звук: 48 kHz, AC3 Dolby Digital, 3/2 (L,C,R,l,r) + LFE ch, ~384 kbps
Субтитры: Нет--

Скриншоты

       

Clavik

Post 12-Sep-2019 12:57

[Quote]

Домовой (2019) WEB-DLRip [H.264]«Кто в доме хозяин?»- Производство: Россия | Трио Фильм
Жанр: Семейный, фэнтези, комедия
Режиссер: Евгений Бедарев
Актеры: Сергей Чирков, Екатерина Гусева, Александра Политик, Ольга Остроумова-Гутшмидт, Павел Деревянко, Юлия Сулес, Татьяна Орлова, Сергей Рубеко, Дмитрий Белоцерковский, Дмитрий Бедарев
Описание:
В обычном и суетливом городе Москве есть необычный Дом, обросший сотнями тайн и загадок. В этом доме есть странная квартира, в которой еще надолго не задержался ни один жилец… И лишь тогда, когда в эту «милую» квартиру заезжает самостоятельная мама с очаровательной 8-летней дочерью Алиной, новые жильцы узнают, что жилплощадь их — непростая, а живет в ней самый настоящий Домовой. Только вот хранитель очага уже давно обиделся на весь род человеческий и сделает все вообразимые гадости, только бы остаться одному в злополучной квартире. Но всё меняется, когда Домовому бросает вызов злая колдунья…

Возраст: 6+ (зрителям, достигшим 6 лет)
Дата российской премьеры: 11 апреля 2019, «Каропрокат»
Продолжительность: 01:43:11
Качество видео: WEB-DLRip
Субтитры: Отсутствуют
Видео: AVC/H.264, 1024x400 (2.560), ~2500 Kbps, 23.976 fps
Аудио: AC3, 6 ch, 48.0 kHz, 384 Kbps

MediaInfo:

General
Unique ID : 291435638476412477800001411664785440199 (0xDB407659508D982F56756DA9B6B3FDC7)
Complete name : D:\Домовой_2019_AVC.mkv
Format : Matroska
Format version : Version 4
File size : 2.05 GiB
Duration : 1 h 43 min
Overall bit rate : 2 840 kb/s
Writing application : Lavf
Writing library : Lavf
Copyright : [#ZsU®]
ErrorDetectionType : Per level 1
Attachments : poster.jpg
Language : und
Video
ID : 1
Format : AVC
Format/Info : Advanced Video Codec
Format profile : [url=mailto:[email protected]][email protected][/url]
Format settings : CABAC / 9 Ref Frames
Format settings, CABAC : Yes
Format settings, ReFrames : 9 frames
Codec ID : V_MPEG4/ISO/AVC
Duration : 1 h 43 min
Bit rate : 2 500 kb/s
Width : 1 024 pixels
Height : 400 pixels
Display aspect ratio : 2.560
Frame rate mode : Constant
Frame rate : 23.976 (24000/1001) FPS
Color space : YUV
Chroma subsampling : 4:2:0
Bit depth : 8 bits
Scan type : Progressive
Bits/(Pixel*Frame) : 0.255
Stream size : 1.73 GiB (84%)
Title : Russia
Writing library : x264 core 157 r2969 d4099dd
Encoding settings : cabac=1 / ref=10 / deblock=1:-3:-3 / analyse=0x3:0x133 / me=umh / subme=11 / psy=1 / psy_rd=1.05:0.10 / mixed_ref=1 / me_range=32 / chroma_me=1 / trellis=2 / 8x8dct=1 / cqm=0 / deadzone=21,11 / fast_pskip=0 / chroma_qp_offset=-3 / threads=11 / lookahead_threads=1 / sliced_threads=0 / nr=0 / decimate=1 / interlaced=0 / bluray_compat=0 / constrained_intra=0 / bframes=10 / b_pyramid=1 / b_adapt=1 / b_bias=8 / direct=1 / weightb=1 / open_gop=0 / weightp=1 / keyint=240 / keyint_min=24 / scenecut=40 / intra_refresh=0 / rc_lookahead=60 / rc=abr / mbtree=1 / bitrate=2500 / ratetol=1.0 / qcomp=0.70 / qpmin=3 / qpmax=69 / qpstep=4 / ip_ratio=1.40 / aq=2:1.00
Language : Russian
Default : Yes
Forced : No
Color range : Limited
Color primaries : BT.709
Transfer characteristics : BT.709
Matrix coefficients : BT.709
Audio
ID : 2
Format : AC-3
Format/Info : Audio Coding 3
Commercial name : Dolby Digital
Codec ID : A_AC3
Duration : 1 h 43 min
Bit rate mode : Constant
Bit rate : 384 kb/s
Channel(s) : 6 channels
Channel layout : L R C LFE Ls Rs
Sampling rate : 48.0 kHz
Frame rate : 31.250 FPS (1536 SPF)
Bit depth : 16 bits
Compression mode : Lossy
Stream size : 283 MiB (14%)
Title : Original
Language : Russian
Service kind : Complete Main
Default : Yes
Forced : No
Menu
00:00:00.000 : :1
00:06:09.000 : :2
00:16:14.000 : :3
00:26:05.000 : :4
00:38:53.000 : :5
00:47:08.000 : :6
00:59:20.000 : :7
01:09:14.000 : :8
01:19:49.000 : :9
01:31:03.000 : :10
01:38:01.000 : :11
Скриншоты:
       

Clavik

Post 11-Sep-2019 09:23

[Quote]

За кулисами (2019) WEB-DLRip «Шекспир был прав: вся жизнь - театр!»- Производство: Россия / Студия «Дмитрия Куповых «Свободное кино», Творческое объединение «ШАГ», BIG BAG FILMS
Жанр: Комедия, драма
Режиссер: Илья Ермолов, Игорь Каграманов, Эвелина Барсегян
Актеры: Юрий Стоянов, Павел Деревянко, Карина Разумовская, Виктория Верберг, Денис Фомин, Алевтина Даниленко, Виктор Барченко, Сергей Бредюк, Михаил Калиничев, Борис Шильманский
Описание:
Зрители привыкли следить за перипетиями судеб вымышленных персонажей, но за кулисами могут разворачиваться не менее интересные истории. Иногда они смешные, иногда — страшные, но точно — всегда интересные.
Руководитель театра вынужден проявить всю свою управленческую хитрость в условиях дефицита финансов и талантов. Другой герой знакомит зрителя с проблемами гениального актёра, оказавшегося на площадке второсортного телесериала. А подсадной бравист внезапно встречает свою первую любовь в зрительном зале театра и на свою беду решает за ней приударить.

Возраст: 16+ (зрителям, достигшим 16 лет)
Дата российской премьеры: 18 апреля 2019, «SFI-Distribution»
Релиз от: Алехаndr
Продолжительность: 01:17:02
Качество видео: WEB-DLRip
Перевод: Не требуется (русский)
Субтитры: Отсутствуют
Видео: Xvid, 720x304 (2,35:1), ~1760 Kbps
Аудио: AC3, 2 ch, 192 Kbps

MediaInfo:

Общее
Полное имя : D:\За кулисами (2019).by.Алехаndr.avi
Формат : AVI
Формат/Информация : Audio Video Interleave
Профиль формата : OpenDML
Размер файла : 1,06 Гбайт
Продолжительность : 1 ч. 17 м.
Общий поток : 1966 Кбит/сек
Программа кодирования : Lavf58.20.100
Видео
Идентификатор : 0
Формат : MPEG-4 Visual
Профиль формата : Advanced [email protected]
Настройки формата : BVOP2
Параметр BVOP формата : 2
Параметр QPel формата : Нет
Параметр GMC формата : Без точки перехода
Параметр матрицы формата : Default (H.263)
Идентификатор кодека : XVID
Идентификатор кодека/Подсказка : XviD
Продолжительность : 1 ч. 17 м.
Битрейт : 1760 Кбит/сек
Ширина : 720 пикселей
Высота : 304 пикселя
Соотношение сторон : 2,35:1
Частота кадров : 24,000 кадра/сек
Цветовое пространство : YUV
Субдискретизация насыщенности : 4:2:0
Битовая глубина : 8 бит
Тип развёртки : Прогрессивная
Метод сжатия : С потерями
Бит/(Пиксели*Кадры) : 0.335
Размер потока : 970 Мбайт (90%)
Библиотека кодирования : XviD 67
Аудио
Идентификатор : 1
Формат : AC-3
Формат/Информация : Audio Coding 3
Коммерческое название : Dolby Digital
Идентификатор кодека : 2000
Продолжительность : 1 ч. 17 м.
Вид битрейта : Постоянный
Битрейт : 192 Кбит/сек
Каналы : 2 канала
ChannelLayout : L R
Частота : 48,0 КГц
Частота кадров : 31,250 кадров/сек (1536 SPF)
Битовая глубина : 16 бит
Метод сжатия : С потерями
Размер потока : 106 Мбайт (10%)
Выравнивание : Соединение по промежуткам
Продолжительность промежутка : 32 мс. (0,77 видеокадр)
ServiceKind/String : Complete Main
Скриншоты:
       

Theseus

Post 28-Oct-2018 18:42

[Quote]

Владыка времени -Год выхода: 2015
Страна: Россия
Жанр: фэнтези, приключения
Продолжительность: 01:32:15
Перевод: Не требуется
Субтитры: Отсутствуют-Режиссер: Александр Баршак-В ролях: Андрей Смоляков, Кирилл Ермичёв, Станислав Тикунов, Виктория Заболотная, Сергей Сосновский, Рина Гришина, Виталий Вашедский, Максим Юдин, Александр Числов-О фильме: В секретной Школе на протяжении нескольких лет готовят четверых «универсальных солдат» в возрасте от 18 до 20 лет. Они должны переместиться в эпоху Царя Ивана Грозного и предотвратить трагическую смерть его старшего сына Ивана, случившуюся 16-го ноября 1581 года. Таким образом, будет нарушен ход исторических событий. Царевич станет следующим Царём. Не будет Великой смуты, польской интервенции, не придут к власти Романовы, а следовательно удастся избежать революции 1917 года и Россия станет совершенно иным государством.- -Качество: WEB-DLRip
Формат: AVI
Видео кодек: XviD
Аудио кодек: AC3
Видео: MPEG4, XviD, 720x304 (2.35:1), 25.000 fps, 1 875 Kbps
Аудио: AC-3, 48.0 KHz, 6 ch, 384 Kbps-Сэмпл-

Трейлер

-     - -
 

The time now is: Today 18:27

All times are GMT + 3 Hours