Сегодня идет свободное скачивание без начисления Download

Результатов поиска: 500

Автор Сообщение

}{@R0N

Пост 11-Фев-2019 23:35

[Цитировать]

OTUS | Pазработчик BigData- Автор (режиссер): Ксения Стройкова
Производство: OTUS
Жанр: Обучающее
Описание:
В настоящее время каждый сервис или устройство генерируют огромное количество данных. С помощью методов машинного обучения из данных стало возможным извлекать полезные знания. По этой причине данные становятся самым ценным ресурсом в бизнесе, а умение извлекать из данных информацию -одним из самых востребованных умений.
Продолжительность: 55:06:51
Качество видео: PCRec
Видео: AVC/H.264, 1280x720, ~937 kbps
Аудио: AAC, 2 ch, 128 Kbps

Mediainfo:

Общее
Полное имя : Pазработчик BigData\1. Базовые инструменты анализа данных в Python\lesson1.mp4
Формат : MPEG-4
Профиль формата : Base Media / Version 2
Идентификатор кодека : mp42 (isom/mp42)
Размер файла : 246 Мбайт
Продолжительность : 2 ч. 13 м.
Режим общего битрейта : Переменный
Общий поток : 258 Кбит/сек
Дата кодирования : UTC 2018-03-27 19:29:56
Дата пометки : UTC 2018-03-27 19:29:56
gsst : 0
gstd : 8001457
Видео
Идентификатор : 1
Формат : AVC
Формат/Информация : Advanced Video Codec
Профиль формата : [url=mailto:[email protected]][email protected][/url]
Настройки формата : CABAC / 3 Ref Frames
Параметр CABAC формата : Да
Параметр RefFrames формата : 3 кадра
Идентификатор кодека : avc1
Идентификатор кодека/Информация : Advanced Video Coding
Продолжительность : 2 ч. 13 м.
Битрейт : 128 Кбит/сек
Ширина : 1280 пикселей
Высота : 720 пикселей
Соотношение сторон : 16:9
Режим частоты кадров : Постоянный
Частота кадров : 30,000 кадров/сек
Цветовое пространство : YUV
Субдискретизация насыщенности : 4:2:0
Битовая глубина : 8 бит
Тип развёртки : Прогрессивная
Бит/(Пиксели*Кадры) : 0.005
Размер потока : 122 Мбайт (50%)
Заголовок : ISO Media file produced by Google Inc. Created on: 03/27/2018.
Дата кодирования : UTC 2018-03-27 19:29:56
Дата пометки : UTC 2018-03-27 19:29:56
Цветовой диапазон : Limited
Основные цвета : BT.709
Характеристики трансфера : BT.709
Коэффициенты матрицы : BT.709
Аудио
Идентификатор : 2
Формат : AAC
Формат/Информация : Advanced Audio Codec
Профиль формата : LC
Идентификатор кодека : mp4a-40-2
Продолжительность : 2 ч. 13 м.
Вид битрейта : Переменный
Битрейт : 126 Кбит/сек
Каналы : 2 канала
Расположение каналов : Front: L R
Частота : 44,1 КГц
Частота кадров : 43,066 кадра/сек (1024 SPF)
Метод сжатия : С потерями
Размер потока : 120 Мбайт (49%)
Заголовок : ISO Media file produced by Google Inc. Created on: 03/27/2018.
Дата кодирования : UTC 2018-03-27 19:29:56
Дата пометки : UTC 2018-03-27 19:29:56

Дополнительная информация:

Для того, чтобы внедрять использование данных в бизнесе, необходимо обладать набором специальных знаний и навыков.
Цель курса - освоить основные темы и инструменты, позволяющие находить полезную информацию в данных и внедрять ее использование в боевое окружение.
В нашем курсе мы научим основам анализа данных: расскажем о предобработке данных, типичных задачах и основных алгоритмах машинного обучения, а также научимся обрабатывать объемы данных, для обработки которых недостаточно одной машины. Все задачи будут проработаны на практике как на учебных, так и на реальных данных. Также будут рассмотрены типичные задачи, встречающиеся в разных видах компаний.
В результате прохождения курса слушатель сможет самостоятельно реализовывать весь процесс от поиска знаний в данных до построения процесса по обработке данных в боевом окружении, будет обладать знаниями, необходимыми для изучения более сложных методов машинного обучения.
Присутствуют дополнительные материалы

Информация об авторе

В области информационных технологий работает с 2012 года.
Опыт программирования 5 лет. Владеет языками Python (в том числе стек библиотек для научных вычислений), Java (применение на кластере Hadoop). Работает с технологиями MapReduce, Hive, Spark.
Программист в отделе анализа данных в департаменте рекламных технологий Mail.Ru. Занимается разработкой и внедрением процессов и моделей по обработке данных для использования в рекламе.
В настоящее время участвует в разработке хранилища данных для использования в рекламных сервисах, участвует в разработке системы для сегментирования аудиторий.
Преподает курс "Алгоритмы интеллектуальной обработки больших объемов данных" в Техносфере Mail.ru Закончила Технопарк Mail.Ru
В 2014г. закончила МГТУ им. Н. Э. Баумана по специальности программное обеспечение ЭВМ и Информационные технологии.

Программа курса

Для разработки в области анализа данных необходимо понимать, как устроены основные алгоритмы, какая у них сложность и скорость работы, сколько требуется ресурсов для их успешной работы, область применимости.В первом модуле программы разбираются все базовые алгоритмы машинного обучения. Изучение проходит на сгенерированных данных, не требующих времени на преобразование и доработку. Разъясняется значение и влияние параметров алгоритмов на результат. Каждый этап обучения сопровождается наглядной визуализацией.Будут рассмотрены алгоритмы: линейная регрессия, логистическая регрессия, деревья решений, knn, SVM, k-means, EM, иерархическая кластеризация, DBScanВ результате слушатели уверенно освоят базовые алгоритмы анализа данных и инструменты для базового анализа данных на Python
Занятие 1: Базовые инструменты анализа данных в Python.
Подготовка к курсу. Git, окружение Python. Обзор курса.
Введение в Python, Numpy, Pandas, Sklearn. API Sklearn.
Что такое DS, ML, классы решаемых задач.
ДЗ
Реализация библиотеки. Реализация библиотеки для подсчета статистик и преобразования датасетов в формате csv. Отработка инструментов для преобразования данных в pandas и sklearn.
Занятие 2: Вводная в математические операции.
Интеграл, производная, их свойства, вероятность, плотность вероятности, мат.ожидание, дисперсия, ковариация, матричные вычисления, определитель, обратная матрица и т.п.
Занятие 3: Визуализация
Визуализация на matplotlib, seaborn, plotly
ДЗ
Построение визуализаций по данным
Занятие 4: Линейная регрессия
Математика линейной регрессии. Проблема многомерных пространств и переобучения на примере регрессии. Проблема разреженных данных. Регуляризация.
Простая линейная регрессия на Python. Оценка качества регресcии. Проверка точности модели: обучающая и тестовая выборки. Обучающая и тестовая выборка, кросс-валидация.
Занятие 5: Логистическая регрессия
Математика логистической регрессии. Мультиклассовая регрессия. Оценка качества логистической регрессии.
Теория вероятностей: условные вероятности, теорема Байеса.
Обучение регрессии, градиентный спуск. Регуляризация: L1, L2.
ДЗ
Реализация алгоритма логистической регрессии. Реализация алгоритма логистической регрессии на простых данных. Оценка качества, подбор параметров модели.
Занятие 6: KNN, наивный байес
Метрики и расстояния между объектами: евклидова и другие.
Обучение модели kNN. Ограничения.
Метрики качества: accuracy, precision, recall, др.
Алгоритм наивного байеса. Байесовский классификатор, Принцип Maximum A-Posteriori
Занятие 7: kMeans, EM
Обучение без учителя. Алгоритмы кластеризации, области применения. k-means. Оценка качества обучения, ограничения и подбор алгоритма для задачи.
Байесов подход к вероятности. Алгоритмы с lower-bound. Em алгоритм.
ДЗ
Реализация EM-алгоритма. Реализация EM-алгоритма на простых данных. Оценка качества кластеризации.
Занятие 8: Иерархическая кластеризация, DB-Scan
Иерархическая кластеризация, DB-Scan. Optics. Спектральная кластеризация.
От сгенерированных данных переходим к данным в табличном виде. Такие данные встречаются в конкурсах по анализу данных, а также могут быть собраны, например, напрямую из баз данных. Для применения алгоритмов машинного обучения обычно такие данные требуют дополнительных преобразований.Во втором модуле рассматриваются задачи преобразования и отбора признаков, вопросы подготовки данных для использования в машинном обучении.Также будут рассмотрены более сложные алгоритмы в анализе данных - понижение размерности, определение выбросов в данных, построение ансамблей моделей.
Занятие 9: Feature engineering
Feature engineering. Статистический анализ данных, выбор фич на основе корреляции.
ДЗ
Преобразование набора данных и подбор фич.
Занятие 10: Поиск выбросов в данных
Занятие 11: Уменьшение размерности
Principle component analysis, t-sne. Поиск подмножества фич (subset selection).
ДЗ
Применение снижения размерности для использования в модели.
Занятие 12: Методы оптимизации
SGD, модификации SGD
Занятие 13: Деревья решений
Ограничения и недостатки деревьев решений. Классификация и регрессия с помощью деревьев решений. Выбор оптимального сплита, суррогатный сплит.
ДЗ
Реализация алгоритма дерева решений на простых данных. Реализация некоторых эвристик в деревьях решений.
Занятие 14: Ансамбли моделей
Случайный лес. Обзор методов ансамблирования: бустинг, бэггинг, стекинг, случайные подпространства.
Занятие 15: Бустинг
Xgboost, catboost, lightgbm, Стекинг, блендинг
ДЗ
Применение бустинга для построения лучшей модели.
Занятие 16: SVM, Support vector machine
Разделяющая поверхность с максимальным зазором. Формулировка задачи оптимизации для случаев линейно-разделимых и линейно-неразделимых классов. Сопряженная задача. Опорные векторы. SVM для задач классификации и регрессии. Kernel trick. Теорема Мерсера. Примеры функций ядра.
Чаще всего в окружении, в котором приходится работать, данные не готовы для анализа, у них произвольный формат и много ошибок. Например, это данные из баз знаний, открытых API, данные из различных информационных систем партнеров.В третьем модуле рассматриваются вопросы сбора и очистки данных, разбираются типичные задачи бизнеса. Например, это предсказание ctr, ltv. Дополнительно рассмотрим специальные алгоритмы анализа данных - это работа с временными рядами, рекомендательными системами, текстами, графами.
Занятие 17: Анализ текстовых данных
Сбор данных из открытых источников. Очистка данных, подготовка данных для анализа.Задача обработки текста. Введение, обзор задач, токенизация, лемматизация. Python + sklearn для обработки текстов. Понятие мешка слов, TF.IDF и когда они могут быть нужны, feature selection для NLP.
ДЗ
Реализация процесса сбора данных через API. Преобразование текста, подготовка текста для анализа. Применение машинного обучения для предсказания характеристики в собранных данных
Занятие 18: Анализ текстовых данных
Выделение объектов в тексте (named entity recognition, named entity linking)
Неструктурированные данные. Структурированные данные. Сбор текстов (scraping)
Word2vec для извлечения похожих слов, sentiment analysis
Занятие 19: Рекомендательные системы
Типы рекомендательных систем. Векторное пространство (тот же TF-IDF) и content-based модели, повторение стандартных метрик корреляций: Пирсон, косинусная мера, Джаккарт. Offline метрики и метрики ранжирования. Построение простой content-based модели. Item(user)-based CF. Использование CF для implicit feedback. Построение CF модели (item-based или MF)
ДЗ
Применение алгоритма рекомендаций для датасета фильмов.
Занятие 20: Временные ряды
Что такое временные ряды и простые модели построения прогнозов. Разложение временного ряда на компоненты: тренд, сезонность, цикл, ошибка. Стационарность ряда. Модели класса AR, MA, ARMA, ARIMA. Построение прогноза на примере данных. Модели ARIFMA. Нелинейные модели, библиотека Prophet от Facebook. Векторные модели
Занятие 21: Latent Dirichlet Allocation
ДЗ
Применение LDA для категоризации текстов.
Занятие 22: Алгоритмы на графах
Социальные сети
Занятие 23: Нейронные сети, обучение нейронных сетей
Основы: перцептрон и синапсы, функция активации, примеры задач. Обучение: функция потерь, обратное распространение ошибки, стохастический градиент.
ДЗ
Реализация алгоритма обратного распространения ошибки и применение простой сети на mnist.
Занятие 24: Сверточный слои, каскады, визуализация признаков
Сверточный слои, каскады, визуализация признаков. Нормализация и регуляризация: batchnorm, dropout. Архитектуры нейросетей: обзор архитектур AlexNet, ResNet, GoogLenet.
Большую часть времени любого разработчика процессов анализа данных занимает разработка самого процесса по преобразованию данных на разных этапах. Предполагаются этапы сбора, очистки, агрегации данных, построения модели и предсказания характеристик.
В четвертом модуле рассматриваются возможности построения надежных процессов преобразования данных.В более крупных компаниях данные превышают возможности одной типичной разработческой машины. Появляется потребность работы с алгоритмами, обрабатывающими данные в потоке, а также с кластером.
В четвертом модуле разбираются процессы преобразования данных, слои данных, потоки данных и различные способы хранения и преобразования таких данных на кластере. Разберем возможности построения моделей на кластере. К концу модуля слушатели смогут уверенно использовать стек технологий Hadoop: писать задачи на MapReduce с использованием Java или Hadoop Streaming, использовать Hive и Spark для быстрого преобразования данных, расчета статистик, построения моделей на кластере.
Занятие 25: Процесс CRISP-DM. Выбор хранилища, запросы к базе (Реляционная, нереляционная). Большие данные и параллельные вычисления.
Кластер, hdfs, запросы к hdfs. Map Reduce, Java, Python, Необходимость в кластерных вычислениях. Парадигма MapReduce. Инструменты работы с большими данными. Hadoop, Spark, обзор других компонентов экосистемы. Развертывание кластера Hadoop локально для выполнения учебных примеров. Выполнение учебных примеров на кластере.
ДЗ
Настройка окружения для локальной работы с кластером. Выполнение на локальном кластере набора учебных задач.
Занятие 26: Vowpal Wabbit для обучения линейных моделей на одной машине
Занятие 27: MapReduce на Java, Hadoop Streaming - MapReduce на Python, bash
ДЗ
Реализация алгоритма с использованием MapReduce.
Занятие 28: Пайплайны. Способы выстроить поток задач, обеспечить выполнение. Отказоустойчивость, мониторинг.
Занятие 29: Слои данных для оптимизации процессов использования данных. Hive.
ДЗ
Реализация алгоритма с использованием Hive.
Занятие 30: Организация хранения данных для решения задач машинного обучения
Занятие 31: Spark
Spark как инструмент быстрого доступа к данным. Spark как инструмент для машинного обучения.
ДЗ
Реализация алгоритма с использованием Spark.
Занятие 32: Обзор решений для аналитики больших данных
Vertica, Clickhouse. Основные преимущества и недостатки, для хранения и обработки данных.
Агрегация, управление, эксперименты, анализ, визуализация и BI
В рамках курса предусмотрена защита проекта. Проект представляет из себя программный комплекс, решающий задачу извлечения и использования знаний из реальных данных с использованием машинного обучения. Проект готовится в течение месяца и включает в себя следующие этапы:
- Постановка задачи. Предлагается самостоятельно найти предметную область и обосновать применение в ней машинного обучения
- Разработка данных. Одно из требований к проекту
- Использование данных из открытых источников. Необходимо разработать процесс сбора и очистки данных
- Поиск алгоритма и модели для решения задачи. Необходимо выполнить подготовку данных, выбрать алгоритм и подобрать параметры для построения модели
- Использование модели для достижения поставленной цели. Необходимо реализовать применение разработанной модели
- Построение процесса. Решение задачи необходимо оформить в единый процесс по обработке данных от источника до предсказания, не требующий участия эксперта
- Обоснование процесса
Скриншоты:
       

}{@R0N

Пост 11-Фев-2019 23:34

[Цитировать]

Profileschool | Adobe After Effects: базовый уровень- Автор (режиссер): Никита Чесноков
Производство: Profileschool
Жанр: Обучающее
Описание:
Это исключительно практический курс по After Effects, направленный на то, чтоб подготовить вас к работе с коммерческими заказами. After Effects — удобный и тщательно продуманный инструмент, при помощи которого решаются 95% задач, поставленных перед дизайнером вне зависимости от сферы — ТВ, блогосфера, работа в студии или фриланс. Во главу угла преподаватель поставит аспекты, необходимые при работе над проектами. Это сбалансированная насыщенная программу, сосредоточенная вокруг практических навыков и будущего портфолио.
Продолжительность: 28:30:09
Качество видео: PCRec
Видео: AVC/H.264, 1920x1080, ~927 kbps
Аудио: AAC, 2 ch, 274 kbps

Mediainfo:

Общее
Полное имя : Adobe After Effects. Базовый уровень\01 Занятие\1 Часть.mp4
Формат : MPEG-4
Профиль формата : Base Media
Идентификатор кодека : isom (isom/iso2/avc1/mp41)
Размер файла : 646 Мбайт
Продолжительность : 1 ч. 21 м.
Режим общего битрейта : Переменный
Общий поток : 1107 Кбит/сек
Программа кодирования : Lavf58.12.100
Видео
Идентификатор : 1
Формат : AVC
Формат/Информация : Advanced Video Codec
Профиль формата : [email protected]
Настройки формата : CABAC / 1 Ref Frames
Параметр CABAC формата : Да
Параметр RefFrames формата : 1 кадр
Параметр GOP формата : M=1, N=25
Идентификатор кодека : avc1
Идентификатор кодека/Информация : Advanced Video Coding
Продолжительность : 1 ч. 21 м.
Вид битрейта : Переменный
Битрейт : 905 Кбит/сек
Максимальный битрейт : 2000 Кбит/сек
Ширина : 1920 пикселей
Высота : 1080 пикселей
Соотношение сторон : 16:9
Режим частоты кадров : Постоянный
Частота кадров : 29,970 (30000/1001) кадров/сек
Цветовое пространство : YUV
Субдискретизация насыщенности : 4:2:0
Битовая глубина : 8 бит
Тип развёртки : Прогрессивная
Бит/(Пиксели*Кадры) : 0.015
Размер потока : 528 Мбайт (82%)
Аудио
Идентификатор : 2
Формат : AAC
Формат/Информация : Advanced Audio Codec
Профиль формата : LC
Идентификатор кодека : mp4a-40-2
Продолжительность : 1 ч. 21 м.
Вид битрейта : Постоянный
Битрейт : 192 Кбит/сек
Каналы : 2 канала
Расположение каналов : Front: L R
Частота : 44,1 КГц
Частота кадров : 43,066 кадра/сек (1024 SPF)
Метод сжатия : С потерями
Размер потока : 114 Мбайт (18%)
Default : Да
AlternateGroup/String : 1
Общее
Полное имя : Adobe After Effects. Базовый уровень\01 Занятие\2 Часть.mp4
Формат : MPEG-4
Профиль формата : Base Media / Version 2
Идентификатор кодека : mp42 (mp42/isom)
Размер файла : 728 Мбайт
Продолжительность : 1 ч. 24 м.
Режим общего битрейта : Переменный
Общий поток : 1209 Кбит/сек
Дата кодирования : UTC 2018-12-21 01:14:52
Дата пометки : UTC 2018-12-21 01:14:56
Видео
Идентификатор : 1
Формат : AVC
Формат/Информация : Advanced Video Codec
Профиль формата : [email protected]
Настройки формата : CABAC / 4 Ref Frames
Параметр CABAC формата : Да
Параметр RefFrames формата : 4 кадра
Параметр GOP формата : M=4, N=30
Идентификатор кодека : avc1
Идентификатор кодека/Информация : Advanced Video Coding
Продолжительность : 1 ч. 24 м.
Битрейт : 927 Кбит/сек
Ширина : 1920 пикселей
Высота : 1080 пикселей
Соотношение сторон : 16:9
Режим частоты кадров : Переменный
Частота кадров : 30,000 кадров/сек
Минимальная частота кадров : 29,412 кадров/сек
Максимальная частота кадров : 30,303 кадров/сек
Цветовое пространство : YUV
Субдискретизация насыщенности : 4:2:0
Битовая глубина : 8 бит
Тип развёртки : Прогрессивная
Бит/(Пиксели*Кадры) : 0.015
Размер потока : 558 Мбайт (77%)
Дата кодирования : UTC 2018-12-21 01:14:52
Дата пометки : UTC 2018-12-21 01:14:56
Аудио
Идентификатор : 2
Формат : AAC
Формат/Информация : Advanced Audio Codec
Профиль формата : LC
Идентификатор кодека : mp4a-40-2
Продолжительность : 1 ч. 24 м.
Продолжительность оригинала : 1 ч. 24 м.
Source_Duration_FirstFrame : 1 с. 61 мс.
Вид битрейта : Переменный
Каналы : 2 канала
Расположение каналов : Front: L R
Частота : 44,1 КГц
Частота кадров : 43,066 кадра/сек (1024 SPF)
Метод сжатия : С потерями
Размер потока оригинала : 165 Мбайт (23%)
Заголовок : Stereo
Дата кодирования : UTC 2018-12-21 01:14:52
Дата пометки : UTC 2018-12-21 01:14:56

Продолжение описания:

Вместе с преподавателем вы создадите на курсе уникальные продукты, которые сможете использовать для поиска заказчиков. Курс разбит на тематические блоки и цель каждого занятия — дать максимальный объем знаний по каждой теме не только на базовом уровне, но и показывая некоторые продвинутые аспекты, которые понадобятся в дальнейшей работе. На выходе у вас должен получится набор из нескольких роликов, которые станут основой вашего портфолио на старте в профессии и понимание того, как устроен рынок и где вы можете выгодно применить свои знания.

Об авторе

Никита Чесноков — молодой успешный фрилансер, который специализируется на моушн-дизайне и грамотно использует свои знания для осуществления коммерческой деятельности. За 3 последних года он лично загрузил на Videohive более 300 АЕ проектов, что является абсолютным рекордом Envato, получил более 20 000 продаж и заработал более $500 000, стал топ28 авторов по всему Миру и регулярно входит в 20 лучших авторов месяца.
Никита даст вам не просто знания, а умения, которые легко конвертируются в более чем достойный уровень жизни. Он молод и деятелен, знает современные тренды, современного коммерческого клиента, современные площадки, дающие стабильный доход. Его курс — отборный материал, сосредоточенный вокруг будущего портфолио. Вы выйдете с курса уже оснащенным для коммерческой работы и сможете использовать ролики, созданные на курсе, для презентации своим новым клиентам.

Содержание курса

ЗАНЯТИЕ 1. Начало работы
Интерфейс
Панель Project
Панель Timeline
Панель Effects
Рабочая область
Preferences - настройка некоторых параметров After Effects для ускорения работы
Этапы работы
Способы импорта файлов
Виды файлов, которые могут быть импортированны
Просмотр импортированных файлов
Создание композиций
Добавление импортированных файлов на Timeline
Создание слоев, иерархия слоев
Добавление эффектов, настройка параметров и анимации
Сборка финальной композиции
Предпросмотр
Рендеринг
Работа с композициями в AE
Интерфейс окна Compositions
Предназначение композиций, способы работы с ними
Создание новой композиции, разбор пресетов
Выбор размера композиции
Выбор частоты кадров
Выбор соотношение сторон пикселя
Простая Анимация в АЕ
Ключевые кадры, параметры слоя
Параметры Position и Anchor Point
Параметр Scale
Параметр Rotation
Параметр Opacity
Рендеринг
Знакомство с Render Queue. Команда Add to Render Queue
Знакомство с Media Encoder. Команда Add to Adobe Media Encoder Queue
ЗАНЯТИЕ 2. Анимация
Работа с ключевыми кадрами
Управление ключевыми кадрами на панели Timeline
Интерполяция ключевых кадров
Линейные ключевые кадры
Стоп-кадры
Сглаживание (Easy Ease, In, Out)
Анимация движения объектов по сложной траектории
Автоматическая ориентация объекта относительно траектории
Равномерное движение по траектории
Создание сложного пути
Анимация с помощью Null Object
Работа с Graph Editor
Принципы работы, элементы интерфейса
Конвертация ключевых кадров
Работа с графиком скорости
Работа с графиком значений
Простейшие выражения для анимации
Понятие выражения
Wiggle
LoopOut - Cycle, Continue
Создание базовой анимации и применение Bounce скрипта
Motion Blur
Объяснение физического эффекта размытия движущихся объектов в кадре
Включение опции Motion Blur для слоя / композиции
Параметры Motion Blur в настройках композиции
ЗАНЯТИЕ 3. Файловая система. Слои
Импорт изображений и видеофайлов
Растровые форматы jpg, png, tiff, bmp
Векторные форматы eps, ai, pdf
Файлы со слоями psd, ai
Секвенции (последовательность файлов 001, 002, ...)
Анимированные gif
Видеофайлы
Работа с файлами в панели Project
Организация структуры в панели Project
Интерпретация (настройка) импортированных файлов
Команды Replace и Reload Footage
Создание композиции на основе футажа
Работа со слоями в панели Timeline
Типы слоев - Solid, Null, Adjustment
Цветовые маркеры
Pre-Compose
Управление временем и скоростью анимации - Time Stretchm Time Remapping
Эффект TimeWarp
Понятие Frame Blending
Режимы наложения
Краткий обзор режимов наложения и принципа их группировки
Применение режимов Screen, Multiply, Color
Применение Color Dodge и Color Burn
Специальные режимы Silhouette и Stencil
Эффекты в After Effects
Принцип работы с эффектами
Порядок применения нескольких эффектов
Использование корректирующих слоев для применения эффектов
Встроенные и сторонние эффекты
Обзор эффектов по типам
Размытие: Fast Blur, Directional Blur, Radial Blur, Lens Blur
Цветовая коррекция: Curves, Levels, CC Toner
Эффекты перехода: Grid Wipe, Card Wipe, WarpoMatic, Page Turn
Свечения, блики: Light Rays, Light Burst, Light Sweep, Glow
Часто используемые эффекты в АЕ
Пресеты
Что такое пресет
Где находятся стандартные пресеты анимации
Использование стандартных пресетов After Effects
Сохранение своего собственного пресета для параметров анимации
Сохранение пресета для Эффектов
ЗАНЯТИЕ 4. Сложная анимация. Текст
Связи
Привязка слоя к другому
Понятие Родительский слой
Анимация двух одинаковых параметров
Траектории
Импорт траектории из программы Adobe Illustrator
Анимация по Path
Анимация нескольких параметров
Дополнительные параметры анимации
Анимация иерархии Shape Layers
Базовые приемы работы с текстом
Панели Character и Paragraph
Анимация по параметру Source Text
Анимация движения текста по траектории
Преобразование текстовых слоев
Преобразование слоев Фотошопа в текстовые слои
Импорт многострочных текстовых файлов
Преобразование текста в шейпы, создание анимации
Текстовые аниматоры
Обзор пресетов текстовой анимации
Принцип работы с аниматорами, параметры и селекторы
Range Selector, настройки во вкладке Advanced
Wiggle Selector, примеры использования
ЗАНЯТИЕ 5. Шейповые слои
Понятие шейпов
Понятие фигурного слоя Shape Layer
Виды shape'ов
Создание шейпов
Создание готового шейпа
Создание своего шейпа
Настройка обводки и заливки шейпов
Создание шейпов на основе текстового слоя
Создание шейпов на основе векторного футажа
Модификация шейпов
Объединение шейпов в группы
Объединение нескольких шейпов с помощью Merge
Изменение размеров с помощью Offset Path
Деформация с помощью Zig Zag, Pucker & Bloat
Анимация шейпов
Анимация на основе Trim Path
Анимация на основе Repeater
Анимация на основе Wiggle Path
Анимация на основе свойств обводки
ЗАНЯТИЕ 6. Маски
Понятие Маска
Понятие маски
Создание маски на обычный слой
Создание маски для Shape Layerа
Импорт маски из Иллюстратора
Параметры маски, горячие клавиши
Трансформация формы маски
Маска в движении
Трекинг Масок
Примеры анимации на основе масок
Режимы наложения масок
Track Matte
Маска прозрачности и маска светлоты
Прозрачность в композиции и импортированных футажах
Track Matte на основе Alpha
Track Matte на основе Luma
ЗАНЯТИЕ 7. Основы 3D в After Effects
3D в After Effects
Преобразование слоя в 3D-слой
Взаимодействие двумерных и трехмерных слоев
Возможности и ограничения Classic 3D и Ray traced 3D
Создание и анимация камеры
Null Object как контроллер камеры
Эффект Depth of Field
Создание 3-х мерной сцены
Расположение объектов в 3D-пространстве
Движение текста по пути в 3D-сцене
Создание источников света, Основные параметры
Создание камеры, основные параметры
Источники освещения
Типы источников света
Настройка параметров
Настройка качества теней
Решение проблем, возникающих с источниками света
Практика использования 3D
Создание шаблона 3D слайдшоу или презентации
ЗАНЯТИЕ 8. Кеинг и трекинг
Кеинг
Понятие Keying
Стандартные средства кеинга в АЕ
Применение Keylight 1.2
Применение Difference Matte
Кеинг с помощью каналов
Кеинг с применением Alpha Matte
Кеинг с применением Luma Matte
Трекинг
Общие сведения
Работа с панелью Tracker
Применение данных трекинга к объектам
Использование данных трекинга в эффектах
Трекинг по четырем точкам
Выбор опорных точек
Заполнение отсутствующих данных в трекере
Warp Stabilizer
Применение Warp Stabilizer VFX
Выбор метода No-Motion и Smooth Motion
Точная настройка результата
Track Camera
Выбор параметров для 3D Camera Tracker
Удаление лишних Track Points
Выбор и редактирование цели
Интегрирование 3D-объектов в видеоролик
ЗАНЯТИЕ 9. Связка AE и Cinema 4D. Базовый композитинг
Базовые понятия
Подготовка файла Cinema 4D для импорта в АЕ
Импорт каналов изображения из Cinema 4D в АЕ
Импорт камеры из Cinema 4D в АЕ
Композитинг
Базовые понятия
Создание сцены на основе рендеров из Cinema 4D
ЗАНЯТИЕ 10. AE как инструмент создания музыкального клипа
Подготовка
Подготовка музыкального сопровождения
Импорт файлов, настройка футажей
Тайминг, синхронизация футажей и музыки
Производство
Предварительный монтаж ключевых сцен
Определение ключевых отрезков видео
Создание общего стиля эффектов и цветокора
Применение эффектов
Саунд дизайн
Финальный этап
Предпросмотр
Мастер-композитинг
Мастер-Цветокор
Рендеринг

Дополнительная информация:

Внимание, первое видео было кем-то перекодировано и вставлена реклама варезника, рекламу я вырезал, но с испорченным видео, к сожалению, ничего не сделаю. Остальные видео уже норм.
В раздаче присутствуют такие дополнительные материалы, как задания, файлы для работы, конспекты.
Скриншоты:
       

Дополнительные скриншоты:

               

}{@R0N

Пост 11-Фев-2019 23:27

[Цитировать]

Profileschool | Adobe After Effects: расширенные возможности- Автор (режиссер): Никита Чесноков
Производство: Profileschool
Жанр: Обучающее
Описание:
Это курс для студентов, уже знающих [url=/forum/viewtopic.php?t=1281743]базовый After Effects[/url] и желающих повысить навыки владения программой или открыть для себя новые техники. Курс учит не только создавать работы, но и продавать их. Еще на стадии задумки мы будем оценивать коммерческий потенциал своей работы — это приучит вас впоследствии мыслить приоритетами рынка, научит создавать полноценные коммерческие проекты. Вы узнаете все тонкости работы с графикой на коммерческом уровне, познакомитесь со всем спектром задач, которые клиент обычно решает путем создания ролика, сможете грамотно организовывать свой рабочий процесс и продуктивно настроить процесс согласования. Курс полностью подготовит вас к созданию коммерческих шаблонов для продажи на Videohive, улучшит ваши навыки ведения проекта и поможет вам выйти на новый технический уровень.
Продолжительность: 02:25:41
Качество видео: PCRec
Видео: AVC/H.264, 1280-1920x1080-720, ~1162 kbps
Аудио: AAC, 2 ch, 127-137 Kbps

Mediainfo:

Общее
Полное имя : Adobe After Effects. Расширенные возможности\1.Базовые приемы работы с текстом.mp4
Формат : MPEG-4
Профиль формата : Base Media / Version 2
Идентификатор кодека : mp42 (mp42/isom)
Размер файла : 182 Мбайт
Продолжительность : 19 м. 28 с.
Режим общего битрейта : Переменный
Общий поток : 1303 Кбит/сек
Дата кодирования : UTC 2019-01-21 14:43:40
Дата пометки : UTC 2019-01-21 14:43:41
Видео
Идентификатор : 1
Формат : AVC
Формат/Информация : Advanced Video Codec
Профиль формата : [email protected]
Настройки формата : CABAC / 5 Ref Frames
Параметр CABAC формата : Да
Параметр RefFrames формата : 5 кадров
Идентификатор кодека : avc1
Идентификатор кодека/Информация : Advanced Video Coding
Продолжительность : 19 м. 28 с.
Битрейт : 1162 Кбит/сек
Ширина : 1920 пикселей
Высота : 1080 пикселей
Соотношение сторон : 16:9
Режим частоты кадров : Постоянный
Частота кадров : 25,000 кадров/сек
Цветовое пространство : YUV
Субдискретизация насыщенности : 4:2:0
Битовая глубина : 8 бит
Тип развёртки : Прогрессивная
Бит/(Пиксели*Кадры) : 0.022
Размер потока : 162 Мбайт (89%)
Библиотека кодирования : x264 core 157 r10 545de2f
Настройки программы : cabac=1 / ref=5 / deblock=1:0:0 / analyse=0x3:0x113 / me=hex / subme=8 / psy=1 / psy_rd=1.00:0.00 / mixed_ref=1 / me_range=16 / chroma_me=1 / trellis=2 / 8x8dct=1 / cqm=0 / deadzone=21,11 / fast_pskip=1 / chroma_qp_offset=-2 / threads=34 / lookahead_threads=5 / sliced_threads=0 / nr=0 / decimate=1 / interlaced=0 / bluray_compat=0 / stitchable=1 / constrained_intra=0 / bframes=3 / b_pyramid=2 / b_adapt=2 / b_bias=0 / direct=3 / weightb=1 / open_gop=0 / weightp=2 / keyint=infinite / keyint_min=25 / scenecut=40 / intra_refresh=0 / rc_lookahead=50 / rc=crf / mbtree=1 / crf=20.0 / qcomp=0.60 / qpmin=5 / qpmax=69 / qpstep=4 / vbv_maxrate=5500 / vbv_bufsize=15000 / crf_max=0.0 / nal_hrd=none / filler=0 / ip_ratio=1.40 / aq=1:1.00
Дата кодирования : UTC 2019-01-21 14:43:40
Дата пометки : UTC 2019-01-21 14:43:41
Цветовой диапазон : Limited
Основные цвета : BT.709
Характеристики трансфера : BT.709
Коэффициенты матрицы : BT.709
Аудио
Идентификатор : 2
Формат : AAC
Формат/Информация : Advanced Audio Codec
Профиль формата : LC
Идентификатор кодека : mp4a-40-2
Продолжительность : 19 м. 28 с.
Duration_FirstFrame : 699 мс.
Вид битрейта : Переменный
Битрейт : 137 Кбит/сек
Каналы : 2 канала
Расположение каналов : Front: L R
Частота : 48,0 КГц
Частота кадров : 46,875 кадров/сек (1024 SPF)
Метод сжатия : С потерями
Размер потока : 19,1 Мбайт (11%)
Заголовок : Stereo
Дата кодирования : UTC 2019-01-21 14:43:40
Дата пометки : UTC 2019-01-21 14:43:41
Общее
Полное имя : Adobe After Effects. Расширенные возможности\8.Стабилизация.mp4
Формат : MPEG-4
Профиль формата : Base Media
Идентификатор кодека : isom (isom/iso2/avc1/mp41)
Размер файла : 137 Мбайт
Продолжительность : 7 м. 0 с.
Режим общего битрейта : Постоянный
Общий поток : 2734 Кбит/сек
Программа кодирования : Lavf57.71.100
Видео
Идентификатор : 1
Формат : AVC
Формат/Информация : Advanced Video Codec
Профиль формата : [url=mailto:[email protected]][email protected][/url]
Настройки формата : CABAC / 1 Ref Frames
Параметр CABAC формата : Да
Параметр RefFrames формата : 1 кадр
Параметр GOP формата : M=1, N=25
Идентификатор кодека : avc1
Идентификатор кодека/Информация : Advanced Video Coding
Продолжительность : 7 м. 0 с.
Вид битрейта : Постоянный
Битрейт : 2602 Кбит/сек
Номинальный битрейт : 3003 Кбит/сек
Ширина : 1280 пикселей
Высота : 720 пикселей
Соотношение сторон : 16:9
Частота кадров : 25,000 кадров/сек
Цветовое пространство : YUV
Субдискретизация насыщенности : 4:2:0
Битовая глубина : 8 бит
Тип развёртки : Прогрессивная
Бит/(Пиксели*Кадры) : 0.113
Размер потока : 130 Мбайт (95%)
Аудио
Идентификатор : 2
Формат : AAC
Формат/Информация : Advanced Audio Codec
Профиль формата : LC
Идентификатор кодека : mp4a-40-2
Продолжительность : 7 м. 0 с.
Вид битрейта : Постоянный
Битрейт : 128 Кбит/сек
Каналы : 2 канала
Расположение каналов : Front: L R
Частота : 48,0 КГц
Частота кадров : 46,875 кадров/сек (1024 SPF)
Метод сжатия : С потерями
Размер потока : 6,39 Мбайт (5%)
Язык : unk
Default : Да
AlternateGroup/String : 1

Об авторе

Никита Чесноков — молодой успешный фрилансер, который специализируется на моушн-дизайне и грамотно использует свои знания для осуществления коммерческой деятельности. За 3 последних года он лично загрузил на Videohive более 300 АЕ проектов, что является абсолютным рекордом Envato, получил более 20 000 продаж и заработал более $500 000, стал топ28 авторов по всему Миру и регулярно входит в 20 лучших авторов месяца.
Никита даст вам не просто знания, а умения, которые легко конвертируются в более чем достойный уровень жизни. Он молод и деятелен, знает современные тренды, современного коммерческого клиента, современные площадки, дающие стабильный доход. Его курс — отборный материал, сосредоточенный вокруг будущего портфолио. Вы выйдете с курса уже оснащенным для коммерческой работы и сможете использовать ролики, созданные на курсе, для презентации своим новым клиентам.

Программа курса

ЗАНЯТИЕ 1. Переходы
Введение
Понятие «переход»
Виды переходов
Задачи, которые решают переходы
Разбор основных ошибок и несоответствия стилей между видео и переходом
Шторки
Понятие перехода Шторки
Виды и принцип работы
Тайминг и оверспид перехода
Создание основных видов шторок
Шейпы, геометрия
Понятие геометрических переходов
Тайминг и виды геометрии
«Удачные и не удачные» виды фигур для переходов
Создание и применение основных переходов с шейпами
Переход путем разбиения элемента на части
Понятие и виды
Основной принцип создания
Block Disslove и Venetian Blinds
Создание сложного перехода с использованием стандартных техник и эффектов АЕ
Бесшовные переходы
Основные виды Seamless переходов
Универсальность и огромных потенциал их использования
Основные моменты при создании эффекта перелета
Трейлерные переходы путем искажения изображения
Optics Compensation как ключевой элемент создания трейлерного перехода
ЗАНЯТИЕ 2. АЕ как инструмент Корпоративной графики
Введение
Виды корпоративной графики
Основные задачи ролика для компании
Основные ошибки при создании бизнес-ролика
Статика
Создание статичной сцены для бизнес ролика
Разбор основных элементов и ключевых моментов
Расстановка акцентов при работе с коммерческим футажем
Важность подбора цветов
Анимация
Важность подбора муз сопровождения
Виды переходов и склеек в бизнес роликах
Тайминг, скорость, плавность анимации
Оптимизация рендера групп элементов
Создание сложной анимации
Практика работы с коммерческим проектом внутри занятия
ЗАНЯТИЕ 3. Стилизация видео
Задачи и виды
Основные понятие о стилизации видео в совеременном мире
Разбор трендов и примеров
Отличия «минимализма» от «лени»
Техники создания трендовых опенеров
Стоп-кадры и замедления
Подготовка материалов
Создание эффекта стоп кадра
Создание полноценной 3Д сцены с нашим стопкадром
Стиль
Стилизация нашей сцены в Cartoon стиле
Различные техники создания обводки и растушевки
Добавление сторонних элементов в сцену для создания глубины картинки
Создание гармоничного титра и его анимация
ЗАНЯТИЕ 4. HUD-UI Графика
Введение
Понятие HUD UI
Применение HUD UI
Виды и типы
Статика
Создание статичного интерфейса средствами АЕ
Импорт элементов интерфейса из PS и AI
Подготовка к анимации
Анимация
Индивидуальная анимация объекта
Комплексная анимация группы объектов
Оптимизация и пре-рендеринг
Упрощение анимации через модификатор Repeater
Композитинг
Сбор псевдо-3д интерфейса
Цветокоррекция
Продвинутые техники Glow
Использование режимов битности композиции для улучшения свечения
Разбор основных ошибок и «плохих» примеров композитинга
ЗАНЯТИЕ 5. Экспозиция как эффект
Введение
Понятие двойная экспозиция
Виды роликов с эффектом двойной экспозиции
История появления эффекта
Потребность в данном эффекте на сегодняший день
Статика
Разбор примеров эффектов
Определение желаемого финального результата
Подготовка материалов
Импорт и настройка
Техника «плейсхолдеров» в оперативном дизайне
Создание статичной сцены с использованием знакомых техник
Анимация
Создание полноценной 3д сцены
техника «control panel» для упрощения анимации и работы с ней
Привязка всех необходимых данных к контроллерам
Создание единой системы настройки сцены
Анимация Параметров с помощью системы контроллера
ЗАНЯТИЕ 6. Parallax в коммерческих видео
Введение
Понятие эффекта Параллакс
Виды
Основные требования к футажам при создании параллакса
Примеры удачных и неудачных параллаксов, разбор основных ошибок
Потертости, Скретчи, «шурешки» как инструмент создания глубины анимации
Простой параллакс
Разбор задач, под которые он подходит
Примеры простого параллакса для фото и видео
Отличия в техниках анимации параллаксов в зависимости от футажа
Камера как элемент интеграции параллакса в футаж
Создание сцены с простым параллаксом на основе фото
Параллакс на основе масок
Разбор примеров параллакса на основе фото
Разбор примеров параллакса на основе видео
Определение «пригодности» исходников для подобного вида параллакса
Создание сцены с параллаксом на основе масок
3D Параллакс
Ключевые отличия от двух других видов
Подготовка материалов для создания
Использование Collpase Transformation для удобства создания 3д обьекта
Техника создания глубины изображения на основе масок в АЕ
Создание имитации 3д из обычной фотографии
ЗАНЯТИЕ 7. Трейлеры и 3D титры
Виды трейлерных титров
Разбор основных категорий трейлерных текстов
Основные задачи, которые они решают
Элементы
Разделение сцены на составляющие
Основные виды фонов
Основные источники освещения
Основные виды части
Визуальный мусор
Шрифт и цвет
Разбор основных шрифтов для создания трейлерного эффекта
Техника создания псевдо 3Д текста в АЕ
Отражения, свечения и преломления на псевдо 3Д тексте
Правильная интеграция готового текста в сцену путем цветокоррекции
Основные палитры цветов
Анимация
«Зачем нужна тряска» при движении?
Подбор муз сопровождения
Синхронизация движения камеры под музыку
Trapcode Particular как элемент создания основных частиц
Trapcode Form как элемент создания дополнительных частиц
Optical Flares без сторонних плагинов и скриптов
Стыки и склейки между сценами в трейлерах
ЗАНЯТИЕ 8. 2D Бродкаст
Введение
Понятие Бродкаст дизайна в целом
Задачи бродкаст дизайна
Виды и стили, история
Почему всем надоело 3D стекло?
Тренды
Поиск идей, референсов
Основные ресурсы для поиска правильных референсов в бродкасте
Ключевые моменты, на которые стоит ориентироваться
Полноценный Бродкаст пак
Структура
Состав пака
Подготовка материалов для создания
Отличия Opener от Promo внутри пака
Создание Opener как эталон стиля для всего пака
Создание Promo, Bumer используя уже созданный Opener
Необходимое количество Transitions и их создание
Lower Third и Titles как завершающие элементы
Применение созданного пака при работе с коммерческими видео

Дополнительная информация

В раздаче присутствует материал к урокам
Скриншоты:
       

UralSOFT

Пост 07-Фев-2019 23:58

[Цитировать]

Видеокурс Создание сборки Windows 8 UralSOFT (Авторская работа)
Название: Видеокурс Создание сборки Windows 8 UralSOFT (Авторская работа)
Год выпуска: 2013
Автор курса:UralSOFT
Продолжительность: 4 часа
Тип раздаваемого материала: Видеоурок
Видео :AVI 1280x720 2573 кбит в сек, 15 кадров в сек
Звук 352 кбит в сек, 1 (моно) 22кГц
Язык: Русский
Описание:
Видео адаптировано для просмотра на ноутбуках - нетбуках.
Из него вы поймете..что для каждой версии Windows нужен свой WAIK , Windows KITS и тд.
Рекомендуется к просмотру тем, кто ранее скачал и смотрел курс по созданию Windows 7/
Данный видеокурс поможет вам понять азы создания простой сборки "под себя"
Добавить необходимые вам программы,обновить систему , настроить некоторые параметры.
Что то добавить , а что то удалить.
В раздаче присутствует два образа.Один с уроками, второй с необходимыми программами!Все что демонстрируется в видеоуроке - присутствует на диске с программами, то есть, кому интересно- смотрите видео и делаете свою сборку. Никаких заумных выражений, все объясняется простым- доступным языком!
Звук к сожалению вышел не очень,но можете сами настроить под себя.
К сожалению всем желающим у кого будут трудности , я помочь просто физически не смогу..по этому если и будете обращаться с вопросами, то только в крайнем случае.Если есть время- я всегда помогу!
Смонтировать образ на виртуальный привод программой UltraISO или аналогичными. Запускать курс или параметрами автозапуска или файлом uralsoft.exe
Некоторые ролики есть на Youtube
Это мой настоящий и единственный полный видеокурс.Желаю вам успехов в ваших познаниях и начинаниях!
контрольные суммы
Win8 Programs
CRC32: 087E503B
MD5: 7CD1EAFC4642A8B564BB3271B255EAC1
SHA-1: 5F21790F12179120DB337A3E7EDA1BCB83BFA232
KursWindows 8
CRC32: 27B60395
MD5: AAD88D16D9E1CC86507BC37A5A40F275
SHA-1: 5D80EA0AF6B0DAC23486CFC48CDF701C03F4EE30

Скриншоты

       

UralSOFT

Пост 01-Фев-2019 20:51

[Цитировать]

Видеокурс Создание сборки Windows 7 UralSOFT (Авторская работа)
Название: Видеокурс Создание сборки Windows 7 UralSOFT (Авторская работа)
Год выпуска: 2013
Автор курса:UralSOFT
Продолжительность: 4 часа
Тип раздаваемого материала: Видеоурок
Видео :AVI 1280x720 2573 кбит в сек, 15 кадров в сек
Звук 352 кбит в сек, 1 (моно) 22кГц
Язык: Русский
Описание:
Данный видеокурс поможет вам понять азы создания простой сборки "под себя"
Добавить необходимые вам программы,обновить систему , настроить некоторые параметры.
Что то добавить , а что то удалить.
В раздаче присутствует два образа.Один с уроками, второй с необходимыми программами!Все что демонстрируется в видеоуроке - присутствует на диске с программами, то есть, кому интересно- смотрите видео и делаете свою сборку. Никаких заумных выражений, все объясняется простым- доступным языком!
Звук к сожалению вышел не очень,но можете сами настроить под себя.
К сожалению всем желающим у кого будут трудности , я помочь просто физически не смогу..по этому если и будете обращаться с вопросами, то только в крайнем случае.Если есть время- я всегда помогу!
Смонтировать образ на виртуальный привод программой UltraISO или аналогичными. Запускать курс или параметрами автозапуска или файлом uralsoft.exe
Некоторые ролики есть на Youtube
Это мой настоящий и единственный полный видеокурс.Желаю вам успехов в ваших познаниях и начинаниях!

Скриншоты

       
   

}{@R0N

Пост 21-Янв-2019 14:49

[Цитировать]

ITVDN | Онлайн курс Bootstrap 4- Автор (режиссер): Илья Краевский
Производство: ITVDN
Жанр: Программирование,дизайн,front-end,Bootstrap
Описание:
Bootstrap 4 – это HTML, CSS, JS фреймворк для разработки кроссбраузерных веб ориентированных интерфейсов. Bootstrap представляет набор инструментов от Twitter, созданный для облегчения разработки web-приложений и сайтов, использует CSS и HTML для типографии, форм, кнопок, таблиц, сеток, навигации и т.д., а также дополнительные расширения JavaScript, упрощающие работу веб разработчика.
Продолжительность: 04:04:07
Качество видео: PCRec
Видео: AVC/H.264, 1920x1080, ~571 Kbps
Аудио: AAC, 2 ch, 256 Kbps

Mediainfo:

General
Complete name \\\Bootstrap 4\Bootstrap_V4\ВИДЕОУРОК №1. ЗНАКОМСТВО С BOOTSTRAP 4.MP4
Format : MPEG-4
Format profile : Base Media / Version 2
Codec ID : mp42 (mp42/mp41/isom/avc1)
File size : 250 MiB
Duration : 42 min 0 s
Overall bit rate mode : Variable
Overall bit rate : 831 kb/s
Encoded date : UTC 2018-01-30 10:57:46
Tagged date : UTC 2018-01-30 10:57:46
Video
ID : 1
Format : AVC
Format/Info : Advanced Video Codec
Format profile : [email protected]
Format settings : CABAC / 4 Ref Frames
Format settings, CABAC : Yes
Format settings, ReFrames : 4 frames
Codec ID : avc1
Codec ID/Info : Advanced Video Coding
Duration : 42 min 0 s
Bit rate : 571 kb/s
Width : 1 920 pixels
Height : 1 080 pixels
Display aspect ratio : 16:9
Frame rate mode : Constant
Frame rate : 25.000 FPS
Color space : YUV
Chroma subsampling : 4:2:0
Bit depth : 8 bits
Scan type : Progressive
Bits/(Pixel*Frame) : 0.011
Stream size : 172 MiB (69%)
Writing library : x264 core 155 r10 b00bcaf
Encoding settings : cabac=1 / ref=4 / deblock=1:0:0 / analyse=0x3:0x113 / me=hex / subme=8 / psy=1 / psy_rd=1.00:0.00 / mixed_ref=1 / me_range=16 / chroma_me=1 / trellis=2 / 8x8dct=1 / cqm=0 / deadzone=21,11 / fast_pskip=1 / chroma_qp_offset=-2 / threads=34 / lookahead_threads=5 / sliced_threads=0 / nr=0 / decimate=1 / interlaced=0 / bluray_compat=0 / stitchable=1 / constrained_intra=0 / bframes=3 / b_pyramid=2 / b_adapt=2 / b_bias=0 / direct=3 / weightb=1 / open_gop=0 / weightp=2 / keyint=infinite / keyint_min=25 / scenecut=40 / intra_refresh=0 / rc_lookahead=50 / rc=crf / mbtree=1 / crf=20.0 / qcomp=0.60 / qpmin=5 / qpmax=69 / qpstep=4 / vbv_maxrate=5500 / vbv_bufsize=15000 / crf_max=0.0 / nal_hrd=none / filler=0 / ip_ratio=1.40 / aq=1:1.00
Encoded date : UTC 2018-01-30 10:57:46
Tagged date : UTC 2018-01-30 10:57:46
Color range : Limited
Color primaries : BT.709
Transfer characteristics : BT.709
Matrix coefficients : BT.709
Audio
ID : 2
Format : AAC
Format/Info : Advanced Audio Codec
Format profile : LC
Codec ID : mp4a-40-2
Duration : 42 min 0 s
Bit rate mode : Variable
Bit rate : 256 kb/s
Channel(s) : 2 channels
Channel positions : Front: L R
Sampling rate : 48.0 kHz
Frame rate : 46.875 FPS (1024 SPF)
Compression mode : Lossy
Stream size : 76.9 MiB (31%)
Encoded date : UTC 2018-01-30 10:57:46
Tagged date : UTC 2018-01-30 10:57:46

Дополнительная информация:

Присутствую учебные материалы, презентации...
Скриншоты:
       

}{@R0N

Пост 19-Янв-2019 11:48

[Цитировать]

ITVDN | Создание адаптивного сайта с Bootstrap 3 - Автор (режиссер): Александр Пономаренко
Производство: Itvdn.com
Жанр: Программирование,дизайн,front-end
Описание:
Данный видео курс предназначен для обучения современным приемам и подходам адаптивной верстки, в нем продемонстрирован простой процесс создания адаптивной версии сайтов при помощи возможностей Bootstrap. Кроме того, Вы увидите к каким проблемам можно прийти, если Вы захотите реализовать адаптивной дизайн без использования Bootstrap 3
Продолжительность: 03:22:24
Качество видео: PCRec
Видео: AVC/H.264, 1350х720 ~518 kbps
Аудио: AAC, 2 ch, 235 kbps

Mediainfo:

General
Complete name : \\Downloads\sozdanie-adaptivnogo-saita-s-bootstrap-3\sozdanie-adaptivnogo-saita-s-bootstrap-3\5-verstka-adaptivnogo-maketa-na-bootstrap-chast-3.mp4
Format : MPEG-4
Format profile : Base Media / Version 2
Codec ID : mp42 (mp42/mp41/isom/avc1)
File size : 206 MiB
Duration : 38 min 0 s
Overall bit rate mode : Variable
Overall bit rate : 758 kbps
Encoded date : UTC 2016-07-11 12:34:02
Tagged date : UTC 2016-07-11 12:34:02
Video
ID : 1
Format : AVC
Format/Info : Advanced Video Codec
Format profile : [url=mailto:[email protected]][email protected][/url]
Format settings : CABAC / 5 Ref Frames
Format settings, CABAC : Yes
Format settings, ReFrames : 5 frames
Codec ID : avc1
Codec ID/Info : Advanced Video Coding
Duration : 38 min 0 s
Bit rate : 518 kbps
Width : 1 350 pixels
Height : 720 pixels
Display aspect ratio : 1.85:1
Frame rate mode : Constant
Frame rate : 30.000 FPS
Color space : YUV
Chroma subsampling : 4:2:0
Bit depth : 8 bits
Scan type : Progressive
Bits/(Pixel*Frame) : 0.018
Stream size : 141 MiB (68%)
Writing library : x264 core 148 r11 3b70645
Encoding settings : cabac=1 / ref=5 / deblock=1:0:0 / analyse=0x3:0x113 / me=umh / subme=8 / psy=1 / psy_rd=1.00:0.00 / mixed_ref=1 / me_range=16 / chroma_me=1 / trellis=1 / 8x8dct=1 / cqm=0 / deadzone=21,11 / fast_pskip=1 / chroma_qp_offset=-2 / threads=22 / lookahead_threads=3 / sliced_threads=0 / nr=0 / decimate=1 / interlaced=0 / bluray_compat=0 / stitchable=1 / constrained_intra=0 / bframes=3 / b_pyramid=2 / b_adapt=2 / b_bias=0 / direct=3 / weightb=1 / open_gop=0 / weightp=2 / keyint=infinite / keyint_min=30 / scenecut=40 / intra_refresh=0 / rc_lookahead=50 / rc=crf / mbtree=1 / crf=20.0 / qcomp=0.60 / qpmin=5 / qpmax=69 / qpstep=4 / vbv_maxrate=2750 / vbv_bufsize=7500 / crf_max=0.0 / nal_hrd=none / filler=0 / ip_ratio=1.40 / aq=1:1.00
Encoded date : UTC 2016-07-11 12:34:02
Tagged date : UTC 2016-07-11 12:34:02
Color range : Limited
Color primaries : BT.709
Transfer characteristics : BT.709
Matrix coefficients : BT.709
Audio
ID : 2
Format : AAC
Format/Info : Advanced Audio Codec
Format profile : LC
Codec ID : mp4a-40-2
Duration : 38 min 0 s
Bit rate mode : Variable
Bit rate : 235 kbps
Channel(s) : 2 channels
Channel positions : Front: L R
Sampling rate : 48.0 kHz
Frame rate : 46.875 FPS (1024 SPF)
Compression mode : Lossy
Stream size : 64.0 MiB (31%)
Encoded date : UTC 2016-07-11 12:34:02
Tagged date : UTC 2016-07-11 12:34:02

Дополнительная информация:

Присутствую материалы.
Скриншоты:        

}{@R0N

Пост 19-Янв-2019 11:48

[Цитировать]

Itvdn | Ruby Essential - Автор (режиссер): Юля Гончаренко
Производство: Itvdn.com
Жанр: Программирование, RUBY
Описание:
Видео курс Ruby Essential предназначен как для совершенных новичков в программировании, так и для начинающих специалистов, которые уже сталкивались с основами программирования в других языках и хотят познакомиться с базовыми понятиями языка Ruby. Также данный курс будет полезен для тех, кто в дальнейшем хочет углубить свои знания и начать работу в веб-разработке с фреймворком Ruby on Rails. По завершению этого курса вы сможете полностью владеть базовым уровнем языка Ruby, то есть работать с базовыми типами данных и объектов, понимать структуру алгоритмов, применять их на практике, правильно применять методы, а также писать свои собственные методы, понимать основы ООП, создавать свои классы и работать с ними, а также писать программы различного функционала.
Продолжительность: 02:32:46
Качество видео: PCRec
Видео: AVC/H.264, 1280x720, ~330 kbps
Аудио: AAC, 2 ch, 256 kbps

Mediainfo:

Complete name               : \\Ruby-Essential\1-vvedenie-v-ruby.mp4
Format : MPEG-4
Format profile : Base Media / Version 2
Codec ID : mp42 (mp42/mp41/isom/avc1)
File size : 49.0 MiB
Duration : 11 min 37 s
Overall bit rate mode : Variable
Overall bit rate : 590 kbps
Encoded date : UTC 2017-09-08 10:35:04
Tagged date : UTC 2017-09-08 10:35:04
Video
ID : 1
Format : AVC
Format/Info : Advanced Video Codec
Format profile : [url=mailto:[email protected]][email protected][/url]
Format settings : CABAC / 5 Ref Frames
Format settings, CABAC : Yes
Format settings, ReFrames : 5 frames
Codec ID : avc1
Codec ID/Info : Advanced Video Coding
Duration : 11 min 37 s
Bit rate : 330 kbps
Width : 1 280 pixels
Height : 720 pixels
Display aspect ratio : 16:9
Frame rate mode : Constant
Frame rate : 15.000 FPS
Color space : YUV
Chroma subsampling : 4:2:0
Bit depth : 8 bits
Scan type : Progressive
Bits/(Pixel*Frame) : 0.024
Stream size : 27.5 MiB (56%)
Writing library : x264 core 150 r10 df79067
Encoding settings : cabac=1 / ref=5 / deblock=1:0:0 / analyse=0x3:0x113 / me=hex / subme=8 / psy=1 / psy_rd=1.00:0.00 / mixed_ref=1 / me_range=16 / chroma_me=1 / trellis=2 / 8x8dct=1 / cqm=0 / deadzone=21,11 / fast_pskip=1 / chroma_qp_offset=-2 / threads=22 / lookahead_threads=3 / sliced_threads=0 / nr=0 / decimate=1 / interlaced=0 / bluray_compat=0 / stitchable=1 / constrained_intra=0 / bframes=3 / b_pyramid=2 / b_adapt=1 / b_bias=0 / direct=3 / weightb=1 / open_gop=0 / weightp=2 / keyint=infinite / keyint_min=15 / scenecut=40 / intra_refresh=0 / rc_lookahead=50 / rc=crf / mbtree=1 / crf=20.0 / qcomp=0.60 / qpmin=5 / qpmax=69 / qpstep=4 / vbv_maxrate=2750 / vbv_bufsize=7500 / crf_max=0.0 / nal_hrd=none / filler=0 / ip_ratio=1.40 / aq=1:1.00
Encoded date : UTC 2017-09-08 10:35:04
Tagged date : UTC 2017-09-08 10:35:04
Color range : Limited
Color primaries : BT.709
Transfer characteristics : BT.709
Matrix coefficients : BT.709
Audio
ID : 2
Format : AAC
Format/Info : Advanced Audio Codec
Format profile : LC
Codec ID : mp4a-40-2
Duration : 11 min 37 s
Bit rate mode : Variable
Bit rate : 256 kbps
Channel(s) : 2 channels
Channel positions : Front: L R
Sampling rate : 48.0 kHz
Frame rate : 46.875 FPS (1024 SPF)
Compression mode : Lossy
Stream size : 21.3 MiB (43%)
Encoded date : UTC 2017-09-08 10:35:04
Tagged date : UTC 2017-09-08 10:35:04

Дополнительная информация:

В раздаче имеются архивы! В них содержится дополнительные материалы.
Скриншоты:
       

}{@R0N

Пост 14-Янв-2019 20:29

[Цитировать]

Дмитрий Лаврик | Javascript. Только для участников основного курса - Автор (режиссер): Дмитрий Лаврик
Жанр: Программирование, Javascript
Описание:
Цель курса - добить серьёзное ООП в javascript с прототипами, наследованием и т.п.
А также изучить AJAX для организации фонового общения клиента и сервера.
Продолжительность: 08:37:24
Качество видео: PCRec
Видео: AVC/H.264, 1680x1048, ~149-210 Kbps
Аудио: AAC, 2 ch, 157-158 Kbps

Mediainfo:

Общее
Полное имя : .\01 ООП на прототипах\js-progr-1.mp4
Формат : MPEG-4
Профиль формата : Base Media / Version 2
Идентификатор кодека : mp42 (isom/mp42)
Размер файла : 274 Мбайт
Продолжительность : 2 ч. 3 м.
Режим общего битрейта : Переменный
Общий поток : 310 Кбит/сек
Исполнитель : Dmitry Lavrik
Дата кодирования : UTC 2017-04-19 19:35:49
Дата пометки : UTC 2017-04-19 19:35:49
Видео
Идентификатор : 1
Формат : AVC
Формат/Информация : Advanced Video Codec
Профиль формата : [email protected]
Настройки формата : 3 Ref Frames
Параметр CABAC формата : Нет
Параметр RefFrames формата : 3 кадра
Идентификатор кодека : avc1
Идентификатор кодека/Информация : Advanced Video Coding
Продолжительность : 2 ч. 3 м.
Продолжительность оригинала : 2 ч. 3 м.
Битрейт : 150 Кбит/сек
Ширина : 1680 пикселей
Высота : 1048 пикселей
Соотношение сторон : 16:10
Режим частоты кадров : Переменный
Частота кадров : 30,000 кадров/сек
Минимальная частота кадров : 30,000 кадров/сек
Максимальная частота кадров : 30,030 кадров/сек
Стандарт вещания : NTSC
Цветовое пространство : YUV
Субдискретизация насыщенности : 4:2:0
Битовая глубина : 8 бит
Тип развёртки : Прогрессивная
Бит/(Пиксели*Кадры) : 0.003
Размер потока : 132 Мбайт (48%)
Размер потока оригинала : 132 Мбайт (48%)
Язык : English
Дата кодирования : UTC 2017-04-19 19:35:49
Дата пометки : UTC 2017-04-19 19:35:49
Цветовой диапазон : Limited
mdhd_Duration : 7414167
Codec configuration box : avcC
Аудио
Идентификатор : 2
Формат : AAC LC
Формат/Информация : Advanced Audio Codec Low Complexity
Идентификатор кодека : mp4a-40-2
Продолжительность : 2 ч. 3 м.
Продолжительность оригинала : 2 ч. 3 м.
Вид битрейта : Переменный
Битрейт : 158 Кбит/сек
Максимальный битрейт : 219 Кбит/сек
Каналы : 2 канала
Channel layout : L R
Частота : 44,1 КГц
Частота кадров : 43,066 кадра/сек (1024 SPF)
Метод сжатия : С потерями
Размер потока : 139 Мбайт (51%)
Размер потока оригинала : 139 Мбайт (51%)
Язык : English
Дата кодирования : UTC 2017-04-19 19:35:49
Дата пометки : UTC 2017-04-19 19:35:49
mdhd_Duration : 7414201

Программа:

урок 1. ООП на прототипах.
- Понятие прототипа объекта
- Порядок доступа к свойствам
- Преимущества работы с прототипами
- Наследование
- Полиморфизм
урок 2. ООП мышление.
- Разработка тренировочной игры
- Создание иерархии сущностей
- Выделение базовых классов
- Максимальная выгода от наследования
- Взаимодействие объектов друг с другом
урок 3. Основы AJAX.
- Основы фоновых запросов
- AJAX и JQuery
- Функции load, get, post, ajax
- Обработка результатов
- Контроль ошибочных запросов
урок 4. JSON, JSONP, CORS.
- Основные форматы передачи данных
- Запросы к своему серверу
- Способы обращений к другим доменам
- Костыль JSONP
- Разрешение CORS

Дополнительная информация:

В раздаче имеются архивы! В них содержится дополнительные материалы.
Скриншоты:
       

}{@R0N

Пост 14-Янв-2019 20:29

[Цитировать]

Udemy | Основы работы с Git и GitHub - Автор (режиссер): Денис Астахов
Производство: Udemy
Жанр: Программирование
Описание:
Самое важное что нужно знать о Git и GitHub для повседневной работы.
Продолжительность: 01:50:26
Качество видео: PCRec
Видео: AVC/H.264, 1280x720-1920x1080, ~934-3247 Kbps
Аудио: AAC, 2 ch, 125 Kbps

Mediainfo:

Общее
Полное имя : E:\Download\курсы\Release\[Udemy] Основы работы с Git и GitHub\06. История изменений, _gitignore, восстановление файлов.mp4
Формат : MPEG-4
Профиль формата : Base Media
Идентификатор кодека : isom (isom/iso2/avc1/mp41)
Размер файла : 43,7 Мбайт
Продолжительность : 13 м. 45 с.
Режим общего битрейта : Переменный
Общий поток : 445 Кбит/сек
Видео
Идентификатор : 1
Формат : AVC
Формат/Информация : Advanced Video Codec
Профиль формата : [email protected]
Настройки формата : CABAC / 4 Ref Frames
Параметр CABAC формата : Да
Параметр RefFrames формата : 4 кадра
Идентификатор кодека : avc1
Идентификатор кодека/Информация : Advanced Video Coding
Продолжительность : 13 м. 45 с.
Продолжительность оригинала : 13 м. 45 с.
Битрейт : 311 Кбит/сек
Номинальный битрейт : 700 Кбит/сек
Ширина : 632 пикселя
Ширина оригинала : 640 пикселей
Высота : 368 пикселей
Высота оригинала : 360 пикселей
Соотношение сторон : 1,717
Соотношение сторон в оригинале : 16:9
Режим частоты кадров : Переменный
Частота кадров : 30,000 кадров/сек
Минимальная частота кадров : 6,000 кадров/сек
Максимальная частота кадров : 120,000 кадров/сек
Цветовое пространство : YUV
Субдискретизация насыщенности : 4:2:0
Битовая глубина : 8 бит
Тип развёртки : Прогрессивная
Бит/(Пиксели*Кадры) : 0.045
Размер потока : 30,6 Мбайт (70%)
Размер потока оригинала : 30,6 Мбайт (70%)
Библиотека кодирования : x264 core 148
Настройки программы : cabac=1 / ref=3 / deblock=1:-1:-1 / analyse=0x1:0x111 / me=umh / subme=6 / psy=1 / psy_rd=1.00:0.15 / mixed_ref=1 / me_range=16 / chroma_me=1 / trellis=1 / 8x8dct=0 / cqm=0 / deadzone=21,11 / fast_pskip=1 / chroma_qp_offset=-3 / threads=11 / lookahead_threads=1 / sliced_threads=0 / nr=0 / decimate=1 / interlaced=0 / bluray_compat=0 / constrained_intra=0 / bframes=3 / b_pyramid=2 / b_adapt=1 / b_bias=0 / direct=1 / weightb=1 / open_gop=0 / weightp=2 / keyint=60 / keyint_min=6 / scenecut=0 / intra_refresh=0 / rc_lookahead=60 / rc=cbr / mbtree=1 / bitrate=700 / ratetol=1.0 / qcomp=0.60 / qpmin=0 / qpmax=69 / qpstep=4 / vbv_maxrate=700 / vbv_bufsize=1400 / nal_hrd=none / filler=0 / ip_ratio=1.40 / aq=1:1.00
mdhd_Duration : 825200
Codec configuration box : avcC
Аудио
Идентификатор : 2
Формат : AAC LC
Формат/Информация : Advanced Audio Codec Low Complexity
Идентификатор кодека : mp4a-40-2
Продолжительность : 13 м. 45 с.
Вид битрейта : Переменный
Битрейт : 125 Кбит/сек
Максимальный битрейт : 178 Кбит/сек
Каналы : 2 канала
Channel layout : L R
Частота : 48,0 КГц
Частота кадров : 46,875 кадров/сек (1024 SPF)
Метод сжатия : С потерями
Размер потока : 12,3 Мбайт (28%)
Общее
Полное имя : E:\Download\курсы\Release\[Udemy] Основы работы с Git и GitHub\01. Что такое Git и GitHub, и для чего они нужны.mp4
Формат : MPEG-4
Профиль формата : Base Media
Идентификатор кодека : isom (isom/iso2/avc1/mp41)
Размер файла : 123 Мбайт
Продолжительность : 12 м. 54 с.
Режим общего битрейта : Переменный
Общий поток : 1333 Кбит/сек
Видео
Идентификатор : 1
Формат : AVC
Формат/Информация : Advanced Video Codec
Профиль формата : [url=mailto:[email protected]][email protected][/url]
Настройки формата : CABAC / 4 Ref Frames
Параметр CABAC формата : Да
Параметр RefFrames формата : 4 кадра
Идентификатор кодека : avc1
Идентификатор кодека/Информация : Advanced Video Coding
Продолжительность : 12 м. 54 с.
Продолжительность оригинала : 12 м. 54 с.
Битрейт : 1200 Кбит/сек
Номинальный битрейт : 3000 Кбит/сек
Ширина : 1280 пикселей
Высота : 720 пикселей
Соотношение сторон : 16:9
Режим частоты кадров : Переменный
Частота кадров : 30,000 кадров/сек
Минимальная частота кадров : 7,500 кадров/сек
Максимальная частота кадров : 120,000 кадров/сек
Цветовое пространство : YUV
Субдискретизация насыщенности : 4:2:0
Битовая глубина : 8 бит
Тип развёртки : Прогрессивная
Бит/(Пиксели*Кадры) : 0.043
Размер потока : 111 Мбайт (90%)
Размер потока оригинала : 111 Мбайт (90%)
Библиотека кодирования : x264 core 148
Настройки программы : cabac=1 / ref=3 / deblock=1:-1:-1 / analyse=0x1:0x111 / me=umh / subme=6 / psy=1 / psy_rd=1.00:0.15 / mixed_ref=1 / me_range=16 / chroma_me=1 / trellis=1 / 8x8dct=0 / cqm=0 / deadzone=21,11 / fast_pskip=1 / chroma_qp_offset=-3 / threads=22 / lookahead_threads=3 / sliced_threads=0 / nr=0 / decimate=1 / interlaced=0 / bluray_compat=0 / constrained_intra=0 / bframes=3 / b_pyramid=2 / b_adapt=1 / b_bias=0 / direct=1 / weightb=1 / open_gop=0 / weightp=2 / keyint=60 / keyint_min=6 / scenecut=0 / intra_refresh=0 / rc_lookahead=60 / rc=cbr / mbtree=1 / bitrate=3000 / ratetol=1.0 / qcomp=0.60 / qpmin=0 / qpmax=69 / qpstep=4 / vbv_maxrate=3000 / vbv_bufsize=6000 / nal_hrd=none / filler=0 / ip_ratio=1.40 / aq=1:1.00
mdhd_Duration : 774500
Codec configuration box : avcC
Аудио
Идентификатор : 2
Формат : AAC LC
Формат/Информация : Advanced Audio Codec Low Complexity
Идентификатор кодека : mp4a-40-2
Продолжительность : 12 м. 54 с.
Вид битрейта : Переменный
Битрейт : 125 Кбит/сек
Максимальный битрейт : 174 Кбит/сек
Каналы : 2 канала
Channel layout : L R
Частота : 48,0 КГц
Частота кадров : 46,875 кадров/сек (1024 SPF)
Метод сжатия : С потерями
Размер потока : 11,6 Мбайт (9%)
Общее
Полное имя : E:\Download\курсы\Release\[Udemy] Основы работы с Git и GitHub\02. Установка Git на Linux.mp4
Формат : MPEG-4
Профиль формата : Base Media
Идентификатор кодека : isom (isom/iso2/avc1/mp41)
Размер файла : 45,0 Мбайт
Продолжительность : 2 м. 33 с.
Режим общего битрейта : Переменный
Общий поток : 2453 Кбит/сек
Видео
Идентификатор : 1
Формат : AVC
Формат/Информация : Advanced Video Codec
Профиль формата : [email protected]
Настройки формата : CABAC / 4 Ref Frames
Параметр CABAC формата : Да
Параметр RefFrames формата : 4 кадра
Идентификатор кодека : avc1
Идентификатор кодека/Информация : Advanced Video Coding
Продолжительность : 2 м. 33 с.
Битрейт : 2321 Кбит/сек
Номинальный битрейт : 5000 Кбит/сек
Ширина : 1912 пикселей
Ширина оригинала : 1920 пикселей
Высота : 1088 пикселей
Высота оригинала : 1080 пикселей
Соотношение сторон : 16:9
Соотношение сторон в оригинале : 16:9
Режим частоты кадров : Переменный
Частота кадров : 30,000 кадров/сек
Минимальная частота кадров : 6,000 кадров/сек
Максимальная частота кадров : 120,000 кадров/сек
Цветовое пространство : YUV
Субдискретизация насыщенности : 4:2:0
Битовая глубина : 8 бит
Тип развёртки : Прогрессивная
Бит/(Пиксели*Кадры) : 0.037
Размер потока : 42,6 Мбайт (95%)
Библиотека кодирования : x264 core 148
Настройки программы : cabac=1 / ref=3 / deblock=1:-1:-1 / analyse=0x1:0x111 / me=umh / subme=6 / psy=1 / psy_rd=1.00:0.15 / mixed_ref=1 / me_range=16 / chroma_me=1 / trellis=1 / 8x8dct=0 / cqm=0 / deadzone=21,11 / fast_pskip=1 / chroma_qp_offset=-3 / threads=24 / lookahead_threads=4 / sliced_threads=0 / nr=0 / decimate=1 / interlaced=0 / bluray_compat=0 / constrained_intra=0 / bframes=3 / b_pyramid=2 / b_adapt=1 / b_bias=0 / direct=1 / weightb=1 / open_gop=0 / weightp=2 / keyint=60 / keyint_min=6 / scenecut=0 / intra_refresh=0 / rc_lookahead=60 / rc=cbr / mbtree=1 / bitrate=5000 / ratetol=1.0 / qcomp=0.60 / qpmin=0 / qpmax=69 / qpstep=4 / vbv_maxrate=5000 / vbv_bufsize=10000 / nal_hrd=none / filler=0 / ip_ratio=1.40 / aq=1:1.00
mdhd_Duration : 153867
Codec configuration box : avcC
Аудио
Идентификатор : 2
Формат : AAC LC
Формат/Информация : Advanced Audio Codec Low Complexity
Идентификатор кодека : mp4a-40-2
Продолжительность : 2 м. 33 с.
Вид битрейта : Переменный
Битрейт : 125 Кбит/сек
Максимальный битрейт : 188 Кбит/сек
Каналы : 2 канала
Channel layout : L R
Частота : 48,0 КГц
Частота кадров : 46,875 кадров/сек (1024 SPF)
Метод сжатия : С потерями
Размер потока : 2,30 Мбайт (5%)

Программа:

- Что такое Git и что такое GitHub и для чего он так широко используется
- Как установить Git на Linux (Ubuntu, RedHat)
- Как установить Git на Windows
- Конфигурация файла .gitconfig
- Работа с Local Repository
- История изменений, игнорирование .gitignore и восстановление файлов
- Открытие бесплатного аккаунта GitHub
- Загрузка проекта в GitHub, git push
- Настройка логина в GitHub через SSH Key на Linux
- Настройка логина в GitHub через SSH Key на Windows
- Создание и работа с ветвлениями - git branch
- Возврат на предыдущие версии
- Полный рабочий цикл действий Git + GitHub

История обновлений:

13.01.2019 - Торрент файл обновлен.
- обновлен 6 урок;

Раздача ведётся путём добавления новых файлов:

Раздача ведётся путём добавления новых файлов; при каждом добавлении создаётся новый торрент. Чтобы начать докачку новых файлов, пользователям необходимо сделать следующее:
(1) остановить скачивание,
(2) удалить старый торрент у себя из клиента (имеющиеся файлы удалять не надо),
(3) скачать новый торрент и запустить его у себя в клиенте вместо старого, при этом указать клиенту путь в старую папку, куда и должно происходить скачивание новых файлов.
Ваш клиент при этом должен произвести хеширование (проверку) старой папки (если не производит сам - помогите ему сделать это), и будет докачивать только те файлы, которых у вас ещё нет. Старые файлы при этом не удаляются, а продолжают раздаваться!
Eсли вы уже удалили старые файлы, то предотвратить повторную закачку старых файлов можно, отжав галочку в соответствующих местах при запуске нового торрента. По возможности, желательно не удалять старые файлы как можно дольше, чтобы релизёр не только продолжал раздавать старые файлы, а смог сконцентрироваться на новых.
Скриншоты:
       

}{@R0N

Пост 14-Янв-2019 20:28

[Цитировать]

Дмитрий Лаврик | Javascript. Интенсивный курс для программистов - Автор (режиссер): Дмитрий Лаврик
Жанр: Программирование, JavaScrtipt
Описание:
Цель курса - улучшить знания в javascript – обобщить и укрепить классические темы, рассмотреть и осмыслить новшества стандартов после ES2015. А также выстроить систему написания кода и научиться взаимодействовать с серверной частью. Рассматриваемые темы будут соотноситься с их реализацией и применением во фреймворках React и Vue.
Продолжительность: 21:54:27
Качество видео: PCRec
Видео: AVC/H.264, 1680x1048-1920-1080, ~226-377 Kbps
Аудио: AAC, 2 ch, 125-126 Kbps

Mediainfo:

Общее
Полное имя : .\Урок 1\01 часть 1.mp4
Формат : MPEG-4
Профиль формата : Base Media / Version 2
Идентификатор кодека : mp42 (isom/mp42)
Размер файла : 248 Мбайт
Продолжительность : 1 ч. 26 м.
Режим общего битрейта : Переменный
Общий поток : 403 Кбит/сек
Дата кодирования : UTC 2018-11-29 18:32:02
Дата пометки : UTC 2018-11-29 18:32:02
Видео
Идентификатор : 1
Формат : AVC
Формат/Информация : Advanced Video Codec
Профиль формата : [email protected]
Настройки формата : 3 Ref Frames
Параметр CABAC формата : Нет
Параметр RefFrames формата : 3 кадра
Идентификатор кодека : avc1
Идентификатор кодека/Информация : Advanced Video Coding
Продолжительность : 1 ч. 26 м.
Продолжительность оригинала : 1 ч. 26 м.
Битрейт : 274 Кбит/сек
Ширина : 1680 пикселей
Высота : 1048 пикселей
Соотношение сторон : 16:10
Режим частоты кадров : Переменный
Частота кадров : 30,000 кадров/сек
Минимальная частота кадров : 30,000 кадров/сек
Максимальная частота кадров : 30,030 кадров/сек
Стандарт вещания : NTSC
Цветовое пространство : YUV
Субдискретизация насыщенности : 4:2:0
Битовая глубина : 8 бит
Тип развёртки : Прогрессивная
Бит/(Пиксели*Кадры) : 0.005
Размер потока : 169 Мбайт (68%)
Размер потока оригинала : 169 Мбайт (68%)
Язык : English
Дата кодирования : UTC 2018-11-29 18:32:02
Дата пометки : UTC 2018-11-29 18:32:02
Цветовой диапазон : Limited
mdhd_Duration : 5165500
Codec configuration box : avcC
Аудио
Идентификатор : 2
Формат : AAC LC
Формат/Информация : Advanced Audio Codec Low Complexity
Идентификатор кодека : mp4a-40-2
Продолжительность : 1 ч. 26 м.
Продолжительность оригинала : 1 ч. 26 м.
Вид битрейта : Переменный
Битрейт : 126 Кбит/сек
Максимальный битрейт : 167 Кбит/сек
Каналы : 2 канала
Channel layout : L R
Частота : 44,1 КГц
Частота кадров : 43,066 кадра/сек (1024 SPF)
Метод сжатия : С потерями
Размер потока : 77,4 Мбайт (31%)
Размер потока оригинала : 77,4 Мбайт (31%)
Язык : English
Дата кодирования : UTC 2018-11-29 18:32:02
Дата пометки : UTC 2018-11-29 18:32:02
mdhd_Duration : 5165535
Общее
Полное имя : .\Урок 3\03 часть 2.mp4
Формат : MPEG-4
Профиль формата : Base Media / Version 2
Идентификатор кодека : mp42 (isom/mp42)
Размер файла : 238 Мбайт
Продолжительность : 1 ч. 13 м.
Режим общего битрейта : Переменный
Общий поток : 451 Кбит/сек
Дата кодирования : UTC 2018-12-06 22:34:31
Дата пометки : UTC 2018-12-06 22:34:31
Видео
Идентификатор : 1
Формат : AVC
Формат/Информация : Advanced Video Codec
Профиль формата : [email protected]
Настройки формата : 3 Ref Frames
Параметр CABAC формата : Нет
Параметр RefFrames формата : 3 кадра
Идентификатор кодека : avc1
Идентификатор кодека/Информация : Advanced Video Coding
Продолжительность : 1 ч. 13 м.
Продолжительность оригинала : 1 ч. 13 м.
Битрейт : 323 Кбит/сек
Ширина : 1920 пикселей
Высота : 1080 пикселей
Соотношение сторон : 16:9
Режим частоты кадров : Переменный
Частота кадров : 30,000 кадров/сек
Минимальная частота кадров : 30,000 кадров/сек
Максимальная частота кадров : 30,030 кадров/сек
Стандарт вещания : NTSC
Цветовое пространство : YUV
Субдискретизация насыщенности : 4:2:0
Битовая глубина : 8 бит
Тип развёртки : Прогрессивная
Бит/(Пиксели*Кадры) : 0.005
Размер потока : 170 Мбайт (72%)
Размер потока оригинала : 170 Мбайт (72%)
Язык : English
Дата кодирования : UTC 2018-12-06 22:34:32
Дата пометки : UTC 2018-12-06 22:34:32
Цветовой диапазон : Limited
mdhd_Duration : 4425667
Codec configuration box : avcC
Аудио
Идентификатор : 2
Формат : AAC LC
Формат/Информация : Advanced Audio Codec Low Complexity
Идентификатор кодека : mp4a-40-2
Продолжительность : 1 ч. 13 м.
Продолжительность оригинала : 1 ч. 13 м.
Вид битрейта : Переменный
Битрейт : 126 Кбит/сек
Максимальный битрейт : 171 Кбит/сек
Каналы : 2 канала
Channel layout : L R
Частота : 44,1 КГц
Частота кадров : 43,066 кадра/сек (1024 SPF)
Метод сжатия : С потерями
Размер потока : 66,3 Мбайт (28%)
Размер потока оригинала : 66,3 Мбайт (28%)
Язык : English
Дата кодирования : UTC 2018-12-06 22:34:32
Дата пометки : UTC 2018-12-06 22:34:32
mdhd_Duration : 4425700

Программа:

Урок 1
- Этапы готовности новшеств stage [0, 4]
- Настройка Webpack + Babel
- Настройка VS Code + eslint
- Export и import vs require
- Итераторы и генераторы, Symbol
- Полифилы для новых классов
Урок 2
- Call, apply, bind, карринг
- Стрелочные функции
- Синтаксис классов в ES6 и ES7
- Идеи реактивности данных
- Обычные геттеры и сеттеры
- Proxy - перехват обращения к объекту
Урок 3
- Обработка ошибок и исключений
- Ужас цепочек из коллбеков
- Проблема коллбеков и исключений
- Promise: then, catch
- Промисификация кода
- Новые фишки: async, await
Урок 4
- Декораторы классов
- Настройка babel для декораторов
- Декораторы в react + mobx
- Идеи компонентного подхода
- Поток данных и генерация событий
- Небольшая пародия на javascript фреймворк
Урок 5
- Взаимодействие с сервером
- XMLHttpRequest vs fetch
- fetch + полифил vs axios
- Работа с fetch
- Передача данных в json-формате
- Идеи REST API
Урок 6
- Работа с axios
- Базовая настройка
- Отправка запросов и обработка ответов
- Интерцепторы
- Работа с токенами авторизации
- Взаимодействие с готовым REST API
Урок 7
- Применение изученных тем в React
- Настройка стартового шаблона
- Основы React и JSX
- Состояния компонентов
- Взаимодействие между компонентами
Урок 8
- Проблемы реактивности
- Проблемы взаимодействия компонентов
- React + Mobx
- Создание небольшого приложения
- Подведение итогов

Дополнительная информация:

В раздаче имеются архивы! В них содержится дополнительные материалы.
Скриншоты:
       

}{@R0N

Пост 14-Янв-2019 20:27

[Цитировать]

Udemy | Изучите HTML и CSS за несколько часов - Автор (режиссер): Сергей Никонов
Производство: Udemy
Жанр: HTML, CSS
Описание:
С помощью этого видеокурса вы научитесь верстать адаптивные HTML страницы. Вы самостоятельно создадите портал КиноМонстр, работающий как на компьютерах, так и в мобильных устройствах.
Продолжительность: 04:01:21
Качество видео: PCRec
Видео: AVC/H.264, 1280x720, ~682-1829 Kbps
Аудио: AAC, 2 ch, 127-128 Kbps

Mediainfo:

Общее
Полное имя : .\04 Главная страница. Создание верстки портала Kinomonster\015 Создание нижнего блока сайта - footer - часть 1.mp4
Формат : MPEG-4
Профиль формата : Base Media
Идентификатор кодека : isom (isom/iso2/avc1/mp41)
Размер файла : 38,7 Мбайт
Продолжительность : 4 м. 14 с.
Общий поток : 1275 Кбит/сек
Программа кодирования : Lavf57.71.100
Видео
Идентификатор : 1
Формат : AVC
Формат/Информация : Advanced Video Codec
Профиль формата : [url=mailto:[email protected]][email protected][/url]
Настройки формата : CABAC / 4 Ref Frames
Параметр CABAC формата : Да
Параметр RefFrames формата : 4 кадра
Идентификатор кодека : avc1
Идентификатор кодека/Информация : Advanced Video Coding
Продолжительность : 4 м. 14 с.
Битрейт : 1138 Кбит/сек
Номинальный битрейт : 3000 Кбит/сек
Ширина : 1280 пикселей
Высота : 720 пикселей
Соотношение сторон : 16:9
Режим частоты кадров : Постоянный
Частота кадров : 30,000 кадров/сек
Цветовое пространство : YUV
Субдискретизация насыщенности : 4:2:0
Битовая глубина : 8 бит
Тип развёртки : Прогрессивная
Бит/(Пиксели*Кадры) : 0.041
Размер потока : 34,5 Мбайт (89%)
Библиотека кодирования : x264 core 148
Настройки программы : cabac=1 / ref=3 / deblock=1:-1:-1 / analyse=0x1:0x111 / me=umh / subme=6 / psy=1 / psy_rd=1.00:0.15 / mixed_ref=1 / me_range=16 / chroma_me=1 / trellis=1 / 8x8dct=0 / cqm=0 / deadzone=21,11 / fast_pskip=1 / chroma_qp_offset=-3 / threads=3 / lookahead_threads=1 / sliced_threads=0 / nr=0 / decimate=1 / interlaced=0 / bluray_compat=0 / constrained_intra=0 / bframes=3 / b_pyramid=2 / b_adapt=1 / b_bias=0 / direct=1 / weightb=1 / open_gop=0 / weightp=2 / keyint=60 / keyint_min=6 / scenecut=0 / intra_refresh=0 / rc_lookahead=60 / rc=cbr / mbtree=1 / bitrate=3000 / ratetol=1.0 / qcomp=0.60 / qpmin=0 / qpmax=69 / qpstep=4 / vbv_maxrate=3000 / vbv_bufsize=6000 / nal_hrd=none / filler=0 / ip_ratio=1.40 / aq=1:1.00
Codec configuration box : avcC
Аудио
Идентификатор : 2
Формат : AAC LC
Формат/Информация : Advanced Audio Codec Low Complexity
Идентификатор кодека : mp4a-40-2
Продолжительность : 4 м. 14 с.
Вид битрейта : Постоянный
Битрейт : 128 Кбит/сек
Каналы : 2 канала
Channel layout : L R
Частота : 48,0 КГц
Частота кадров : 46,875 кадров/сек (1024 SPF)
Метод сжатия : С потерями
Размер потока : 3,89 Мбайт (10%)
Язык : English
Default : Да
AlternateGroup/String : 1

Дополнительная информация:

В раздаче имеются архивы! В них содержится дополнительные материалы.
Скриншоты:
       

}{@R0N

Пост 13-Янв-2019 18:02

[Цитировать]

Udemy | Андроид разработка с нуля до Junior + Java для начинающих - Автор (режиссер): Андрей Сумин
Производство: Udemy
Жанр: Программирование, Java, Android
Описание:
Этот курс предназначен для людей, которые никогда не изучали языки программирования. Для того чтобы писать приложения, которые не просто хорошо выглядят, но и выполняют различные функции, необходимо знать язык Java, и первый раздел я полностью посвятил его изучению. Все что нужно от вас – это желание учиться и наличие компьютера. Лекции содержат домашние задания, чтобы вы не просто прослушали материал, но и закрепили его на практике.
Мы с вами полностью пройдем весь путь от установки среды разработки до загрузки вашего приложения в Google Play. Первые наши приложения будут очень простые, потом с каждым уроком мы будем их усложнять, добавлять все больше новых элементов.
Продолжительность: 18:17:17
Качество видео: PCRec
Видео: AVC/H.264, 1280x720, ~490-1498 Kbps
Аудио: AAC, 2 ch, 126-128 Kbps

Mediainfo:

Общее
Полное имя : .\2. Изучаем язык Java\3. Переменные.mp4
Формат : MPEG-4
Профиль формата : Base Media
Идентификатор кодека : isom (isom/iso2/avc1/mp41)
Размер файла : 75,4 Мбайт
Продолжительность : 13 м. 36 с.
Общий поток : 776 Кбит/сек
Программа кодирования : Lavf58.12.100
IsTruncated : Yes
Видео
Идентификатор : 1
Формат : AVC
Формат/Информация : Advanced Video Codec
Профиль формата : [url=mailto:[email protected]][email protected][/url]
Настройки формата : CABAC / 4 Ref Frames
Параметр CABAC формата : Да
Параметр RefFrames формата : 4 кадра
Параметр GOP формата : M=4, N=60
Идентификатор кодека : avc1
Идентификатор кодека/Информация : Advanced Video Coding
Продолжительность : 13 м. 35 с.
Битрейт : 639 Кбит/сек
Номинальный битрейт : 3000 Кбит/сек
Ширина : 1280 пикселей
Высота : 720 пикселей
Соотношение сторон : 16:9
Режим частоты кадров : Постоянный
Частота кадров : 30,000 кадров/сек
Цветовое пространство : YUV
Субдискретизация насыщенности : 4:2:0
Битовая глубина : 8 бит
Тип развёртки : Прогрессивная
Бит/(Пиксели*Кадры) : 0.023
Размер потока : 62,1 Мбайт (82%)
Библиотека кодирования : x264 core 148
Настройки программы : cabac=1 / ref=3 / deblock=1:-1:-1 / analyse=0x1:0x111 / me=umh / subme=6 / psy=1 / psy_rd=1.00:0.15 / mixed_ref=1 / me_range=16 / chroma_me=1 / trellis=1 / 8x8dct=0 / cqm=0 / deadzone=21,11 / fast_pskip=1 / chroma_qp_offset=-3 / threads=22 / lookahead_threads=3 / sliced_threads=0 / nr=0 / decimate=1 / interlaced=0 / bluray_compat=0 / constrained_intra=0 / bframes=3 / b_pyramid=2 / b_adapt=1 / b_bias=0 / direct=1 / weightb=1 / open_gop=0 / weightp=2 / keyint=60 / keyint_min=6 / scenecut=0 / intra_refresh=0 / rc_lookahead=60 / rc=cbr / mbtree=1 / bitrate=3000 / ratetol=1.0 / qcomp=0.60 / qpmin=0 / qpmax=69 / qpstep=4 / vbv_maxrate=3000 / vbv_bufsize=6000 / nal_hrd=none / filler=0 / ip_ratio=1.40 / aq=1:1.00
Codec configuration box : avcC
Аудио
Идентификатор : 2
Формат : AAC LC
Формат/Информация : Advanced Audio Codec Low Complexity
Идентификатор кодека : mp4a-40-2
Продолжительность : 13 м. 36 с.
Вид битрейта : Постоянный
Битрейт : 128 Кбит/сек
Каналы : 2 канала
Channel layout : L R
Частота : 44,1 КГц
Частота кадров : 43,066 кадра/сек (1024 SPF)
Метод сжатия : С потерями
Размер потока : 12,5 Мбайт (17%)
Default : Да
AlternateGroup/String : 1

Дополнительная информация:

В раздаче имеются архивы! В них содержится дополнительные материалы.
Скриншоты:
       

}{@R0N

Пост 13-Янв-2019 18:02

[Цитировать]

Udemy | Kali Linux Для Начинающих - Автор (режиссер): Hackers Academy
Производство: Udemy
Жанр: Операционные системы, Linux
Описание:
Вас пугает командная строка и вы не знаете, что с ней делать? Если да, то этот курс отлично вам подойдет. В этом обучающем курсе начнем с самых азов, предположим, что вы ничего не знаете о Linux! Мы начнем с самых азов и постепенно будем учиться пользоваться Kali Linux. В итоге вы будете «как рыба в воде» при работе не только в Kali Linux, но и при работе с большинством Linux систем.
Продолжительность: 07:24:11
Качество видео: PCRec
Видео: AVC/H.264, 1280x720, ~1663-4002 Kbps
Аудио: AAC, 2 ch, 191-192 Kbps

Mediainfo:

Общее
Полное имя : .\03 Взламываем системы\005 - Сканируем уязвимости.mp4
Формат : MPEG-4
Профиль формата : Base Media / Version 2
Идентификатор кодека : mp42 (mp42/isom)
Размер файла : 101 Мбайт
Продолжительность : 5 м. 27 с.
Режим общего битрейта : Переменный
Общий поток : 2586 Кбит/сек
Дата кодирования : UTC 2018-10-20 15:09:33
Дата пометки : UTC 2018-10-20 15:09:33
Видео
Идентификатор : 2
Формат : AVC
Формат/Информация : Advanced Video Codec
Профиль формата : [url=mailto:[email protected]][email protected][/url]
Настройки формата : CABAC / 3 Ref Frames
Параметр CABAC формата : Да
Параметр RefFrames формата : 3 кадра
Параметр GOP формата : M=4, N=15
Идентификатор кодека : avc1
Идентификатор кодека/Информация : Advanced Video Coding
Продолжительность : 5 м. 27 с.
Вид битрейта : Переменный
Битрейт : 2389 Кбит/сек
Максимальный битрейт : 4000 Кбит/сек
Ширина : 1280 пикселей
Высота : 720 пикселей
Соотношение сторон : 16:9
Режим частоты кадров : Постоянный
Частота кадров : 30,000 кадров/сек
Стандарт вещания : NTSC
Цветовое пространство : YUV
Субдискретизация насыщенности : 4:2:0
Битовая глубина : 8 бит
Тип развёртки : Прогрессивная
Бит/(Пиксели*Кадры) : 0.086
Размер потока : 93,3 Мбайт (92%)
Язык : English
Дата кодирования : UTC 2018-10-20 15:09:33
Дата пометки : UTC 2018-10-20 15:09:33
Цветовой диапазон : Limited
Codec configuration box : avcC
Аудио
Идентификатор : 1
Формат : AAC LC
Формат/Информация : Advanced Audio Codec Low Complexity
Идентификатор кодека : mp4a-40-2
Продолжительность : 5 м. 27 с.
Вид битрейта : Постоянный
Битрейт : 192 Кбит/сек
Каналы : 2 канала
Channel layout : L R
Частота : 48,0 КГц
Частота кадров : 46,875 кадров/сек (1024 SPF)
Метод сжатия : С потерями
Размер потока : 7,50 Мбайт (7%)
Язык : English
Дата кодирования : UTC 2018-10-20 15:09:33
Дата пометки : UTC 2018-10-20 15:09:33
Скриншоты:
       

}{@R0N

Пост 13-Янв-2019 18:02

[Цитировать]

HTML Academy | Профессиональный JavaScript, уровень 2 - Автор (режиссер): Евгений Щепотьев, Олег Акинин, Игорь Алексеенко
Производство: HTML Academy
Жанр: Программирование, JavaScript
Описание:
Курс предназначен для тех, кто прошёл «Профессиональный JavaScript, уровень 1», или для разработчиков, желающих поднять свои навыки.
После прохождения курса вы будете уверенно создавать современные веб-приложения. Знать, как писать код на ES2015 (ES6), уметь его тестировать, а также умело применять паттерны проектирования.
Продолжительность: 18:21:34
Качество видео: PCRec
Видео: AVC/H.264, 1920x1080, ~523-1073 Kbps
Аудио: AAC, 2 ch, 137 Kbps

Mediainfo:

Общее
Полное имя : .\1 Знакомство\Лекция 1 — Профессиональный JavaScript, уровень 2 (поток #7).mp4
Формат : MPEG-4
Профиль формата : Base Media / Version 2
Идентификатор кодека : mp42 (mp42/mp41/isom/avc1)
Размер файла : 582 Мбайт
Продолжительность : 2 ч. 2 м.
Режим общего битрейта : Переменный
Общий поток : 664 Кбит/сек
Дата кодирования : UTC 2018-11-12 19:40:53
Дата пометки : UTC 2018-11-12 19:40:53
Видео
Идентификатор : 1
Формат : AVC
Формат/Информация : Advanced Video Codec
Профиль формата : [email protected]
Настройки формата : CABAC / 5 Ref Frames
Параметр CABAC формата : Да
Параметр RefFrames формата : 5 кадров
Идентификатор кодека : avc1
Идентификатор кодека/Информация : Advanced Video Coding
Продолжительность : 2 ч. 2 м.
Битрейт : 523 Кбит/сек
Ширина : 1920 пикселей
Высота : 1080 пикселей
Соотношение сторон : 16:9
Режим частоты кадров : Постоянный
Частота кадров : 24,000 кадра/сек
Цветовое пространство : YUV
Субдискретизация насыщенности : 4:2:0
Битовая глубина : 8 бит
Тип развёртки : Прогрессивная
Бит/(Пиксели*Кадры) : 0.011
Размер потока : 458 Мбайт (79%)
Библиотека кодирования : x264 core 157 r10 545de2f
Настройки программы : cabac=1 / ref=5 / deblock=1:0:0 / analyse=0x3:0x113 / me=hex / subme=8 / psy=1 / psy_rd=1.00:0.00 / mixed_ref=1 / me_range=16 / chroma_me=1 / trellis=2 / 8x8dct=1 / cqm=0 / deadzone=21,11 / fast_pskip=1 / chroma_qp_offset=-2 / threads=34 / lookahead_threads=5 / sliced_threads=0 / nr=0 / decimate=1 / interlaced=0 / bluray_compat=0 / stitchable=1 / constrained_intra=0 / bframes=3 / b_pyramid=2 / b_adapt=2 / b_bias=0 / direct=3 / weightb=1 / open_gop=0 / weightp=2 / keyint=infinite / keyint_min=24 / scenecut=40 / intra_refresh=0 / rc_lookahead=50 / rc=crf / mbtree=1 / crf=20.0 / qcomp=0.60 / qpmin=5 / qpmax=69 / qpstep=4 / vbv_maxrate=5500 / vbv_bufsize=15000 / crf_max=0.0 / nal_hrd=none / filler=0 / ip_ratio=1.40 / aq=1:1.00
Дата кодирования : UTC 2018-11-12 19:40:53
Дата пометки : UTC 2018-11-12 19:40:53
Цветовой диапазон : Limited
Основные цвета : BT.709
Характеристики трансфера : BT.709
Коэффициенты матрицы : BT.709
Codec configuration box : avcC
Аудио
Идентификатор : 2
Формат : AAC LC
Формат/Информация : Advanced Audio Codec Low Complexity
Идентификатор кодека : mp4a-40-2
Продолжительность : 2 ч. 2 м.
Вид битрейта : Переменный
Битрейт : 137 Кбит/сек
Каналы : 2 канала
Channel layout : L R
Частота : 48,0 КГц
Частота кадров : 46,875 кадров/сек (1024 SPF)
Метод сжатия : С потерями
Размер потока : 120 Мбайт (21%)
Дата кодирования : UTC 2018-11-12 19:40:53
Дата пометки : UTC 2018-11-12 19:40:53
Скриншоты:
       
 

Текущее время: Сегодня 11:16

Часовой пояс: GMT + 3