Сегодня идет свободное скачивание без начисления Download

Результатов поиска: 500

Автор Сообщение

}{@R0N

Пост 05-Дек-2018 19:07

[Цитировать]

Udemy | Основы работы с Git и GitHub - Автор (режиссер): Денис Астахов
Производство: Udemy
Жанр: Программирование
Описание:
Самое важное что нужно знать о Git и GitHub для повседневной работы.
Продолжительность: 01:50:26
Качество видео: PCRec
Видео: AVC/H.264, 640x360-1920x1080, ~311-3247 Kbps
Аудио: AAC, 2 ch, 125 Kbps

Mediainfo:

Общее
Полное имя : E:\Download\курсы\Release\[Udemy] Основы работы с Git и GitHub\06. История изменений, _gitignore, восстановление файлов.mp4
Формат : MPEG-4
Профиль формата : Base Media
Идентификатор кодека : isom (isom/iso2/avc1/mp41)
Размер файла : 43,7 Мбайт
Продолжительность : 13 м. 45 с.
Режим общего битрейта : Переменный
Общий поток : 445 Кбит/сек
Видео
Идентификатор : 1
Формат : AVC
Формат/Информация : Advanced Video Codec
Профиль формата : [email protected]
Настройки формата : CABAC / 4 Ref Frames
Параметр CABAC формата : Да
Параметр RefFrames формата : 4 кадра
Идентификатор кодека : avc1
Идентификатор кодека/Информация : Advanced Video Coding
Продолжительность : 13 м. 45 с.
Продолжительность оригинала : 13 м. 45 с.
Битрейт : 311 Кбит/сек
Номинальный битрейт : 700 Кбит/сек
Ширина : 632 пикселя
Ширина оригинала : 640 пикселей
Высота : 368 пикселей
Высота оригинала : 360 пикселей
Соотношение сторон : 1,717
Соотношение сторон в оригинале : 16:9
Режим частоты кадров : Переменный
Частота кадров : 30,000 кадров/сек
Минимальная частота кадров : 6,000 кадров/сек
Максимальная частота кадров : 120,000 кадров/сек
Цветовое пространство : YUV
Субдискретизация насыщенности : 4:2:0
Битовая глубина : 8 бит
Тип развёртки : Прогрессивная
Бит/(Пиксели*Кадры) : 0.045
Размер потока : 30,6 Мбайт (70%)
Размер потока оригинала : 30,6 Мбайт (70%)
Библиотека кодирования : x264 core 148
Настройки программы : cabac=1 / ref=3 / deblock=1:-1:-1 / analyse=0x1:0x111 / me=umh / subme=6 / psy=1 / psy_rd=1.00:0.15 / mixed_ref=1 / me_range=16 / chroma_me=1 / trellis=1 / 8x8dct=0 / cqm=0 / deadzone=21,11 / fast_pskip=1 / chroma_qp_offset=-3 / threads=11 / lookahead_threads=1 / sliced_threads=0 / nr=0 / decimate=1 / interlaced=0 / bluray_compat=0 / constrained_intra=0 / bframes=3 / b_pyramid=2 / b_adapt=1 / b_bias=0 / direct=1 / weightb=1 / open_gop=0 / weightp=2 / keyint=60 / keyint_min=6 / scenecut=0 / intra_refresh=0 / rc_lookahead=60 / rc=cbr / mbtree=1 / bitrate=700 / ratetol=1.0 / qcomp=0.60 / qpmin=0 / qpmax=69 / qpstep=4 / vbv_maxrate=700 / vbv_bufsize=1400 / nal_hrd=none / filler=0 / ip_ratio=1.40 / aq=1:1.00
mdhd_Duration : 825200
Codec configuration box : avcC
Аудио
Идентификатор : 2
Формат : AAC LC
Формат/Информация : Advanced Audio Codec Low Complexity
Идентификатор кодека : mp4a-40-2
Продолжительность : 13 м. 45 с.
Вид битрейта : Переменный
Битрейт : 125 Кбит/сек
Максимальный битрейт : 178 Кбит/сек
Каналы : 2 канала
Channel layout : L R
Частота : 48,0 КГц
Частота кадров : 46,875 кадров/сек (1024 SPF)
Метод сжатия : С потерями
Размер потока : 12,3 Мбайт (28%)
Общее
Полное имя : E:\Download\курсы\Release\[Udemy] Основы работы с Git и GitHub\01. Что такое Git и GitHub, и для чего они нужны.mp4
Формат : MPEG-4
Профиль формата : Base Media
Идентификатор кодека : isom (isom/iso2/avc1/mp41)
Размер файла : 123 Мбайт
Продолжительность : 12 м. 54 с.
Режим общего битрейта : Переменный
Общий поток : 1333 Кбит/сек
Видео
Идентификатор : 1
Формат : AVC
Формат/Информация : Advanced Video Codec
Профиль формата : [url=mailto:[email protected]][email protected][/url]
Настройки формата : CABAC / 4 Ref Frames
Параметр CABAC формата : Да
Параметр RefFrames формата : 4 кадра
Идентификатор кодека : avc1
Идентификатор кодека/Информация : Advanced Video Coding
Продолжительность : 12 м. 54 с.
Продолжительность оригинала : 12 м. 54 с.
Битрейт : 1200 Кбит/сек
Номинальный битрейт : 3000 Кбит/сек
Ширина : 1280 пикселей
Высота : 720 пикселей
Соотношение сторон : 16:9
Режим частоты кадров : Переменный
Частота кадров : 30,000 кадров/сек
Минимальная частота кадров : 7,500 кадров/сек
Максимальная частота кадров : 120,000 кадров/сек
Цветовое пространство : YUV
Субдискретизация насыщенности : 4:2:0
Битовая глубина : 8 бит
Тип развёртки : Прогрессивная
Бит/(Пиксели*Кадры) : 0.043
Размер потока : 111 Мбайт (90%)
Размер потока оригинала : 111 Мбайт (90%)
Библиотека кодирования : x264 core 148
Настройки программы : cabac=1 / ref=3 / deblock=1:-1:-1 / analyse=0x1:0x111 / me=umh / subme=6 / psy=1 / psy_rd=1.00:0.15 / mixed_ref=1 / me_range=16 / chroma_me=1 / trellis=1 / 8x8dct=0 / cqm=0 / deadzone=21,11 / fast_pskip=1 / chroma_qp_offset=-3 / threads=22 / lookahead_threads=3 / sliced_threads=0 / nr=0 / decimate=1 / interlaced=0 / bluray_compat=0 / constrained_intra=0 / bframes=3 / b_pyramid=2 / b_adapt=1 / b_bias=0 / direct=1 / weightb=1 / open_gop=0 / weightp=2 / keyint=60 / keyint_min=6 / scenecut=0 / intra_refresh=0 / rc_lookahead=60 / rc=cbr / mbtree=1 / bitrate=3000 / ratetol=1.0 / qcomp=0.60 / qpmin=0 / qpmax=69 / qpstep=4 / vbv_maxrate=3000 / vbv_bufsize=6000 / nal_hrd=none / filler=0 / ip_ratio=1.40 / aq=1:1.00
mdhd_Duration : 774500
Codec configuration box : avcC
Аудио
Идентификатор : 2
Формат : AAC LC
Формат/Информация : Advanced Audio Codec Low Complexity
Идентификатор кодека : mp4a-40-2
Продолжительность : 12 м. 54 с.
Вид битрейта : Переменный
Битрейт : 125 Кбит/сек
Максимальный битрейт : 174 Кбит/сек
Каналы : 2 канала
Channel layout : L R
Частота : 48,0 КГц
Частота кадров : 46,875 кадров/сек (1024 SPF)
Метод сжатия : С потерями
Размер потока : 11,6 Мбайт (9%)
Общее
Полное имя : E:\Download\курсы\Release\[Udemy] Основы работы с Git и GitHub\02. Установка Git на Linux.mp4
Формат : MPEG-4
Профиль формата : Base Media
Идентификатор кодека : isom (isom/iso2/avc1/mp41)
Размер файла : 45,0 Мбайт
Продолжительность : 2 м. 33 с.
Режим общего битрейта : Переменный
Общий поток : 2453 Кбит/сек
Видео
Идентификатор : 1
Формат : AVC
Формат/Информация : Advanced Video Codec
Профиль формата : [email protected]
Настройки формата : CABAC / 4 Ref Frames
Параметр CABAC формата : Да
Параметр RefFrames формата : 4 кадра
Идентификатор кодека : avc1
Идентификатор кодека/Информация : Advanced Video Coding
Продолжительность : 2 м. 33 с.
Битрейт : 2321 Кбит/сек
Номинальный битрейт : 5000 Кбит/сек
Ширина : 1912 пикселей
Ширина оригинала : 1920 пикселей
Высота : 1088 пикселей
Высота оригинала : 1080 пикселей
Соотношение сторон : 16:9
Соотношение сторон в оригинале : 16:9
Режим частоты кадров : Переменный
Частота кадров : 30,000 кадров/сек
Минимальная частота кадров : 6,000 кадров/сек
Максимальная частота кадров : 120,000 кадров/сек
Цветовое пространство : YUV
Субдискретизация насыщенности : 4:2:0
Битовая глубина : 8 бит
Тип развёртки : Прогрессивная
Бит/(Пиксели*Кадры) : 0.037
Размер потока : 42,6 Мбайт (95%)
Библиотека кодирования : x264 core 148
Настройки программы : cabac=1 / ref=3 / deblock=1:-1:-1 / analyse=0x1:0x111 / me=umh / subme=6 / psy=1 / psy_rd=1.00:0.15 / mixed_ref=1 / me_range=16 / chroma_me=1 / trellis=1 / 8x8dct=0 / cqm=0 / deadzone=21,11 / fast_pskip=1 / chroma_qp_offset=-3 / threads=24 / lookahead_threads=4 / sliced_threads=0 / nr=0 / decimate=1 / interlaced=0 / bluray_compat=0 / constrained_intra=0 / bframes=3 / b_pyramid=2 / b_adapt=1 / b_bias=0 / direct=1 / weightb=1 / open_gop=0 / weightp=2 / keyint=60 / keyint_min=6 / scenecut=0 / intra_refresh=0 / rc_lookahead=60 / rc=cbr / mbtree=1 / bitrate=5000 / ratetol=1.0 / qcomp=0.60 / qpmin=0 / qpmax=69 / qpstep=4 / vbv_maxrate=5000 / vbv_bufsize=10000 / nal_hrd=none / filler=0 / ip_ratio=1.40 / aq=1:1.00
mdhd_Duration : 153867
Codec configuration box : avcC
Аудио
Идентификатор : 2
Формат : AAC LC
Формат/Информация : Advanced Audio Codec Low Complexity
Идентификатор кодека : mp4a-40-2
Продолжительность : 2 м. 33 с.
Вид битрейта : Переменный
Битрейт : 125 Кбит/сек
Максимальный битрейт : 188 Кбит/сек
Каналы : 2 канала
Channel layout : L R
Частота : 48,0 КГц
Частота кадров : 46,875 кадров/сек (1024 SPF)
Метод сжатия : С потерями
Размер потока : 2,30 Мбайт (5%)

Программа:

- Что такое Git и что такое GitHub и для чего он так широко используется
- Как установить Git на Linux (Ubuntu, RedHat)
- Как установить Git на Windows
- Конфигурация файла .gitconfig
- Работа с Local Repository
- История изменений, игнорирование .gitignore и восстановление файлов
- Открытие бесплатного аккаунта GitHub
- Загрузка проекта в GitHub, git push
- Настройка логина в GitHub через SSH Key на Linux
- Настройка логина в GitHub через SSH Key на Windows
- Создание и работа с ветвлениями - git branch
- Возврат на предыдущие версии
- Полный рабочий цикл действий Git + GitHub
Скриншоты:
       

}{@R0N

Пост 05-Дек-2018 19:06

[Цитировать]

Webcademy | Gulp Сборка - Автор (режиссер): Юриий Ключевский
Производство: Webcademy
Жанр: Программирование
Описание:
Как вам идея зарабатывать больше, ускорив свой рабочий процесс, за счет внедрения новых инструментов? Все еще используете HTML + CSS? Переходи на красную сторону силы! У нас есть Gulp - Автообновление в браузере, LESS/SASS разложен по модулям, Нет дублированию кода, Компонентый подход.
Продолжительность: 06:14:31
Качество видео: PCRec
Видео: AVC/H.264, 1280x720-1920x1080, ~720-4794 Kbps
Аудио: AAC, 2 ch, 127-192 Kbps

Mediainfo:

Общее
Полное имя : .\ответы на вопросы.mp4
Формат : MPEG-4
Профиль формата : Base Media / Version 2
Идентификатор кодека : mp42 (isom/mp42)
Размер файла : 370 Мбайт
Продолжительность : 1 ч. 0 м.
Режим общего битрейта : Переменный
Общий поток : 851 Кбит/сек
Дата кодирования : UTC 2018-04-26 15:03:35
Дата пометки : UTC 2018-04-26 15:03:35
gsst : 0
gstd : 3649225
Видео
Идентификатор : 1
Формат : AVC
Формат/Информация : Advanced Video Codec
Профиль формата : [url=mailto:[email protected]][email protected][/url]
Настройки формата : CABAC / 1 Ref Frames
Параметр CABAC формата : Да
Параметр RefFrames формата : 1 кадр
Идентификатор кодека : avc1
Идентификатор кодека/Информация : Advanced Video Coding
Продолжительность : 1 ч. 0 м.
Битрейт : 721 Кбит/сек
Ширина : 1280 пикселей
Высота : 720 пикселей
Соотношение сторон : 16:9
Режим частоты кадров : Постоянный
Частота кадров : 10,000 кадров/сек
Цветовое пространство : YUV
Субдискретизация насыщенности : 4:2:0
Битовая глубина : 8 бит
Тип развёртки : Прогрессивная
Бит/(Пиксели*Кадры) : 0.078
Размер потока : 313 Мбайт (85%)
Заголовок : ISO Media file produced by Google Inc. Created on: 04/26/2018.
Дата кодирования : UTC 2018-04-26 15:03:35
Дата пометки : UTC 2018-04-26 15:03:35
Цветовой диапазон : Limited
Основные цвета : BT.709
Характеристики трансфера : BT.709
Коэффициенты матрицы : BT.709
Codec configuration box : avcC
Аудио
Идентификатор : 2
Формат : AAC LC
Формат/Информация : Advanced Audio Codec Low Complexity
Идентификатор кодека : mp4a-40-2
Продолжительность : 1 ч. 0 м.
Вид битрейта : Переменный
Битрейт : 128 Кбит/сек
Каналы : 2 канала
Channel layout : L R
Частота : 44,1 КГц
Частота кадров : 43,066 кадра/сек (1024 SPF)
Метод сжатия : С потерями
Размер потока : 55,7 Мбайт (15%)
Заголовок : ISO Media file produced by Google Inc. Created on: 04/26/2018.
Дата кодирования : UTC 2018-04-26 15:03:35
Дата пометки : UTC 2018-04-26 15:03:35
Общее
Полное имя : .\День 1\00 - Знакомство с инструментами.mp4
Формат : MPEG-4
Профиль формата : Base Media
Идентификатор кодека : isom (isom/iso2/avc1/mp41)
Размер файла : 90,7 Мбайт
Продолжительность : 11 м. 4 с.
Общий поток : 1145 Кбит/сек
Программа кодирования : Lavf57.83.100
Видео
Идентификатор : 1
Формат : AVC
Формат/Информация : Advanced Video Codec
Профиль формата : [email protected]
Настройки формата : CABAC / 4 Ref Frames
Параметр CABAC формата : Да
Параметр RefFrames формата : 4 кадра
Идентификатор кодека : avc1
Идентификатор кодека/Информация : Advanced Video Coding
Продолжительность : 11 м. 4 с.
Битрейт : 944 Кбит/сек
Номинальный битрейт : 4950 Кбит/сек
Ширина : 1920 пикселей
Высота : 1080 пикселей
Соотношение сторон : 16:9
Режим частоты кадров : Постоянный
Частота кадров : 30,000 кадров/сек
Цветовое пространство : YUV
Субдискретизация насыщенности : 4:2:0
Битовая глубина : 8 бит
Тип развёртки : Прогрессивная
Бит/(Пиксели*Кадры) : 0.015
Размер потока : 74,8 Мбайт (82%)
Библиотека кодирования : x264 core 148
Настройки программы : cabac=1 / ref=2 / deblock=1:0:0 / analyse=0x3:0x113 / me=hex / subme=6 / psy=1 / psy_rd=1.00:0.00 / mixed_ref=1 / me_range=16 / chroma_me=1 / trellis=1 / 8x8dct=1 / cqm=0 / deadzone=21,11 / fast_pskip=1 / chroma_qp_offset=-2 / threads=6 / lookahead_threads=1 / sliced_threads=0 / nr=0 / decimate=1 / interlaced=0 / bluray_compat=0 / constrained_intra=0 / bframes=3 / b_pyramid=2 / b_adapt=1 / b_bias=0 / direct=1 / weightb=1 / open_gop=0 / weightp=1 / keyint=250 / keyint_min=25 / scenecut=40 / intra_refresh=0 / rc_lookahead=30 / rc=2pass / mbtree=1 / bitrate=4950 / ratetol=1.0 / qcomp=0.60 / qpmin=0 / qpmax=69 / qpstep=4 / cplxblur=20.0 / qblur=0.5 / vbv_maxrate=4950 / vbv_bufsize=9900 / nal_hrd=none / filler=0 / ip_ratio=1.40 / aq=1:1.00
Codec configuration box : avcC
Аудио
Идентификатор : 2
Формат : AAC LC
Формат/Информация : Advanced Audio Codec Low Complexity
Идентификатор кодека : mp4a-40-2
Продолжительность : 11 м. 4 с.
Вид битрейта : Постоянный
Битрейт : 192 Кбит/сек
Каналы : 2 канала
Channel layout : L R
Частота : 44,1 КГц
Частота кадров : 43,066 кадра/сек (1024 SPF)
Метод сжатия : С потерями
Размер потока : 15,2 Мбайт (17%)
Default : Да
AlternateGroup/String : 1

Дополнительная информация:

В раздаче имеются архивы! В них содержится дополнительные материалы.
Скриншоты:
       

}{@R0N

Пост 05-Дек-2018 19:06

[Цитировать]

Udemy | Парсеры, роботы, автоматизация, Selenium, PhantomJS на PHP - Автор (режиссер): PHP Academy
Производство: Udemy
Жанр: Программирование, PHP
Описание:
Этот курс сделает вас профессиональным разработчиком парсеров, роботов, скриптов автоматизации. Вы сможете парсить сайты любой сложности, работать с Selenium Webdriver, писать роботы, и создать платформу уровня UNI Delivery.
Продолжительность: 03:13:02
Качество видео: PCRec
Видео: AVC/H.264, 640x360-1280x720, ~576-2444 Kbps
Аудио: AAC, 2 ch, 125-128 Kbps

Mediainfo:

Общее
Полное имя : .\03 PhantomJS и PHP. Парсим сайты\20 Парсим Zappos.com. Часть 5 Получаем ссылки на все товары со страницы каталога.mp4
Формат : MPEG-4
Профиль формата : Base Media
Идентификатор кодека : isom (isom/iso2/avc1/mp41)
Размер файла : 47,4 Мбайт
Продолжительность : 8 м. 43 с.
Общий поток : 760 Кбит/сек
Программа кодирования : Lavf57.56.100
Видео
Идентификатор : 1
Формат : AVC
Формат/Информация : Advanced Video Codec
Профиль формата : [email protected]
Настройки формата : CABAC / 4 Ref Frames
Параметр CABAC формата : Да
Параметр RefFrames формата : 4 кадра
Идентификатор кодека : avc1
Идентификатор кодека/Информация : Advanced Video Coding
Продолжительность : 8 м. 43 с.
Битрейт : 626 Кбит/сек
Номинальный битрейт : 700 Кбит/сек
Ширина : 640 пикселей
Высота : 360 пикселей
Соотношение сторон : 16:9
Режим частоты кадров : Постоянный
Частота кадров : 30,000 кадров/сек
Цветовое пространство : YUV
Субдискретизация насыщенности : 4:2:0
Битовая глубина : 8 бит
Тип развёртки : Прогрессивная
Бит/(Пиксели*Кадры) : 0.091
Размер потока : 39,1 Мбайт (82%)
Библиотека кодирования : x264 core 148
Настройки программы : cabac=1 / ref=3 / deblock=1:-1:-1 / analyse=0x1:0x111 / me=umh / subme=6 / psy=1 / psy_rd=1.00:0.15 / mixed_ref=1 / me_range=16 / chroma_me=1 / trellis=1 / 8x8dct=0 / cqm=0 / deadzone=21,11 / fast_pskip=1 / chroma_qp_offset=-3 / threads=11 / lookahead_threads=1 / sliced_threads=0 / nr=0 / decimate=1 / interlaced=0 / bluray_compat=0 / constrained_intra=0 / bframes=3 / b_pyramid=2 / b_adapt=1 / b_bias=0 / direct=1 / weightb=1 / open_gop=0 / weightp=2 / keyint=60 / keyint_min=6 / scenecut=0 / intra_refresh=0 / rc_lookahead=60 / rc=cbr / mbtree=1 / bitrate=700 / ratetol=1.0 / qcomp=0.60 / qpmin=0 / qpmax=69 / qpstep=4 / vbv_maxrate=700 / vbv_bufsize=1400 / nal_hrd=none / filler=0 / ip_ratio=1.40 / aq=1:1.00
Codec configuration box : avcC
Аудио
Идентификатор : 2
Формат : AAC LC
Формат/Информация : Advanced Audio Codec Low Complexity
Идентификатор кодека : mp4a-40-2
Продолжительность : 8 м. 43 с.
Вид битрейта : Постоянный
Битрейт : 126 Кбит/сек
Каналы : 2 канала
Channel layout : L R
Частота : 44,1 КГц
Частота кадров : 43,066 кадра/сек (1024 SPF)
Метод сжатия : С потерями
Размер потока : 7,83 Мбайт (17%)
Default : Да
AlternateGroup/String : 1
Общее
Полное имя : .\03 PhantomJS и PHP. Парсим сайты\14 Знакомимся с PhantomJS. Командная строка. Скриншоты сайтов. Исходный код сайта.mp4
Формат : MPEG-4
Профиль формата : Base Media
Идентификатор кодека : isom (isom/iso2/avc1/mp41)
Размер файла : 116 Мбайт
Продолжительность : 16 м. 20 с.
Общий поток : 993 Кбит/сек
Программа кодирования : Lavf57.56.100
Видео
Идентификатор : 1
Формат : AVC
Формат/Информация : Advanced Video Codec
Профиль формата : [url=mailto:[email protected]][email protected][/url]
Настройки формата : CABAC / 4 Ref Frames
Параметр CABAC формата : Да
Параметр RefFrames формата : 4 кадра
Параметр GOP формата : M=4, N=60
Идентификатор кодека : avc1
Идентификатор кодека/Информация : Advanced Video Coding
Продолжительность : 16 м. 20 с.
Битрейт : 858 Кбит/сек
Номинальный битрейт : 1400 Кбит/сек
Ширина : 854 пикселя
Высота : 480 пикселей
Соотношение сторон : 16:9
Соотношение сторон в оригинале : 16:9
Режим частоты кадров : Постоянный
Частота кадров : 30,000 кадров/сек
Цветовое пространство : YUV
Субдискретизация насыщенности : 4:2:0
Битовая глубина : 8 бит
Тип развёртки : Прогрессивная
Бит/(Пиксели*Кадры) : 0.070
Размер потока : 100 Мбайт (86%)
Библиотека кодирования : x264 core 148
Настройки программы : cabac=1 / ref=3 / deblock=1:-1:-1 / analyse=0x1:0x111 / me=umh / subme=6 / psy=1 / psy_rd=1.00:0.15 / mixed_ref=1 / me_range=16 / chroma_me=1 / trellis=1 / 8x8dct=0 / cqm=0 / deadzone=21,11 / fast_pskip=1 / chroma_qp_offset=-3 / threads=15 / lookahead_threads=2 / sliced_threads=0 / nr=0 / decimate=1 / interlaced=0 / bluray_compat=0 / constrained_intra=0 / bframes=3 / b_pyramid=2 / b_adapt=1 / b_bias=0 / direct=1 / weightb=1 / open_gop=0 / weightp=2 / keyint=60 / keyint_min=6 / scenecut=0 / intra_refresh=0 / rc_lookahead=60 / rc=cbr / mbtree=1 / bitrate=1400 / ratetol=1.0 / qcomp=0.60 / qpmin=0 / qpmax=69 / qpstep=4 / vbv_maxrate=1400 / vbv_bufsize=2800 / nal_hrd=none / filler=0 / ip_ratio=1.40 / aq=1:1.00
Codec configuration box : avcC
Аудио
Идентификатор : 2
Формат : AAC LC
Формат/Информация : Advanced Audio Codec Low Complexity
Идентификатор кодека : mp4a-40-2
Продолжительность : 16 м. 20 с.
Вид битрейта : Постоянный
Битрейт : 126 Кбит/сек
Каналы : 2 канала
Channel layout : L R
Частота : 44,1 КГц
Частота кадров : 43,066 кадра/сек (1024 SPF)
Метод сжатия : С потерями
Размер потока : 14,7 Мбайт (13%)
Default : Да
AlternateGroup/String : 1
Общее
Полное имя : .\03 PhantomJS и PHP. Парсим сайты\21 Парсим Zappos.com. Часть 6 пишем ссылки на все товары категории в JSON файл.mp4
Формат : MPEG-4
Профиль формата : Base Media
Идентификатор кодека : isom (isom/iso2/avc1/mp41)
Размер файла : 127 Мбайт
Продолжительность : 7 м. 49 с.
Общий поток : 2266 Кбит/сек
Программа кодирования : Lavf57.56.100
Видео
Идентификатор : 1
Формат : AVC
Формат/Информация : Advanced Video Codec
Профиль формата : [url=mailto:[email protected]][email protected][/url]
Настройки формата : CABAC / 4 Ref Frames
Параметр CABAC формата : Да
Параметр RefFrames формата : 4 кадра
Идентификатор кодека : avc1
Идентификатор кодека/Информация : Advanced Video Coding
Продолжительность : 7 м. 49 с.
Битрейт : 2132 Кбит/сек
Номинальный битрейт : 3000 Кбит/сек
Ширина : 1280 пикселей
Высота : 720 пикселей
Соотношение сторон : 16:9
Режим частоты кадров : Постоянный
Частота кадров : 30,000 кадров/сек
Цветовое пространство : YUV
Субдискретизация насыщенности : 4:2:0
Битовая глубина : 8 бит
Тип развёртки : Прогрессивная
Бит/(Пиксели*Кадры) : 0.077
Размер потока : 119 Мбайт (94%)
Библиотека кодирования : x264 core 148
Настройки программы : cabac=1 / ref=3 / deblock=1:-1:-1 / analyse=0x1:0x111 / me=umh / subme=6 / psy=1 / psy_rd=1.00:0.15 / mixed_ref=1 / me_range=16 / chroma_me=1 / trellis=1 / 8x8dct=0 / cqm=0 / deadzone=21,11 / fast_pskip=1 / chroma_qp_offset=-3 / threads=22 / lookahead_threads=3 / sliced_threads=0 / nr=0 / decimate=1 / interlaced=0 / bluray_compat=0 / constrained_intra=0 / bframes=3 / b_pyramid=2 / b_adapt=1 / b_bias=0 / direct=1 / weightb=1 / open_gop=0 / weightp=2 / keyint=60 / keyint_min=6 / scenecut=0 / intra_refresh=0 / rc_lookahead=60 / rc=cbr / mbtree=1 / bitrate=3000 / ratetol=1.0 / qcomp=0.60 / qpmin=0 / qpmax=69 / qpstep=4 / vbv_maxrate=3000 / vbv_bufsize=6000 / nal_hrd=none / filler=0 / ip_ratio=1.40 / aq=1:1.00
Codec configuration box : avcC
Аудио
Идентификатор : 2
Формат : AAC LC
Формат/Информация : Advanced Audio Codec Low Complexity
Идентификатор кодека : mp4a-40-2
Продолжительность : 7 м. 49 с.
Вид битрейта : Постоянный
Битрейт : 126 Кбит/сек
Каналы : 2 канала
Channel layout : L R
Частота : 44,1 КГц
Частота кадров : 43,066 кадра/сек (1024 SPF)
Метод сжатия : С потерями
Размер потока : 7,02 Мбайт (6%)
Default : Да
AlternateGroup/String : 1
Скриншоты:
       

}{@R0N

Пост 05-Дек-2018 19:06

[Цитировать]

ProfIT | PhpStorm для самых маленьких - Автор (режиссер): Дмитрий Макаров
Производство: ProfIT
Жанр: Программирование
Описание:
На вебинаре будет показаны многие возможности самой популярной IDE для PHP. Вы научитесь эффективно использовать этот мощный инструмент, поймете, чем он так удобен и, самое главное, поймете как сделать его наиболее удобным именно для Вас.
Продолжительность: 02:44:16
Качество видео: PCRec
Видео: AVC/H.264, 1152x720, ~291 Kbps
Аудио: AAC, 2 ch, 137 Kbps

Mediainfo:

Общее
Полное имя : .\30.08.2018 PhpStrom для самых маленьких.mp4
Формат : MPEG-4
Профиль формата : Base Media / Version 2
Идентификатор кодека : mp42 (mp42/mp41/isom/avc1)
Размер файла : 512 Мбайт
Продолжительность : 2 ч. 44 м.
Режим общего битрейта : Переменный
Общий поток : 436 Кбит/сек
Дата кодирования : UTC 2018-09-02 11:06:52
Дата пометки : UTC 2018-09-02 11:06:52
Видео
Идентификатор : 1
Формат : AVC
Формат/Информация : Advanced Video Codec
Профиль формата : [url=mailto:[email protected]][email protected][/url]
Настройки формата : CABAC / 5 Ref Frames
Параметр CABAC формата : Да
Параметр RefFrames формата : 5 кадров
Идентификатор кодека : avc1
Идентификатор кодека/Информация : Advanced Video Coding
Продолжительность : 2 ч. 44 м.
Битрейт : 291 Кбит/сек
Ширина : 1152 пикселя
Высота : 720 пикселей
Соотношение сторон : 16:10
Режим частоты кадров : Постоянный
Частота кадров : 59,940 (60000/1001) кадров/сек
Цветовое пространство : YUV
Субдискретизация насыщенности : 4:2:0
Битовая глубина : 8 бит
Тип развёртки : Прогрессивная
Бит/(Пиксели*Кадры) : 0.006
Размер потока : 342 Мбайт (67%)
Библиотека кодирования : x264 core 157 r10M 303c484
Настройки программы : cabac=1 / ref=5 / deblock=1:0:0 / analyse=0x3:0x113 / me=hex / subme=8 / psy=1 / psy_rd=1.00:0.00 / mixed_ref=1 / me_range=16 / chroma_me=1 / trellis=2 / 8x8dct=1 / cqm=0 / deadzone=21,11 / fast_pskip=1 / chroma_qp_offset=-2 / threads=22 / lookahead_threads=3 / sliced_threads=0 / nr=0 / decimate=1 / interlaced=0 / bluray_compat=0 / stitchable=1 / constrained_intra=0 / bframes=3 / b_pyramid=2 / b_adapt=2 / b_bias=0 / direct=3 / weightb=1 / open_gop=0 / weightp=2 / keyint=infinite / keyint_min=59 / scenecut=40 / intra_refresh=0 / rc_lookahead=50 / rc=crf / mbtree=1 / crf=20.0 / qcomp=0.60 / qpmin=5 / qpmax=69 / qpstep=4 / vbv_maxrate=2750 / vbv_bufsize=7500 / crf_max=0.0 / nal_hrd=none / filler=0 / ip_ratio=1.40 / aq=1:1.00
Дата кодирования : UTC 2018-09-02 11:06:52
Дата пометки : UTC 2018-09-02 11:06:52
Цветовой диапазон : Limited
Основные цвета : BT.709
Характеристики трансфера : BT.709
Коэффициенты матрицы : BT.709
Codec configuration box : avcC
Аудио
Идентификатор : 2
Формат : AAC LC
Формат/Информация : Advanced Audio Codec Low Complexity
Идентификатор кодека : mp4a-40-2
Продолжительность : 2 ч. 44 м.
Вид битрейта : Переменный
Битрейт : 137 Кбит/сек
Каналы : 2 канала
Channel layout : L R
Частота : 48,0 КГц
Частота кадров : 46,875 кадров/сек (1024 SPF)
Метод сжатия : С потерями
Размер потока : 161 Мбайт (31%)
Дата кодирования : UTC 2018-09-02 11:06:52
Дата пометки : UTC 2018-09-02 11:06:52
Скриншоты:
       

}{@R0N

Пост 05-Дек-2018 19:06

[Цитировать]

ProfIT | Что нового в PHP (7.3) - Автор (режиссер): Степанцев Альберт
Производство: ProfIT
Жанр: Программирование, PHP
Описание:
В нашей программе уже был вебинар с таким названием и не один. Что же изменилось, что требуется проводить новый? Совсем скоро выйдет новая версия PHP 7.3, с которой мы спешим вас познакомить!
Продолжительность: 01:22:03
Качество видео: PCRec
Видео: AVC/H.264, 1920x1040, ~529 Kbps
Аудио: AAC, 2 ch, 137 Kbps

Mediainfo:

Общее
Полное имя : .\[profit] Что нового в PHP 7.3.mp4
Формат : MPEG-4
Профиль формата : Base Media / Version 2
Идентификатор кодека : mp42 (mp42/mp41/isom/avc1)
Размер файла : 393 Мбайт
Продолжительность : 1 ч. 22 м.
Режим общего битрейта : Переменный
Общий поток : 670 Кбит/сек
Дата кодирования : UTC 2018-10-03 18:54:54
Дата пометки : UTC 2018-10-03 18:54:54
Видео
Идентификатор : 1
Формат : AVC
Формат/Информация : Advanced Video Codec
Профиль формата : [email protected]
Настройки формата : CABAC / 5 Ref Frames
Параметр CABAC формата : Да
Параметр RefFrames формата : 5 кадров
Идентификатор кодека : avc1
Идентификатор кодека/Информация : Advanced Video Coding
Продолжительность : 1 ч. 22 м.
Битрейт : 529 Кбит/сек
Ширина : 1920 пикселей
Высота : 1040 пикселей
Соотношение сторон : 1,85:1
Режим частоты кадров : Постоянный
Частота кадров : 25,000 кадров/сек
Цветовое пространство : YUV
Субдискретизация насыщенности : 4:2:0
Битовая глубина : 8 бит
Тип развёртки : Прогрессивная
Бит/(Пиксели*Кадры) : 0.011
Размер потока : 310 Мбайт (79%)
Библиотека кодирования : x264 core 155 r0+2917M 0a84d98
Настройки программы : cabac=1 / ref=5 / deblock=1:0:0 / analyse=0x3:0x113 / me=hex / subme=8 / psy=1 / psy_rd=1.00:0.00 / mixed_ref=1 / me_range=16 / chroma_me=1 / trellis=2 / 8x8dct=1 / cqm=0 / deadzone=21,11 / fast_pskip=1 / chroma_qp_offset=-2 / threads=32 / lookahead_threads=5 / sliced_threads=0 / nr=0 / decimate=1 / interlaced=0 / bluray_compat=0 / stitchable=1 / constrained_intra=0 / bframes=3 / b_pyramid=2 / b_adapt=2 / b_bias=0 / direct=3 / weightb=1 / open_gop=0 / weightp=2 / keyint=infinite / keyint_min=25 / scenecut=40 / intra_refresh=0 / rc_lookahead=50 / rc=crf / mbtree=1 / crf=20.0 / qcomp=0.60 / qpmin=5 / qpmax=69 / qpstep=4 / vbv_maxrate=5500 / vbv_bufsize=15000 / crf_max=0.0 / nal_hrd=none / filler=0 / ip_ratio=1.40 / aq=1:1.00
Дата кодирования : UTC 2018-10-03 18:54:54
Дата пометки : UTC 2018-10-03 18:54:54
Цветовой диапазон : Limited
Основные цвета : BT.709
Характеристики трансфера : BT.709
Коэффициенты матрицы : BT.709
Codec configuration box : avcC
Аудио
Идентификатор : 2
Формат : AAC LC
Формат/Информация : Advanced Audio Codec Low Complexity
Идентификатор кодека : mp4a-40-2
Продолжительность : 1 ч. 22 м.
Вид битрейта : Переменный
Битрейт : 137 Кбит/сек
Каналы : 2 канала
Channel layout : L R
Частота : 48,0 КГц
Частота кадров : 46,875 кадров/сек (1024 SPF)
Метод сжатия : С потерями
Размер потока : 80,4 Мбайт (20%)
Дата кодирования : UTC 2018-10-03 18:54:54
Дата пометки : UTC 2018-10-03 18:54:54
Скриншоты:
       

}{@R0N

Пост 05-Дек-2018 19:05

[Цитировать]

ProfIT | XDebug или Давайте искать баги быстро! - Автор (режиссер): Дмитрий Макаров
Производство: ProfIT
Жанр: Программирование, PHP, XDebug
Описание:
Мы рассмотрим подготовку среды разработки на виртуальной машине с нуля. Установку и настройку XDebug даже на чистой системе. Особенности отладки тестов и консольных приложений. Ну и конечно остальные возможности: расширенный вывод отладочной информации, трассировку программ, профилирование запросов.
Продолжительность: 02:13:06
Качество видео: PCRec
Видео: AVC/H.264, 1920x1040, ~587 Kbps
Аудио: AAC, 2 ch, 137 Kbps

Mediainfo:

Общее
Полное имя : .\Запись вебинара.mp4
Формат : MPEG-4
Профиль формата : Base Media / Version 2
Идентификатор кодека : mp42 (mp42/mp41/isom/avc1)
Размер файла : 693 Мбайт
Продолжительность : 2 ч. 13 м.
Режим общего битрейта : Переменный
Общий поток : 728 Кбит/сек
Дата кодирования : UTC 2018-10-25 19:05:36
Дата пометки : UTC 2018-10-25 19:05:36
Видео
Идентификатор : 1
Формат : AVC
Формат/Информация : Advanced Video Codec
Профиль формата : [email protected]
Настройки формата : CABAC / 5 Ref Frames
Параметр CABAC формата : Да
Параметр RefFrames формата : 5 кадров
Идентификатор кодека : avc1
Идентификатор кодека/Информация : Advanced Video Coding
Продолжительность : 2 ч. 13 м.
Битрейт : 587 Кбит/сек
Ширина : 1920 пикселей
Высота : 1040 пикселей
Соотношение сторон : 1,85:1
Режим частоты кадров : Постоянный
Частота кадров : 25,000 кадров/сек
Цветовое пространство : YUV
Субдискретизация насыщенности : 4:2:0
Битовая глубина : 8 бит
Тип развёртки : Прогрессивная
Бит/(Пиксели*Кадры) : 0.012
Размер потока : 559 Мбайт (81%)
Библиотека кодирования : x264 core 157 r7M 303c484
Настройки программы : cabac=1 / ref=5 / deblock=1:0:0 / analyse=0x3:0x113 / me=hex / subme=8 / psy=1 / psy_rd=1.00:0.00 / mixed_ref=1 / me_range=16 / chroma_me=1 / trellis=2 / 8x8dct=1 / cqm=0 / deadzone=21,11 / fast_pskip=1 / chroma_qp_offset=-2 / threads=32 / lookahead_threads=5 / sliced_threads=0 / nr=0 / decimate=1 / interlaced=0 / bluray_compat=0 / stitchable=1 / constrained_intra=0 / bframes=3 / b_pyramid=2 / b_adapt=2 / b_bias=0 / direct=3 / weightb=1 / open_gop=0 / weightp=2 / keyint=infinite / keyint_min=25 / scenecut=40 / intra_refresh=0 / rc_lookahead=50 / rc=crf / mbtree=1 / crf=20.0 / qcomp=0.60 / qpmin=5 / qpmax=69 / qpstep=4 / vbv_maxrate=5500 / vbv_bufsize=15000 / crf_max=0.0 / nal_hrd=none / filler=0 / ip_ratio=1.40 / aq=1:1.00
Дата кодирования : UTC 2018-10-25 19:05:36
Дата пометки : UTC 2018-10-25 19:05:36
Цветовой диапазон : Limited
Основные цвета : BT.709
Характеристики трансфера : BT.709
Коэффициенты матрицы : BT.709
Codec configuration box : avcC
Аудио
Идентификатор : 2
Формат : AAC LC
Формат/Информация : Advanced Audio Codec Low Complexity
Идентификатор кодека : mp4a-40-2
Продолжительность : 2 ч. 13 м.
Вид битрейта : Переменный
Битрейт : 137 Кбит/сек
Каналы : 2 канала
Channel layout : L R
Частота : 48,0 КГц
Частота кадров : 46,875 кадров/сек (1024 SPF)
Метод сжатия : С потерями
Размер потока : 130 Мбайт (19%)
Дата кодирования : UTC 2018-10-25 19:05:36
Дата пометки : UTC 2018-10-25 19:05:36
Скриншоты:
       

}{@R0N

Пост 05-Дек-2018 19:05

[Цитировать]

Udemy | Symfony с нуля на реальном проекте - Автор (режиссер): PHP Academy
Производство: Udemy
Жанр: Программирование, PHP, Symfony
Описание:
Вы изучите все, что надо для создания вашего первого приложения на Symfony - от установки фреймворка до работы с формами, БД и сервис-контейнерами. В процессе обучения вы также будете работать с MySQL.
Продолжительность: 04:31:45
Качество видео: PCRec
Видео: AVC/H.264, 1280x720, ~876-1110 Kbps
Аудио: AAC, 2 ch, 127-128 Kbps

Mediainfo:

Общее
Полное имя : .\05 Углубляемся в Symfony\016 Сервисы и сервис-контейнеры.mp4
Формат : MPEG-4
Профиль формата : Base Media
Идентификатор кодека : isom (isom/iso2/avc1/mp41)
Размер файла : 166 Мбайт
Продолжительность : 19 м. 6 с.
Общий поток : 1217 Кбит/сек
Программа кодирования : Lavf58.12.100
Видео
Идентификатор : 1
Формат : AVC
Формат/Информация : Advanced Video Codec
Профиль формата : [url=mailto:[email protected]][email protected][/url]
Настройки формата : CABAC / 4 Ref Frames
Параметр CABAC формата : Да
Параметр RefFrames формата : 4 кадра
Параметр GOP формата : M=4, N=60
Идентификатор кодека : avc1
Идентификатор кодека/Информация : Advanced Video Coding
Продолжительность : 19 м. 6 с.
Битрейт : 1080 Кбит/сек
Номинальный битрейт : 3000 Кбит/сек
Ширина : 1280 пикселей
Высота : 720 пикселей
Соотношение сторон : 16:9
Режим частоты кадров : Постоянный
Частота кадров : 30,000 кадров/сек
Цветовое пространство : YUV
Субдискретизация насыщенности : 4:2:0
Битовая глубина : 8 бит
Тип развёртки : Прогрессивная
Бит/(Пиксели*Кадры) : 0.039
Размер потока : 148 Мбайт (89%)
Библиотека кодирования : x264 core 148
Настройки программы : cabac=1 / ref=3 / deblock=1:-1:-1 / analyse=0x1:0x111 / me=umh / subme=6 / psy=1 / psy_rd=1.00:0.15 / mixed_ref=1 / me_range=16 / chroma_me=1 / trellis=1 / 8x8dct=0 / cqm=0 / deadzone=21,11 / fast_pskip=1 / chroma_qp_offset=-3 / threads=22 / lookahead_threads=3 / sliced_threads=0 / nr=0 / decimate=1 / interlaced=0 / bluray_compat=0 / constrained_intra=0 / bframes=3 / b_pyramid=2 / b_adapt=1 / b_bias=0 / direct=1 / weightb=1 / open_gop=0 / weightp=2 / keyint=60 / keyint_min=6 / scenecut=0 / intra_refresh=0 / rc_lookahead=60 / rc=cbr / mbtree=1 / bitrate=3000 / ratetol=1.0 / qcomp=0.60 / qpmin=0 / qpmax=69 / qpstep=4 / vbv_maxrate=3000 / vbv_bufsize=6000 / nal_hrd=none / filler=0 / ip_ratio=1.40 / aq=1:1.00
Codec configuration box : avcC
Аудио
Идентификатор : 2
Формат : AAC LC
Формат/Информация : Advanced Audio Codec Low Complexity
Идентификатор кодека : mp4a-40-2
Продолжительность : 19 м. 6 с.
Вид битрейта : Постоянный
Битрейт : 128 Кбит/сек
Каналы : 2 канала
Channel layout : L R
Частота : 48,0 КГц
Частота кадров : 46,875 кадров/сек (1024 SPF)
Метод сжатия : С потерями
Размер потока : 17,5 Мбайт (11%)
Default : Да
AlternateGroup/String : 1
Скриншоты:
       

}{@R0N

Пост 04-Дек-2018 19:39

[Цитировать]

javascript.ru | Продвинутый курс по Angular- Автор (режиссер): Степан Суворов
Производство: javascript.ru
Жанр: Программирование, JavaScript, Angular
Описание:
Курс даст возможность быстро начать создавать свои приложения с использованием современного фреймворка - Angular. В процессе прохождения курса шаг за шагом вы сделаете реальное приложение, и хорошо разберетесь в специфике Angular.
Вы будете получать информацию, писать код, показывать его, получать обратную связь и советы, и затем – двигаться дальше.
Продолжительность: 13:29:51
Качество видео: PCRec
Видео: AVC/H.264, 1280x800-1664x1032, ~70-627 Kbps
Аудио: AAC, 1-2 ch, 63-150 Kbps

Mediainfo:

Общее
Полное имя : .\Допы\rxjs\1-setup.out.mp4
Формат : MPEG-4
Профиль формата : Base Media
Идентификатор кодека : isom (isom/iso2/avc1/mp41)
Размер файла : 2,04 Мбайт
Продолжительность : 1 м. 39 с.
Общий поток : 172 Кбит/сек
Программа кодирования : Lavf57.71.100
Видео
Идентификатор : 1
Формат : AVC
Формат/Информация : Advanced Video Codec
Профиль формата : [url=mailto:[email protected]][email protected][/url]
Настройки формата : CABAC / 4 Ref Frames
Параметр CABAC формата : Да
Параметр RefFrames формата : 4 кадра
Идентификатор кодека : avc1
Идентификатор кодека/Информация : Advanced Video Coding
Продолжительность : 1 м. 39 с.
Битрейт : 101 Кбит/сек
Ширина : 1280 пикселей
Высота : 800 пикселей
Соотношение сторон : 16:10
Режим частоты кадров : Постоянный
Частота кадров : 30,000 кадров/сек
Цветовое пространство : YUV
Субдискретизация насыщенности : 4:2:0
Битовая глубина : 8 бит
Тип развёртки : Прогрессивная
Бит/(Пиксели*Кадры) : 0.003
Размер потока : 1,20 Мбайт (59%)
Библиотека кодирования : x264 core 148 r2748 97eaef2
Настройки программы : cabac=1 / ref=1 / deblock=1:0:0 / analyse=0x3:0x113 / me=hex / subme=2 / psy=1 / psy_rd=1.00:0.00 / mixed_ref=0 / me_range=16 / chroma_me=1 / trellis=0 / 8x8dct=1 / cqm=0 / deadzone=21,11 / fast_pskip=1 / chroma_qp_offset=0 / threads=6 / lookahead_threads=2 / sliced_threads=0 / nr=0 / decimate=1 / interlaced=0 / bluray_compat=0 / constrained_intra=0 / bframes=3 / b_pyramid=2 / b_adapt=1 / b_bias=0 / direct=1 / weightb=1 / open_gop=0 / weightp=1 / keyint=250 / keyint_min=25 / scenecut=40 / intra_refresh=0 / rc_lookahead=10 / rc=crf / mbtree=1 / crf=27.0 / qcomp=0.60 / qpmin=0 / qpmax=69 / qpstep=4 / ip_ratio=1.40 / aq=1:1.00
Codec configuration box : avcC
Аудио
Идентификатор : 2
Формат : AAC LC SBR
Формат/Информация : Advanced Audio Codec Low Complexity with Spectral Band Replication
Коммерческое название : HE-AAC
Настройки формата : NBC
Идентификатор кодека : mp4a-40-5
Продолжительность : 1 м. 39 с.
Duration_LastFrame : -25 мс.
Вид битрейта : Постоянный
Битрейт : 64,0 Кбит/сек
Каналы : 1 канал
Channel layout : C
Частота : 44,1 КГц
Частота кадров : 21,533 кадра/сек (2048 SPF)
Метод сжатия : С потерями
Размер потока : 777 Кбайт (37%)
Default : Да
AlternateGroup/String : 1
Общее
Полное имя : .\01 Сложные компоненты, директивы, пайпы.mp4
Формат : MPEG-4
Профиль формата : Base Media / Version 2
Идентификатор кодека : mp42 (mp42/isom)
Размер файла : 458 Мбайт
Продолжительность : 1 ч. 26 м.
Режим общего битрейта : Переменный
Общий поток : 741 Кбит/сек
Дата кодирования : UTC 2018-10-19 19:15:29
Дата пометки : UTC 2018-10-19 19:15:39
Видео
Идентификатор : 1
Формат : AVC
Формат/Информация : Advanced Video Codec
Профиль формата : [email protected]
Настройки формата : 1 Ref Frames
Параметр CABAC формата : Нет
Параметр RefFrames формата : 1 кадр
Идентификатор кодека : avc1
Идентификатор кодека/Информация : Advanced Video Coding
Продолжительность : 1 ч. 26 м.
Битрейт : 594 Кбит/сек
Ширина : 1664 пикселя
Высота : 984 пикселя
Соотношение сторон : 5:3
Режим частоты кадров : Переменный
Частота кадров : 29,125 кадров/сек
Минимальная частота кадров : 10,000 кадров/сек
Максимальная частота кадров : 30,010 кадров/сек
Частота кадров в оригинале : 30,000 кадров/сек
Цветовое пространство : YUV
Субдискретизация насыщенности : 4:2:0
Битовая глубина : 8 бит
Тип развёртки : Прогрессивная
Бит/(Пиксели*Кадры) : 0.012
Размер потока : 367 Мбайт (80%)
Дата кодирования : UTC 2018-10-19 19:15:29
Дата пометки : UTC 2018-10-19 19:15:39
Цветовой диапазон : Limited
Codec configuration box : avcC
Аудио
Идентификатор : 2
Формат : AAC LC
Формат/Информация : Advanced Audio Codec Low Complexity
Идентификатор кодека : mp4a-40-2
Продолжительность : 1 ч. 26 м.
Продолжительность оригинала : 1 ч. 26 м.
Вид битрейта : Переменный
Битрейт : 144 Кбит/сек
Каналы : 2 канала
Channel layout : L R
Частота : 44,1 КГц
Частота кадров : 43,066 кадра/сек (1024 SPF)
Метод сжатия : С потерями
Размер потока : 88,8 Мбайт (19%)
Размер потока оригинала : 88,8 Мбайт (19%)
Заголовок : Stereo
Дата кодирования : UTC 2018-10-19 19:15:29
Дата пометки : UTC 2018-10-19 19:15:39
Общее
Полное имя : .\02 Dependency injection в деталях.mp4
Формат : MPEG-4
Профиль формата : Base Media / Version 2
Идентификатор кодека : mp42 (mp42/isom)
Размер файла : 432 Мбайт
Продолжительность : 1 ч. 28 м.
Режим общего битрейта : Переменный
Общий поток : 680 Кбит/сек
Дата кодирования : UTC 2018-10-19 19:18:43
Дата пометки : UTC 2018-10-19 19:18:47
Видео
Идентификатор : 1
Формат : AVC
Формат/Информация : Advanced Video Codec
Профиль формата : [email protected]
Настройки формата : 1 Ref Frames
Параметр CABAC формата : Нет
Параметр RefFrames формата : 1 кадр
Идентификатор кодека : avc1
Идентификатор кодека/Информация : Advanced Video Coding
Продолжительность : 1 ч. 28 м.
Битрейт : 532 Кбит/сек
Ширина : 1664 пикселя
Высота : 1032 пикселя
Соотношение сторон : 16:10
Режим частоты кадров : Переменный
Частота кадров : 28,679 кадров/сек
Минимальная частота кадров : 4,286 кадра/сек
Максимальная частота кадров : 30,000 кадров/сек
Частота кадров в оригинале : 30,000 кадров/сек
Цветовое пространство : YUV
Субдискретизация насыщенности : 4:2:0
Битовая глубина : 8 бит
Тип развёртки : Прогрессивная
Бит/(Пиксели*Кадры) : 0.011
Размер потока : 338 Мбайт (78%)
Дата кодирования : UTC 2018-10-19 19:18:43
Дата пометки : UTC 2018-10-19 19:18:47
Цветовой диапазон : Limited
Codec configuration box : avcC
Аудио
Идентификатор : 2
Формат : AAC LC
Формат/Информация : Advanced Audio Codec Low Complexity
Идентификатор кодека : mp4a-40-2
Продолжительность : 1 ч. 28 м.
Вид битрейта : Переменный
Битрейт : 144 Кбит/сек
Каналы : 2 канала
Channel layout : L R
Частота : 44,1 КГц
Частота кадров : 43,066 кадра/сек (1024 SPF)
Метод сжатия : С потерями
Размер потока : 92,2 Мбайт (21%)
Заголовок : Stereo
Дата кодирования : UTC 2018-10-19 19:18:43
Дата пометки : UTC 2018-10-19 19:18:47

Дополнительная информация:

В раздаче имеются архивы! В них содержится дополнительные материалы.
Скриншоты:
       

}{@R0N

Пост 04-Дек-2018 19:38

[Цитировать]

javascript.ru | Курс по React.JS - Автор (режиссер): Роман Якобчук
Производство: javascript.ru
Жанр: Программирование, JavaScript
Описание:
В этом курсе мы с вами шаг за шагом пройдем от знакомства с основными идеями до использования самых новых инструментов и инфраструктуры React, на практике будем развивать одностраничное приложение. Начнем с построения простых компонентов, научимся тестировать компоненты, поговорим про системы сборки и особенности работы с ES2017 синтаксисом.
Продолжительность: 13:20:10
Качество видео: PCRec
Видео: AVC/H.264, 1728x1080-1920x1200, ~103-631 Kbps
Аудио: AAC, 1-2 ch, 65-178 Kbps

Mediainfo:

Общее
Полное имя : .\Допы\connect_screencast.mp4
Формат : MPEG-4
Профиль формата : Base Media / Version 2
Идентификатор кодека : mp42 (isom/iso2/avc1/mp41)
Размер файла : 37,8 Мбайт
Продолжительность : 30 м. 15 с.
Режим общего битрейта : Переменный
Общий поток : 175 Кбит/сек
Дата кодирования : UTC 2017-02-13 14:19:57
Дата пометки : UTC 2017-02-13 14:19:57
Программа кодирования : HandBrake 0.10.2 2015060900
Видео
Идентификатор : 1
Формат : AVC
Формат/Информация : Advanced Video Codec
Профиль формата : [email protected]
Настройки формата : CABAC / 4 Ref Frames
Параметр CABAC формата : Да
Параметр RefFrames формата : 4 кадра
Идентификатор кодека : avc1
Идентификатор кодека/Информация : Advanced Video Coding
Продолжительность : 30 м. 15 с.
Битрейт : 104 Кбит/сек
Ширина : 1728 пикселей
Высота : 1080 пикселей
Соотношение сторон : 16:10
Режим частоты кадров : Постоянный
Частота кадров : 15,000 кадров/сек
Цветовое пространство : YUV
Субдискретизация насыщенности : 4:2:0
Битовая глубина : 8 бит
Тип развёртки : Прогрессивная
Бит/(Пиксели*Кадры) : 0.004
Размер потока : 22,5 Мбайт (59%)
Библиотека кодирования : x264 core 142 r2479 dd79a61
Настройки программы : cabac=1 / ref=1 / deblock=1:0:0 / analyse=0x3:0x113 / me=hex / subme=2 / psy=1 / psy_rd=1.00:0.00 / mixed_ref=0 / me_range=16 / chroma_me=1 / trellis=0 / 8x8dct=1 / cqm=0 / deadzone=21,11 / fast_pskip=1 / chroma_qp_offset=0 / threads=12 / lookahead_threads=4 / sliced_threads=0 / nr=0 / decimate=1 / interlaced=0 / bluray_compat=0 / constrained_intra=0 / bframes=3 / b_pyramid=2 / b_adapt=1 / b_bias=0 / direct=1 / weightb=1 / open_gop=0 / weightp=1 / keyint=150 / keyint_min=15 / scenecut=40 / intra_refresh=0 / rc_lookahead=10 / rc=crf / mbtree=1 / crf=27.0 / qcomp=0.60 / qpmin=0 / qpmax=69 / qpstep=4 / ip_ratio=1.40 / aq=1:1.00
Дата кодирования : UTC 2017-02-13 14:19:57
Дата пометки : UTC 2017-02-13 14:19:57
Цветовой диапазон : Limited
Основные цвета : BT.709
Характеристики трансфера : BT.709
Коэффициенты матрицы : BT.709
Codec configuration box : avcC
Аудио
Идентификатор : 2
Формат : AAC LC
Формат/Информация : Advanced Audio Codec Low Complexity
Идентификатор кодека : mp4a-40-2
Продолжительность : 30 м. 15 с.
Вид битрейта : Переменный
Битрейт : 66,2 Кбит/сек
Каналы : 1 канал
Channel layout : C
Частота : 48,0 КГц
Частота кадров : 46,875 кадров/сек (1024 SPF)
Метод сжатия : С потерями
Размер потока : 14,3 Мбайт (38%)
Заголовок : Roman Iakobchuk / Roman Iakobchuk
Язык : English
Default : Да
AlternateGroup/String : 1
Дата кодирования : UTC 2017-02-13 14:19:57
Дата пометки : UTC 2017-02-13 14:19:57
Общее
Полное имя : .\Занятие 1.mp4
Формат : MPEG-4
Профиль формата : Base Media
Идентификатор кодека : isom (isom/mp42)
Размер файла : 533 Мбайт
Продолжительность : 1 ч. 38 м.
Режим общего битрейта : Переменный
Общий поток : 754 Кбит/сек
Дата кодирования : UTC 2018-09-13 18:54:48
Дата пометки : UTC 2018-09-13 18:54:48
Программа кодирования : Bandicam 4.1.4.1413 / GDI / Nvidia NVENC
Видео
Идентификатор : 1
Формат : AVC
Формат/Информация : Advanced Video Codec
Профиль формата : [email protected]
Настройки формата : CABAC / 1 Ref Frames
Параметр CABAC формата : Да
Параметр RefFrames формата : 1 кадр
Идентификатор кодека : avc1
Идентификатор кодека/Информация : Advanced Video Coding
Продолжительность : 1 ч. 38 м.
Битрейт : 568 Кбит/сек
Ширина : 1920 пикселей
Высота : 1200 пикселей
Соотношение сторон : 16:10
Режим частоты кадров : Переменный
Частота кадров : 28,816 кадров/сек
Минимальная частота кадров : 14,993 кадров/сек
Максимальная частота кадров : 30,030 кадров/сек
Частота кадров в оригинале : 30,000 кадров/сек
Цветовое пространство : YUV
Субдискретизация насыщенности : 4:2:0
Битовая глубина : 8 бит
Тип развёртки : Прогрессивная
Бит/(Пиксели*Кадры) : 0.009
Размер потока : 402 Мбайт (75%)
Язык : English
Дата кодирования : UTC 2018-09-13 18:54:48
Дата пометки : UTC 2018-09-13 18:54:48
Codec configuration box : avcC
Аудио
Идентификатор : 2
Формат : AAC LC
Формат/Информация : Advanced Audio Codec Low Complexity
Идентификатор кодека : mp4a-40-2
Продолжительность : 1 ч. 38 м.
Продолжительность оригинала : 1 ч. 38 м.
Вид битрейта : Переменный
Битрейт : 178 Кбит/сек
Каналы : 2 канала
Channel layout : L R
Частота : 48,0 КГц
Частота кадров : 46,875 кадров/сек (1024 SPF)
Метод сжатия : С потерями
Размер потока : 126 Мбайт (24%)
Размер потока оригинала : 126 Мбайт (24%)
Язык : English
Дата кодирования : UTC 2018-09-13 18:54:48
Дата пометки : UTC 2018-09-13 18:54:48
mdhd_Duration : 5927996

Дополнительная информация:

В раздаче имеются архивы! В них содержится дополнительные материалы.
Скриншоты:
       

}{@R0N

Пост 04-Дек-2018 19:38

[Цитировать]

doge.codes | Онлайн интенсив по React и Redux - Автор (режиссер): doge.codes
Жанр: Программирование, JavaScript, React, Redux
Описание:
За 6 недель ты изучишь самую востребованную библиотеку для веба. Напишешь реальный проект и поймешь весь цикл разработки современного фронтенд приложения!
Продолжительность: 09:23:26
Качество видео: PCRec
Видео: AVC/H.264, 1152x720-1920x1080, ~221-6880 Kbps
Аудио: AAC, 2 ch, 127-128 Kbps

Mediainfo:

Общее
Полное имя : .\week5\030 Добавляем PropTypes.mp4
Формат : MPEG-4
Профиль формата : Base Media / Version 2
Идентификатор кодека : mp42 (isom/mp42)
Размер файла : 155 Мбайт
Продолжительность : 20 м. 33 с.
Режим общего битрейта : Переменный
Общий поток : 1056 Кбит/сек
Дата кодирования : UTC 2018-11-25 10:28:44
Дата пометки : UTC 2018-11-25 10:28:44
Программа кодирования : Google
gsst : 0
gstd : 1233955
Видео
Идентификатор : 1
Формат : AVC
Формат/Информация : Advanced Video Codec
Профиль формата : [url=mailto:[email protected]][email protected][/url]
Настройки формата : CABAC / 1 Ref Frames
Параметр CABAC формата : Да
Параметр RefFrames формата : 1 кадр
Параметр GOP формата : M=1, N=60
Идентификатор кодека : avc1
Идентификатор кодека/Информация : Advanced Video Coding
Продолжительность : 20 м. 33 с.
Duration_LastFrame : -1 мс.
Битрейт : 926 Кбит/сек
Ширина : 1152 пикселя
Высота : 720 пикселей
Соотношение сторон : 16:10
Режим частоты кадров : Постоянный
Частота кадров : 29,970 (30000/1001) кадров/сек
Цветовое пространство : YUV
Субдискретизация насыщенности : 4:2:0
Битовая глубина : 8 бит
Тип развёртки : Прогрессивная
Бит/(Пиксели*Кадры) : 0.037
Размер потока : 136 Мбайт (88%)
Заголовок : ISO Media file produced by Google Inc. Created on: 11/25/2018.
Дата кодирования : UTC 2018-11-25 10:28:44
Дата пометки : UTC 2018-11-25 10:28:44
Цветовой диапазон : Limited
Основные цвета : BT.709
Характеристики трансфера : BT.709
Коэффициенты матрицы : BT.709
Codec configuration box : avcC
Аудио
Идентификатор : 2
Формат : AAC LC
Формат/Информация : Advanced Audio Codec Low Complexity
Идентификатор кодека : mp4a-40-2
Продолжительность : 20 м. 33 с.
Вид битрейта : Переменный
Битрейт : 128 Кбит/сек
Каналы : 2 канала
Channel layout : L R
Частота : 44,1 КГц
Частота кадров : 43,066 кадра/сек (1024 SPF)
Метод сжатия : С потерями
Размер потока : 18,8 Мбайт (12%)
Заголовок : ISO Media file produced by Google Inc. Created on: 11/25/2018.
Язык : English
Дата кодирования : UTC 2018-11-25 10:28:44
Дата пометки : UTC 2018-11-25 10:28:44
Общее
Полное имя : .\week0\002 Терминал.mp4
Формат : MPEG-4
Профиль формата : Base Media / Version 2
Идентификатор кодека : mp42 (isom/mp42)
Размер файла : 67,7 Мбайт
Продолжительность : 7 м. 45 с.
Режим общего битрейта : Переменный
Общий поток : 1220 Кбит/сек
Дата кодирования : UTC 2018-11-25 09:59:36
Дата пометки : UTC 2018-11-25 09:59:36
Программа кодирования : Google
gsst : 0
gstd : 465374
Видео
Идентификатор : 1
Формат : AVC
Формат/Информация : Advanced Video Codec
Профиль формата : [url=mailto:[email protected]][email protected][/url]
Настройки формата : CABAC / 3 Ref Frames
Параметр CABAC формата : Да
Параметр RefFrames формата : 3 кадра
Идентификатор кодека : avc1
Идентификатор кодека/Информация : Advanced Video Coding
Продолжительность : 7 м. 45 с.
Битрейт : 1088 Кбит/сек
Ширина : 1280 пикселей
Высота : 720 пикселей
Соотношение сторон : 16:9
Режим частоты кадров : Постоянный
Частота кадров : 25,000 кадров/сек
Цветовое пространство : YUV
Субдискретизация насыщенности : 4:2:0
Битовая глубина : 8 бит
Тип развёртки : Прогрессивная
Бит/(Пиксели*Кадры) : 0.047
Размер потока : 60,4 Мбайт (89%)
Заголовок : ISO Media file produced by Google Inc. Created on: 11/25/2018.
Дата кодирования : UTC 2018-11-25 09:59:36
Дата пометки : UTC 2018-11-25 09:59:36
Цветовой диапазон : Limited
Основные цвета : BT.709
Характеристики трансфера : BT.709
Коэффициенты матрицы : BT.709
Codec configuration box : avcC
Аудио
Идентификатор : 2
Формат : AAC LC
Формат/Информация : Advanced Audio Codec Low Complexity
Идентификатор кодека : mp4a-40-2
Продолжительность : 7 м. 45 с.
Вид битрейта : Переменный
Битрейт : 128 Кбит/сек
Каналы : 2 канала
Channel layout : L R
Частота : 44,1 КГц
Частота кадров : 43,066 кадра/сек (1024 SPF)
Метод сжатия : С потерями
Размер потока : 7,10 Мбайт (10%)
Заголовок : ISO Media file produced by Google Inc. Created on: 11/25/2018.
Язык : English
Дата кодирования : UTC 2018-11-25 09:59:36
Дата пометки : UTC 2018-11-25 09:59:36
Общее
Полное имя : .\week5\028 Настраиваем ESLint.mp4
Формат : MPEG-4
Профиль формата : Base Media / Version 2
Идентификатор кодека : mp42 (mp42/isom)
Размер файла : 805 Мбайт
Продолжительность : 16 м. 2 с.
Режим общего битрейта : Переменный
Общий поток : 7015 Кбит/сек
Дата кодирования : UTC 2018-03-13 22:17:48
Дата пометки : UTC 2018-03-13 22:17:48
Видео
Идентификатор : 2
Формат : AVC
Формат/Информация : Advanced Video Codec
Профиль формата : [email protected]
Настройки формата : CABAC / 2 Ref Frames
Параметр CABAC формата : Да
Параметр RefFrames формата : 2 кадра
Параметр GOP формата : M=2, N=15
Идентификатор кодека : avc1
Идентификатор кодека/Информация : Advanced Video Coding
Продолжительность : 16 м. 2 с.
Продолжительность оригинала : 16 м. 2 с.
Вид битрейта : Переменный
Битрейт : 6883 Кбит/сек
Максимальный битрейт : 16,0 Мбит/сек
Ширина : 1920 пикселей
Высота : 1080 пикселей
Соотношение сторон : 16:9
Соотношение сторон в оригинале : 16:10
Режим частоты кадров : Постоянный
Частота кадров : 29,970 (30000/1001) кадров/сек
Цветовое пространство : YUV
Субдискретизация насыщенности : 4:2:0
Битовая глубина : 8 бит
Тип развёртки : Прогрессивная
Бит/(Пиксели*Кадры) : 0.111
Размер потока : 790 Мбайт (98%)
Размер потока оригинала : 790 Мбайт (98%)
Язык : English
Дата кодирования : UTC 2018-03-13 22:17:48
Дата пометки : UTC 2018-03-13 22:17:48
Codec configuration box : avcC
Аудио
Идентификатор : 1
Формат : AAC LC
Формат/Информация : Advanced Audio Codec Low Complexity
Идентификатор кодека : mp4a-40-2
Продолжительность : 16 м. 2 с.
Вид битрейта : Постоянный
Битрейт : 128 Кбит/сек
Каналы : 2 канала
Channel layout : L R
Частота : 48,0 КГц
Частота кадров : 46,875 кадров/сек (1024 SPF)
Метод сжатия : С потерями
Размер потока : 14,7 Мбайт (2%)
Язык : English
Дата кодирования : UTC 2018-03-13 22:17:48
Дата пометки : UTC 2018-03-13 22:17:48

Программа

0 неделя Подготовка
Мы установим весь необходимый софт и вспомним основы Git, JavaScript, HTML. Если ты всё уже знаешь, можешь пропустить. Но поверь, повторение будет не лишним
1 Неделя Первые коммиты и код ревью
Начинаем разрабатывать приложение. Вместе познакомимся с React и компонентным подходом, развернём каркас для нашего приложения и сверстаем макет.
2 Неделя Приложение оживает
Пора сделать твоё приложение динамическим. Добавляем роутер и запросы посредством fetch интерфейса — ведь в каждом современном приложении есть запросы к внешним ресурсам.
3 Неделя Продолжаем работу
Сделаем процесс разработки более удобным: добавляем логер и другие инструменты для отладки приложения. Изучаем на практике работу с API. Твоё приложение — это "каркас-шпаргалка" для будущих подвигов в разработке.
4 Неделя MVP уже готов
Делаем наш чат более интерактивным и удобным в использовании. Поговорим о работе с сокетами, обработке ошибок, гонках запросов и обрыве соединения с сервером. Доработаем напильником и отполируем всё до блеска.
5 Неделя Тестируем – и в продакшн
Приводим твой код в порядок. Настраиваем линтер с учётом всех тонкостей. Подключаем prettier — инструмент для стилистики кода. Тестируем компоненты с помощью smoke и snapshot-тестов. Из других прелестей: создание production-билд твоего приложения, который зальем на Heroku.
Скриншоты:
       

}{@R0N

Пост 03-Дек-2018 22:46

[Цитировать]

Coursera | Искусство разработки на современном C++- Автор (режиссер): Coursera / МФТИ / Yandex
Жанр: Программирование, C++
Описание:
В специализации преподаватели делятся своим многолетним опытом создания больших проектов на языке C++. Они не пересказывают учебник, а учат решать задачи, с которыми на практике сталкиваются большинство разработчиков. Лекции, подаваемые в лёгкой и доступной форме, подкрепляются большим количество задач по программированию. Закончив эту специализацию, вы сможете не только рассуждать о C++, сравнивая его с другими языками, но и получите реальный навык программирования.
Продолжительность: 26:00:06
Качество видео: WEB-DL
Видео: AVC/H.264, 1280x720, ~779 Kbps
Аудио: AAC, 2 ch, 128 Kbps

Mediainfo:

General
Complete name : 01_chto-vas-zhdiet.mp4
Format : MPEG-4
Format profile : Base Media
Codec ID : isom (isom/iso2/avc1/mp41)
File size : 10.4 MiB
Duration : 1 min 34 s
Overall bit rate : 920 kb/s
Writing application : Lavf55.33.100
Video
ID : 1
Format : AVC
Format/Info : Advanced Video Codec
Format profile : [url=mailto:[email protected]][email protected][/url]
Format settings : CABAC / 4 Ref Frames
Format settings, CABAC : Yes
Format settings, ReFrames : 4 frames
Codec ID : avc1
Codec ID/Info : Advanced Video Coding
Duration : 1 min 34 s
Bit rate : 779 kb/s
Width : 1 280 pixels
Height : 720 pixels
Display aspect ratio : 16:9
Frame rate mode : Constant
Frame rate : 60.000 FPS
Color space : YUV
Chroma subsampling : 4:2:0
Bit depth : 8 bits
Scan type : Progressive
Bits/(Pixel*Frame) : 0.014
Stream size : 8.81 MiB (85%)
Writing library : x264 core 142
Encoding settings : cabac=1 / ref=3 / deblock=1:0:0 / analyse=0x1:0x111 / me=hex / subme=7 / psy=1 / psy_rd=1.00:0.00 / mixed_ref=1 / me_range=16 / chroma_me=1 / trellis=1 / 8x8dct=0 / cqm=0 / deadzone=21,11 / fast_pskip=1 / chroma_qp_offset=-2 / threads=12 / lookahead_threads=2 / sliced_threads=0 / nr=0 / decimate=1 / interlaced=0 / bluray_compat=0 / constrained_intra=0 / bframes=3 / b_pyramid=2 / b_adapt=1 / b_bias=0 / direct=1 / weightb=1 / open_gop=0 / weightp=2 / keyint=250 / keyint_min=25 / scenecut=40 / intra_refresh=0 / rc_lookahead=40 / rc=crf / mbtree=1 / crf=24.0 / qcomp=0.60 / qpmin=0 / qpmax=69 / qpstep=4 / ip_ratio=1.40 / aq=1:1.00
Language : English
Codec configuration box : avcC
Audio
ID : 2
Format : AAC LC
Format/Info : Advanced Audio Codec Low Complexity
Codec ID : mp4a-40-2
Duration : 1 min 34 s
Duration_LastFrame : -6 ms
Bit rate mode : Constant
Bit rate : 128 kb/s
Channel(s) : 2 channels
Channel layout : L R
Sampling rate : 44.1 kHz
Frame rate : 43.066 FPS (1024 SPF)
Compression mode : Lossy
Stream size : 1.45 MiB (14%)
Language : English
Default : Yes
Alternate group : 1
Скриншоты:
       

}{@R0N

Пост 01-Дек-2018 18:26

[Цитировать]

JavaBegin | Веб разработка (2015-2016) - Автор (режиссер): JavaBegin
Жанр: Программирование, Java
Описание:
Основы создания веб приложений на JavaEE. Без этого фундамента нельзя переходить к изучению других фреймворков: Spring Framework, Angular и пр.
Продолжительность: 56:39:48
Качество видео: PCRec
Видео: AVC/H.264, 1280x960-1840x1020, ~40-1343 Kbps
Аудио: AAC, 2 ch, 93-127 Kbps

Mediainfo:

Общее
Полное имя : .\2.webservices\2\2-Consorsiums.mp4
Формат : MPEG-4
Профиль формата : Base Media / Version 2
Идентификатор кодека : mp42 (isom/mp42)
Размер файла : 52,6 Мбайт
Продолжительность : 16 м. 6 с.
Режим общего битрейта : Переменный
Общий поток : 457 Кбит/сек
Название фильма : 2-Consorsiums
Дата кодирования : UTC 2014-01-27 16:39:18
Дата пометки : UTC 2014-01-27 16:39:18
Видео
Идентификатор : 1
Формат : AVC
Формат/Информация : Advanced Video Codec
Профиль формата : [url=mailto:[email protected]][email protected][/url]
Настройки формата : 3 Ref Frames
Параметр CABAC формата : Нет
Параметр RefFrames формата : 3 кадра
Идентификатор кодека : avc1
Идентификатор кодека/Информация : Advanced Video Coding
Продолжительность : 16 м. 6 с.
Продолжительность оригинала : 16 м. 6 с.
Битрейт : 328 Кбит/сек
Ширина : 1280 пикселей
Высота : 960 пикселей
Соотношение сторон : 4:3
Режим частоты кадров : Переменный
Частота кадров : 30,000 кадров/сек
Минимальная частота кадров : 30,000 кадров/сек
Максимальная частота кадров : 30,030 кадров/сек
Стандарт вещания : NTSC
Цветовое пространство : YUV
Субдискретизация насыщенности : 4:2:0
Битовая глубина : 8 бит
Тип развёртки : Прогрессивная
Бит/(Пиксели*Кадры) : 0.009
Размер потока : 37,8 Мбайт (72%)
Размер потока оригинала : 37,8 Мбайт (72%)
Язык : English
Дата кодирования : UTC 2014-01-27 16:39:18
Дата пометки : UTC 2014-01-27 16:39:18
Цветовой диапазон : Limited
mdhd_Duration : 966800
Аудио
Идентификатор : 2
Формат : AAC
Формат/Информация : Advanced Audio Codec
Профиль формата : LC
Идентификатор кодека : mp4a-40-2
Продолжительность : 16 м. 6 с.
Продолжительность оригинала : 16 м. 6 с.
Вид битрейта : Переменный
Битрейт : 126 Кбит/сек
Максимальный битрейт : 174 Кбит/сек
Каналы : 2 канала
Расположение каналов : Front: L R
Частота : 44,1 КГц
Частота кадров : 43,066 кадра/сек (1024 SPF)
Метод сжатия : С потерями
Размер потока : 14,5 Мбайт (28%)
Размер потока оригинала : 14,5 Мбайт (28%)
Язык : English
Дата кодирования : UTC 2014-01-27 16:39:18
Дата пометки : UTC 2014-01-27 16:39:18
mdhd_Duration : 966833
Общее
Полное имя : .\5.html5\video\1-Введение в HTML5.mp4
Формат : MPEG-4
Профиль формата : Base Media / Version 2
Идентификатор кодека : mp42 (isom/mp42)
Размер файла : 28,2 Мбайт
Продолжительность : 6 м. 36 с.
Режим общего битрейта : Переменный
Общий поток : 596 Кбит/сек
Дата кодирования : UTC 2015-07-30 10:47:58
Дата пометки : UTC 2015-07-30 10:47:58
Видео
Идентификатор : 1
Формат : AVC
Формат/Информация : Advanced Video Codec
Профиль формата : [email protected]
Настройки формата : 3 Ref Frames
Параметр CABAC формата : Нет
Параметр RefFrames формата : 3 кадра
Идентификатор кодека : avc1
Идентификатор кодека/Информация : Advanced Video Coding
Продолжительность : 6 м. 36 с.
Продолжительность оригинала : 6 м. 36 с.
Битрейт : 468 Кбит/сек
Ширина : 1796 пикселей
Высота : 1012 пикселей
Соотношение сторон : 16:9
Режим частоты кадров : Переменный
Частота кадров : 30,000 кадров/сек
Минимальная частота кадров : 30,000 кадров/сек
Максимальная частота кадров : 30,030 кадров/сек
Стандарт вещания : NTSC
Цветовое пространство : YUV
Субдискретизация насыщенности : 4:2:0
Битовая глубина : 8 бит
Тип развёртки : Прогрессивная
Бит/(Пиксели*Кадры) : 0.009
Размер потока : 22,1 Мбайт (78%)
Размер потока оригинала : 22,1 Мбайт (78%)
Язык : English
Дата кодирования : UTC 2015-07-30 10:47:58
Дата пометки : UTC 2015-07-30 10:47:58
Цветовой диапазон : Limited
mdhd_Duration : 396567
Аудио
Идентификатор : 2
Формат : AAC
Формат/Информация : Advanced Audio Codec
Профиль формата : LC
Идентификатор кодека : mp4a-40-2
Продолжительность : 6 м. 36 с.
Продолжительность оригинала : 6 м. 36 с.
Вид битрейта : Переменный
Битрейт : 126 Кбит/сек
Максимальный битрейт : 166 Кбит/сек
Каналы : 2 канала
Расположение каналов : Front: L R
Частота : 44,1 КГц
Частота кадров : 43,066 кадра/сек (1024 SPF)
Метод сжатия : С потерями
Размер потока : 5,94 Мбайт (21%)
Размер потока оригинала : 5,94 Мбайт (21%)
Язык : English
Дата кодирования : UTC 2015-07-30 10:47:58
Дата пометки : UTC 2015-07-30 10:47:58
mdhd_Duration : 396597
Общее
Полное имя : .\1.library\lessons\39-Redaktirovanie_dannih\video.mp4
Формат : MPEG-4
Профиль формата : Base Media / Version 2
Идентификатор кодека : mp42 (isom/mp42)
Размер файла : 62,8 Мбайт
Продолжительность : 22 м. 33 с.
Режим общего битрейта : Переменный
Общий поток : 389 Кбит/сек
Дата кодирования : UTC 2013-10-20 11:51:21
Дата пометки : UTC 2013-10-20 11:51:21
Видео
Идентификатор : 1
Формат : AVC
Формат/Информация : Advanced Video Codec
Профиль формата : [email protected]
Настройки формата : 3 Ref Frames
Параметр CABAC формата : Нет
Параметр RefFrames формата : 3 кадра
Идентификатор кодека : avc1
Идентификатор кодека/Информация : Advanced Video Coding
Продолжительность : 22 м. 33 с.
Продолжительность оригинала : 22 м. 33 с.
Битрейт : 293 Кбит/сек
Ширина : 1824 пикселя
Высота : 1016 пикселей
Соотношение сторон : 16:9
Режим частоты кадров : Переменный
Частота кадров : 30,000 кадров/сек
Минимальная частота кадров : 30,000 кадров/сек
Максимальная частота кадров : 30,030 кадров/сек
Стандарт вещания : NTSC
Цветовое пространство : YUV
Субдискретизация насыщенности : 4:2:0
Битовая глубина : 8 бит
Тип развёртки : Прогрессивная
Бит/(Пиксели*Кадры) : 0.005
Размер потока : 47,2 Мбайт (75%)
Размер потока оригинала : 47,2 Мбайт (75%)
Язык : English
Дата кодирования : UTC 2013-10-20 11:51:22
Дата пометки : UTC 2013-10-20 11:51:22
Цветовой диапазон : Limited
mdhd_Duration : 1353133
Аудио
Идентификатор : 2
Формат : AAC
Формат/Информация : Advanced Audio Codec
Профиль формата : LC
Идентификатор кодека : mp4a-40-2
Продолжительность : 22 м. 33 с.
Продолжительность оригинала : 22 м. 33 с.
Вид битрейта : Переменный
Битрейт : 93,6 Кбит/сек
Максимальный битрейт : 199 Кбит/сек
Каналы : 2 канала
Расположение каналов : Front: L R
Частота : 44,1 КГц
Частота кадров : 43,066 кадра/сек (1024 SPF)
Метод сжатия : С потерями
Размер потока : 15,1 Мбайт (24%)
Размер потока оригинала : 15,1 Мбайт (24%)
Язык : English
Дата кодирования : UTC 2013-10-20 11:51:22
Дата пометки : UTC 2013-10-20 11:51:22
mdhd_Duration : 1353166
Общее
Полное имя : .\2.webservices\1\1-Intro.mp4
Формат : MPEG-4
Профиль формата : Base Media / Version 2
Идентификатор кодека : mp42 (isom/mp42)
Размер файла : 29,0 Мбайт
Продолжительность : 20 м. 44 с.
Режим общего битрейта : Переменный
Общий поток : 195 Кбит/сек
Дата кодирования : UTC 2014-01-16 04:45:33
Дата пометки : UTC 2014-01-16 04:45:33
Видео
Идентификатор : 1
Формат : AVC
Формат/Информация : Advanced Video Codec
Профиль формата : [email protected]
Настройки формата : 3 Ref Frames
Параметр CABAC формата : Нет
Параметр RefFrames формата : 3 кадра
Идентификатор кодека : avc1
Идентификатор кодека/Информация : Advanced Video Coding
Продолжительность : 20 м. 44 с.
Продолжительность оригинала : 20 м. 44 с.
Битрейт : 98,9 Кбит/сек
Ширина : 1840 пикселей
Высота : 1020 пикселей
Соотношение сторон : 16:9
Режим частоты кадров : Переменный
Частота кадров : 30,000 кадров/сек
Минимальная частота кадров : 30,000 кадров/сек
Максимальная частота кадров : 30,030 кадров/сек
Стандарт вещания : NTSC
Цветовое пространство : YUV
Субдискретизация насыщенности : 4:2:0
Битовая глубина : 8 бит
Тип развёртки : Прогрессивная
Бит/(Пиксели*Кадры) : 0.002
Размер потока : 14,7 Мбайт (51%)
Размер потока оригинала : 14,7 Мбайт (51%)
Язык : English
Дата кодирования : UTC 2014-01-16 04:45:33
Дата пометки : UTC 2014-01-16 04:45:33
Цветовой диапазон : Limited
mdhd_Duration : 1244700
Аудио
Идентификатор : 2
Формат : AAC
Формат/Информация : Advanced Audio Codec
Профиль формата : LC
Идентификатор кодека : mp4a-40-2
Продолжительность : 20 м. 44 с.
Продолжительность оригинала : 20 м. 44 с.
Вид битрейта : Переменный
Битрейт : 93,6 Кбит/сек
Максимальный битрейт : 124 Кбит/сек
Каналы : 2 канала
Расположение каналов : Front: L R
Частота : 44,1 КГц
Частота кадров : 43,066 кадра/сек (1024 SPF)
Метод сжатия : С потерями
Размер потока : 13,9 Мбайт (48%)
Размер потока оригинала : 13,9 Мбайт (48%)
Язык : English
Дата кодирования : UTC 2014-01-16 04:45:33
Дата пометки : UTC 2014-01-16 04:45:33
mdhd_Duration : 1244729

Дополнительная информация:

В раздаче имеются архивы! В них содержится дополнительные материалы.
Скриншоты:
       

}{@R0N

Пост 01-Дек-2018 18:25

[Цитировать]

JavaBegin | Основы Java (2012-2016) - Автор (режиссер): JavaBegin
Жанр: Программирование, Java
Описание:
Фундаментальные знания для того, чтобы начать профессионально разрабатывать Java приложения. Программа-минимум для всех новичков.
Продолжительность: 57:56:10
Качество видео: PCRec
Видео: AVC/H.264, 854x480-1844x1014, ~47-1710 Kbps
Аудио: AAC, 2 ch, 53-126 Kbps

Mediainfo:

Общее
Полное имя : .\8.uml\2.Подготовка\video\2-Уровни приложения.mp4
Формат : MPEG-4
Профиль формата : Base Media / Version 2
Идентификатор кодека : mp42 (isom/mp42)
Размер файла : 2,50 Мбайт
Продолжительность : 3 м. 23 с.
Режим общего битрейта : Переменный
Общий поток : 103 Кбит/сек
Дата кодирования : UTC 2015-09-15 18:02:09
Дата пометки : UTC 2015-09-15 18:02:09
Видео
Идентификатор : 1
Формат : AVC
Формат/Информация : Advanced Video Codec
Профиль формата : [email protected]
Настройки формата : 3 Ref Frames
Параметр CABAC формата : Нет
Параметр RefFrames формата : 3 кадра
Параметр GOP формата : M=1, N=125
Идентификатор кодека : avc1
Идентификатор кодека/Информация : Advanced Video Coding
Продолжительность : 3 м. 23 с.
Битрейт : 47,2 Кбит/сек
Ширина : 854 пикселя
Высота : 480 пикселей
Соотношение сторон : 16:9
Режим частоты кадров : Постоянный
Частота кадров : 25,000 кадров/сек
Стандарт вещания : PAL
Цветовое пространство : YUV
Субдискретизация насыщенности : 4:2:0
Битовая глубина : 8 бит
Тип развёртки : Прогрессивная
Бит/(Пиксели*Кадры) : 0.005
Размер потока : 1,14 Мбайт (46%)
Язык : English
Дата кодирования : UTC 2015-09-15 18:02:09
Дата пометки : UTC 2015-09-15 18:02:09
Цветовой диапазон : Limited
Аудио
Идентификатор : 2
Формат : AAC
Формат/Информация : Advanced Audio Codec
Профиль формата : LC
Идентификатор кодека : mp4a-40-2
Продолжительность : 3 м. 23 с.
Продолжительность оригинала : 3 м. 23 с.
Вид битрейта : Переменный
Битрейт : 53,7 Кбит/сек
Максимальный битрейт : 69,3 Кбит/сек
Каналы : 2 канала
Расположение каналов : Front: L R
Частота : 44,1 КГц
Частота кадров : 43,066 кадра/сек (1024 SPF)
Метод сжатия : С потерями
Размер потока : 1,30 Мбайт (52%)
Размер потока оригинала : 1,30 Мбайт (52%)
Язык : English
Дата кодирования : UTC 2015-09-15 18:02:09
Дата пометки : UTC 2015-09-15 18:02:09
mdhd_Duration : 203035
Общее
Полное имя : .\6.swing\AutoPlay\course\video\GUI\1-CreateFrame.mp4
Формат : MPEG-4
Профиль формата : Base Media / Version 2
Идентификатор кодека : mp42 (M4V /mp42/isom)
Размер файла : 28,0 Мбайт
Продолжительность : 21 м. 42 с.
Общий поток : 181 Кбит/сек
Дата кодирования : UTC 2012-06-26 14:10:29
Дата пометки : UTC 2012-06-26 14:10:29
Видео
Идентификатор : 1
Формат : AVC
Формат/Информация : Advanced Video Codec
Профиль формата : [url=mailto:[email protected]][email protected][/url]
Настройки формата : CABAC / 4 Ref Frames
Параметр CABAC формата : Да
Параметр RefFrames формата : 4 кадра
Параметр GOP формата : M=1, N=75
Идентификатор кодека : avc1
Идентификатор кодека/Информация : Advanced Video Coding
Продолжительность : 21 м. 42 с.
Продолжительность оригинала : 21 м. 42 с.
Битрейт : 125 Кбит/сек
Ширина : 1280 пикселей
Высота : 800 пикселей
Соотношение сторон : 16:10
Режим частоты кадров : Постоянный
Частота кадров : 15,000 кадров/сек
Цветовое пространство : YUV
Субдискретизация насыщенности : 4:2:0
Битовая глубина : 8 бит
Тип развёртки : Прогрессивная
Бит/(Пиксели*Кадры) : 0.008
Размер потока : 19,4 Мбайт (69%)
Размер потока оригинала : 19,4 Мбайт (69%)
Язык : English
Дата кодирования : UTC 2012-06-26 14:10:29
Дата пометки : UTC 2012-06-26 14:10:29
Цветовой диапазон : Limited
Основные цвета : BT.709
Характеристики трансфера : BT.709
Коэффициенты матрицы : BT.709
mdhd_Duration : 1302125
Аудио
Идентификатор : 2
Формат : AAC
Формат/Информация : Advanced Audio Codec
Профиль формата : LC
Идентификатор кодека : mp4a-40-2
Продолжительность : 21 м. 42 с.
Продолжительность оригинала : 21 м. 42 с.
Вид битрейта : Постоянный
Битрейт : 53,6 Кбит/сек
Каналы : 2 канала
Расположение каналов : Front: L R
Частота : 44,1 КГц
Частота кадров : 43,066 кадра/сек (1024 SPF)
Метод сжатия : С потерями
Размер потока : 8,32 Мбайт (30%)
Размер потока оригинала : 8,32 Мбайт (30%)
Язык : English
Дата кодирования : UTC 2012-06-26 14:10:29
Дата пометки : UTC 2012-06-26 14:10:29
mdhd_Duration : 1301441
Общее
Полное имя : .\5.bd2\video\13-Vozmojznie problemi.mp4
Формат : MPEG-4
Профиль формата : Base Media / Version 2
Идентификатор кодека : mp42 (isom/mp42)
Размер файла : 13,1 Мбайт
Продолжительность : 7 м. 22 с.
Режим общего битрейта : Переменный
Общий поток : 249 Кбит/сек
Дата кодирования : UTC 2016-01-16 17:13:55
Дата пометки : UTC 2016-01-16 17:13:55
Видео
Идентификатор : 1
Формат : AVC
Формат/Информация : Advanced Video Codec
Профиль формата : [email protected]
Настройки формата : 3 Ref Frames
Параметр CABAC формата : Нет
Параметр RefFrames формата : 3 кадра
Идентификатор кодека : avc1
Идентификатор кодека/Информация : Advanced Video Coding
Продолжительность : 7 м. 22 с.
Продолжительность оригинала : 7 м. 22 с.
Битрейт : 120 Кбит/сек
Ширина : 1796 пикселей
Высота : 1012 пикселей
Соотношение сторон : 16:9
Режим частоты кадров : Переменный
Частота кадров : 30,000 кадров/сек
Минимальная частота кадров : 30,000 кадров/сек
Максимальная частота кадров : 30,030 кадров/сек
Стандарт вещания : NTSC
Цветовое пространство : YUV
Субдискретизация насыщенности : 4:2:0
Битовая глубина : 8 бит
Тип развёртки : Прогрессивная
Бит/(Пиксели*Кадры) : 0.002
Размер потока : 6,34 Мбайт (48%)
Размер потока оригинала : 6,34 Мбайт (48%)
Язык : English
Дата кодирования : UTC 2016-01-16 17:13:55
Дата пометки : UTC 2016-01-16 17:13:55
Цветовой диапазон : Limited
mdhd_Duration : 442833
Аудио
Идентификатор : 2
Формат : AAC
Формат/Информация : Advanced Audio Codec
Профиль формата : LC
Идентификатор кодека : mp4a-40-2
Продолжительность : 7 м. 22 с.
Продолжительность оригинала : 7 м. 22 с.
Вид битрейта : Переменный
Битрейт : 126 Кбит/сек
Максимальный битрейт : 164 Кбит/сек
Каналы : 2 канала
Расположение каналов : Front: L R
Частота : 44,1 КГц
Частота кадров : 43,066 кадра/сек (1024 SPF)
Метод сжатия : С потерями
Размер потока : 6,63 Мбайт (51%)
Размер потока оригинала : 6,63 Мбайт (51%)
Язык : English
Дата кодирования : UTC 2016-01-16 17:13:55
Дата пометки : UTC 2016-01-16 17:13:55
mdhd_Duration : 442874
Общее
Полное имя : .\7.patterns_training\video\13-Profiling_h.mp4
Формат : MPEG-4
Профиль формата : Base Media / Version 2
Идентификатор кодека : mp42 (isom/mp42)
Размер файла : 56,3 Мбайт
Продолжительность : 13 м. 51 с.
Режим общего битрейта : Переменный
Общий поток : 568 Кбит/сек
Дата кодирования : UTC 2014-02-24 06:02:01
Дата пометки : UTC 2014-02-24 06:02:01
Видео
Идентификатор : 1
Формат : AVC
Формат/Информация : Advanced Video Codec
Профиль формата : [email protected]
Настройки формата : 3 Ref Frames
Параметр CABAC формата : Нет
Параметр RefFrames формата : 3 кадра
Идентификатор кодека : avc1
Идентификатор кодека/Информация : Advanced Video Coding
Продолжительность : 13 м. 51 с.
Продолжительность оригинала : 13 м. 51 с.
Битрейт : 440 Кбит/сек
Ширина : 1844 пикселя
Высота : 1014 пикселей
Соотношение сторон : 16:9
Режим частоты кадров : Переменный
Частота кадров : 30,000 кадров/сек
Минимальная частота кадров : 30,000 кадров/сек
Максимальная частота кадров : 30,030 кадров/сек
Стандарт вещания : NTSC
Цветовое пространство : YUV
Субдискретизация насыщенности : 4:2:0
Битовая глубина : 8 бит
Тип развёртки : Прогрессивная
Бит/(Пиксели*Кадры) : 0.008
Размер потока : 43,6 Мбайт (77%)
Размер потока оригинала : 43,6 Мбайт (77%)
Язык : English
Дата кодирования : UTC 2014-02-24 06:02:02
Дата пометки : UTC 2014-02-24 06:02:02
Цветовой диапазон : Limited
mdhd_Duration : 831800
Аудио
Идентификатор : 2
Формат : AAC
Формат/Информация : Advanced Audio Codec
Профиль формата : LC
Идентификатор кодека : mp4a-40-2
Продолжительность : 13 м. 51 с.
Продолжительность оригинала : 13 м. 51 с.
Вид битрейта : Переменный
Битрейт : 126 Кбит/сек
Максимальный битрейт : 167 Кбит/сек
Каналы : 2 канала
Расположение каналов : Front: L R
Частота : 44,1 КГц
Частота кадров : 43,066 кадра/сек (1024 SPF)
Метод сжатия : С потерями
Размер потока : 12,5 Мбайт (22%)
Размер потока оригинала : 12,5 Мбайт (22%)
Язык : English
Дата кодирования : UTC 2014-02-24 06:02:02
Дата пометки : UTC 2014-02-24 06:02:02
mdhd_Duration : 831832

Дополнительная информация:

В раздаче имеются архивы! В них содержится дополнительные материалы.
Скриншоты:
       

}{@R0N

Пост 29-Ноя-2018 20:30

[Цитировать]

Утреннее гунфу. Учебный фильм. - Язык: русский.
Режиссер / Телекомпания: школа «Ветер-Гром»
Год выпуска: 2006
Жанр: Спорт
Описание:
Утреннее Гунфу - учебный фильм . Содержит базовые комплексы Тайцзицюань: Девять нитей (разминка и укрепление позвоночника); Сухое умывание (улучшение обмена веществ, кровообращения и Ци); Столбовая работа ( структурирование тела и накопление Ци). Упражнения демонстрирует президент Ассоциации «Восточный Дом», глава Школы Тайцзицюань «Ветер-Гром», тренер призеров Чемпионата Европы Владимир Котляр.
Продолжительность: 00:30:03
Видеокодек: DivX 4/5/6
Битрейт видео: ~1772 kbps
Размер кадра: 720x512
Качество видео: DVDRip
Аудиокодек: MP3
Битрейт аудио: 128 kbps        

}{@R0N

Пост 29-Ноя-2018 20:01

[Цитировать]

Ирина Колосова | Your english trainer. Интенсив курс для начинающих. Уровень 0 - Автор (режиссер): Ирина Колосова
Производство: Россия
Жанр: Английский язык
Описание:
Данный курс предназначен для тех, кто вообще не знает английский язык. Курс начинается с самых базовых основ.
Этот курс специально продуман для тех, кто не может сдвинуться с "мертвой точки".Тщательно подобранный материал и продуманная методика заставит вашу память работать и поглощать информацию. Вы доведете все темы до автоматизма.
Эффективная методика, которая приносит результат в минимальный срок!
Продолжительность: 03:33:07
Качество видео: PCRec
Видео: AVC/H.264, 1280x720, ~300 Kbps
Аудио: AC3, 2 ch, 160 Kbps

Mediainfo:

General
Complete name : C:\Users\User\Downloads\Your english trainer. Level 0. \День 1. Тема 1. Инфинитив Уроки английского. Курс грамматики с нуля. ИНФИНИТИВ. Английский для начинающих..mp4
Format : MPEG-4
Format profile : Base Media / Version 2
Codec ID : mp42
File size : 104 MiB
Duration : 30mn 25s
Overall bit rate mode : Variable
Overall bit rate : 476 Kbps
Encoded date : UTC 2018-11-28 05:17:09
Tagged date : UTC 2018-11-28 05:17:09
Video
ID : 1
Format : AVC
Format/Info : Advanced Video Codec
Format profile : [url=mailto:[email protected]][email protected][/url]
Format settings, CABAC : Yes
Format settings, ReFrames : 4 frames
Format settings, GOP : M=4, N=90
Codec ID : avc1
Codec ID/Info : Advanced Video Coding
Duration : 30mn 25s
Bit rate : 312 Kbps
Width : 1 280 pixels
Height : 720 pixels
Display aspect ratio : 16:9
Frame rate mode : Constant
Frame rate : 29.970 fps
Color space : YUV
Chroma subsampling : 4:2:0
Bit depth : 8 bits
Scan type : Progressive
Bits/(Pixel*Frame) : 0.011
Stream size : 67.8 MiB (65%)
Writing library : x264 core 142 r11 24e4fed
Encoding settings : cabac=1 / ref=3 / deblock=1:0:0 / analyse=0x3:0x113 / me=hex / subme=7 / psy=1 / psy_rd=1.00:0.00 / mixed_ref=1 / me_range=16 / chroma_me=1 / trellis=1 / 8x8dct=1 / cqm=0 / deadzone=21,11 / fast_pskip=1 / chroma_qp_offset=-2 / threads=72 / lookahead_threads=5 / sliced_threads=0 / nr=0 / decimate=1 / interlaced=0 / bluray_compat=0 / stitchable=1 / constrained_intra=0 / bframes=3 / b_pyramid=2 / b_adapt=1 / b_bias=0 / direct=1 / weightb=1 / open_gop=0 / weightp=2 / keyint=infinite / keyint_min=29 / scenecut=40 / intra_refresh=0 / rc_lookahead=40 / rc=crf / mbtree=1 / crf=20.0 / qcomp=0.60 / qpmin=5 / qpmax=69 / qpstep=4 / vbv_maxrate=2750 / vbv_bufsize=7500 / crf_max=0.0 / nal_hrd=none / filler=0 / ip_ratio=1.40 / aq=1:1.00
Encoded date : UTC 2014-11-28 05:17:09
Tagged date : UTC 2014-11-28 05:17:09
Color range : Limited
Color primaries : BT.709
Transfer characteristics : BT.709
Matrix coefficients : BT.709
Audio
ID : 2
Format : AAC
Format/Info : Advanced Audio Codec
Format profile : LC
Codec ID : 40
Duration : 30mn 25s
Bit rate mode : Variable
Bit rate : 160 Kbps
Channel(s) : 2 channels
Channel positions : Front: L R
Sampling rate : 48.0 KHz
Compression mode : Lossy
Stream size : 34.8 MiB (34%)
Encoded date : UTC 2018-11-28 05:17:09
Tagged date : UTC 2018-11-28 05:17:09
Скриншоты:
       
 

Текущее время: Сегодня 23:09

Часовой пояс: GMT + 3