Today is a free download without charge Download

Search found 500 matches

Author Message

}{@R0N

Post 19-Apr-2019 22:01

[Quote]

Udemy | Шахматы на JavaScript - Автор (режиссер): Евгений Волосатов
Производство: Udemy
Жанр: Программирование, JavaScript
Описание:
На этом курсе мы создадим на JavaScript алгоритмы для игры в Шахматы. Мы напишем алгоритмы генерации и проверки ходов по всем шахматным правилам. Все занятия практические - повторяй и получай, всё подробно и поэтапно.
Продолжительность: 07:14:34
Качество видео: PCRec
Видео: AVC/H.264, 1280x720, ~974-1818 Kbps
Аудио: AAC, 2 ch, 127-128 Kbps

Mediainfo:

Общее
Полное имя : .\1. Вступление\7. Шахматные выборы.mp4
Формат : MPEG-4
Профиль формата : Base Media
Идентификатор кодека : isom (isom/iso2/avc1/mp41)
Размер файла : 139 Мбайт
Продолжительность : 11 м. 57 с.
Общий поток : 1626 Кбит/сек
Программа кодирования : Lavf58.12.100
Видео
Идентификатор : 1
Формат : AVC
Формат/Информация : Advanced Video Codec
Профиль формата : [url=mailto:[email protected]][email protected][/url]
Настройки формата : CABAC / 4 Ref Frames
Параметр CABAC формата : Да
Параметр RefFrames формата : 4 кадра
Идентификатор кодека : avc1
Идентификатор кодека/Информация : Advanced Video Coding
Продолжительность : 11 м. 57 с.
Битрейт : 1489 Кбит/сек
Номинальный битрейт : 3000 Кбит/сек
Ширина : 1280 пикселей
Высота : 720 пикселей
Соотношение сторон : 16:9
Режим частоты кадров : Постоянный
Частота кадров : 30,000 кадров/сек
Цветовое пространство : YUV
Субдискретизация насыщенности : 4:2:0
Битовая глубина : 8 бит
Тип развёртки : Прогрессивная
Бит/(Пиксели*Кадры) : 0.054
Размер потока : 127 Мбайт (92%)
Библиотека кодирования : x264 core 148
Настройки программы : cabac=1 / ref=3 / deblock=1:-1:-1 / analyse=0x1:0x111 / me=umh / subme=6 / psy=1 / psy_rd=1.00:0.15 / mixed_ref=1 / me_range=16 / chroma_me=1 / trellis=1 / 8x8dct=0 / cqm=0 / deadzone=21,11 / fast_pskip=1 / chroma_qp_offset=-3 / threads=22 / lookahead_threads=3 / sliced_threads=0 / nr=0 / decimate=1 / interlaced=0 / bluray_compat=0 / constrained_intra=0 / bframes=3 / b_pyramid=2 / b_adapt=1 / b_bias=0 / direct=1 / weightb=1 / open_gop=0 / weightp=2 / keyint=60 / keyint_min=6 / scenecut=0 / intra_refresh=0 / rc_lookahead=60 / rc=cbr / mbtree=1 / bitrate=3000 / ratetol=1.0 / qcomp=0.60 / qpmin=0 / qpmax=69 / qpstep=4 / vbv_maxrate=3000 / vbv_bufsize=6000 / nal_hrd=none / filler=0 / ip_ratio=1.40 / aq=1:1.00
Codec configuration box : avcC
Аудио
Идентификатор : 2
Формат : AAC LC
Формат/Информация : Advanced Audio Codec Low Complexity
Идентификатор кодека : mp4a-40-2
Продолжительность : 11 м. 57 с.
Вид битрейта : Постоянный
Битрейт : 128 Кбит/сек
Каналы : 2 канала
Channel layout : L R
Частота : 44,1 КГц
Частота кадров : 43,066 кадра/сек (1024 SPF)
Метод сжатия : С потерями
Размер потока : 10,9 Мбайт (8%)
Default : Да
AlternateGroup/String : 1
Скриншоты:
       

}{@R0N

Post 19-Apr-2019 22:01

[Quote]

Udemy | Игры со спрайтами на C# - Автор (режиссер): Евгений Волосатов
Производство: Udemy
Жанр: Программирование, C#
Описание:
На этом курсе мы сначала создаём редактор спрайтов, в котором можно создавать простые графические картинки из линий, а затем сериализовать их в отдельный файл для последующего использования в игровых программах. Далее мы создаём анимационную игру "Прилунение Аполлона" и оформляем её созданными спрайтами. Затем мы пишем логику игры Домино-пасьянса, реализуем движение плашек во время игры, а потом добавляем рисованные спрайты для каждой плашки домино и делаем анимацию через ООП.
Продолжительность: 10:51:33
Качество видео: PCRec
Видео: AVC/H.264, 1280x720, ~1047-1588 Kbps
Аудио: AAC, 2 ch, 127-128 Kbps

Mediainfo:

Общее
Полное имя : .\2. Прилунение Аполлона\3. Плавное прилунение.mp4
Формат : MPEG-4
Профиль формата : Base Media
Идентификатор кодека : isom (isom/iso2/avc1/mp41)
Размер файла : 468 Мбайт
Продолжительность : 55 м. 15 с.
Общий поток : 1185 Кбит/сек
Программа кодирования : Lavf58.12.100
Видео
Идентификатор : 1
Формат : AVC
Формат/Информация : Advanced Video Codec
Профиль формата : [url=mailto:[email protected]][email protected][/url]
Настройки формата : CABAC / 4 Ref Frames
Параметр CABAC формата : Да
Параметр RefFrames формата : 4 кадра
Идентификатор кодека : avc1
Идентификатор кодека/Информация : Advanced Video Coding
Продолжительность : 55 м. 15 с.
Битрейт : 1048 Кбит/сек
Номинальный битрейт : 3000 Кбит/сек
Ширина : 1280 пикселей
Высота : 720 пикселей
Соотношение сторон : 16:9
Режим частоты кадров : Постоянный
Частота кадров : 30,000 кадров/сек
Цветовое пространство : YUV
Субдискретизация насыщенности : 4:2:0
Битовая глубина : 8 бит
Тип развёртки : Прогрессивная
Бит/(Пиксели*Кадры) : 0.038
Размер потока : 414 Мбайт (88%)
Библиотека кодирования : x264 core 148
Настройки программы : cabac=1 / ref=3 / deblock=1:-1:-1 / analyse=0x1:0x111 / me=umh / subme=6 / psy=1 / psy_rd=1.00:0.15 / mixed_ref=1 / me_range=16 / chroma_me=1 / trellis=1 / 8x8dct=0 / cqm=0 / deadzone=21,11 / fast_pskip=1 / chroma_qp_offset=-3 / threads=22 / lookahead_threads=3 / sliced_threads=0 / nr=0 / decimate=1 / interlaced=0 / bluray_compat=0 / constrained_intra=0 / bframes=3 / b_pyramid=2 / b_adapt=1 / b_bias=0 / direct=1 / weightb=1 / open_gop=0 / weightp=2 / keyint=60 / keyint_min=6 / scenecut=0 / intra_refresh=0 / rc_lookahead=60 / rc=cbr / mbtree=1 / bitrate=3000 / ratetol=1.0 / qcomp=0.60 / qpmin=0 / qpmax=69 / qpstep=4 / vbv_maxrate=3000 / vbv_bufsize=6000 / nal_hrd=none / filler=0 / ip_ratio=1.40 / aq=1:1.00
Codec configuration box : avcC
Аудио
Идентификатор : 2
Формат : AAC LC
Формат/Информация : Advanced Audio Codec Low Complexity
Идентификатор кодека : mp4a-40-2
Продолжительность : 55 м. 15 с.
Вид битрейта : Постоянный
Битрейт : 128 Кбит/сек
Каналы : 2 канала
Channel layout : L R
Частота : 44,1 КГц
Частота кадров : 43,066 кадра/сек (1024 SPF)
Метод сжатия : С потерями
Размер потока : 50,6 Мбайт (11%)
Default : Да
AlternateGroup/String : 1
Скриншоты:
       

}{@R0N

Post 19-Apr-2019 22:01

[Quote]

Udemy | Игры со словами на C#- Автор (режиссер): Евгений Волосатов
Производство: Udemy
Жанр: Программирование, C#
Описание:
Мы напишем игру "Виселка" - отгадывание слова по буквам. Потом напишем помощника для игры. Затем попрактикуемся в поиске интересные слов по разным правилам: детские слова, палиндромы, самые длинные/короткие из указанных букв, подбор слов для игры в эрудит и так далее. В конце курса мы создадим бота для игры "Балда".
Продолжительность: 05:36:03
Качество видео: PCRec
Видео: AVC/H.264, 1280x720, ~703-1670 Kbps
Аудио: AAC, 2 ch, 191-128 Kbps

Mediainfo:

Общее
Полное имя : .\1.Виселка\2.Блок-схема помощника.mp4
Формат : MPEG-4
Профиль формата : Base Media
Идентификатор кодека : isom (isom/iso2/avc1/mp41)
Размер файла : 210 Мбайт
Продолжительность : 28 м. 57 с.
Общий поток : 1016 Кбит/сек
Программа кодирования : Lavf58.12.100
Видео
Идентификатор : 1
Формат : AVC
Формат/Информация : Advanced Video Codec
Профиль формата : [url=mailto:[email protected]][email protected][/url]
Настройки формата : CABAC / 4 Ref Frames
Параметр CABAC формата : Да
Параметр RefFrames формата : 4 кадра
Параметр GOP формата : M=4, N=60
Идентификатор кодека : avc1
Идентификатор кодека/Информация : Advanced Video Coding
Продолжительность : 28 м. 57 с.
Битрейт : 879 Кбит/сек
Номинальный битрейт : 3000 Кбит/сек
Ширина : 1280 пикселей
Высота : 720 пикселей
Соотношение сторон : 16:9
Режим частоты кадров : Постоянный
Частота кадров : 30,000 кадров/сек
Цветовое пространство : YUV
Субдискретизация насыщенности : 4:2:0
Битовая глубина : 8 бит
Тип развёртки : Прогрессивная
Бит/(Пиксели*Кадры) : 0.032
Размер потока : 182 Мбайт (87%)
Библиотека кодирования : x264 core 148
Настройки программы : cabac=1 / ref=3 / deblock=1:-1:-1 / analyse=0x1:0x111 / me=umh / subme=6 / psy=1 / psy_rd=1.00:0.15 / mixed_ref=1 / me_range=16 / chroma_me=1 / trellis=1 / 8x8dct=0 / cqm=0 / deadzone=21,11 / fast_pskip=1 / chroma_qp_offset=-3 / threads=22 / lookahead_threads=3 / sliced_threads=0 / nr=0 / decimate=1 / interlaced=0 / bluray_compat=0 / constrained_intra=0 / bframes=3 / b_pyramid=2 / b_adapt=1 / b_bias=0 / direct=1 / weightb=1 / open_gop=0 / weightp=2 / keyint=60 / keyint_min=6 / scenecut=0 / intra_refresh=0 / rc_lookahead=60 / rc=cbr / mbtree=1 / bitrate=3000 / ratetol=1.0 / qcomp=0.60 / qpmin=0 / qpmax=69 / qpstep=4 / vbv_maxrate=3000 / vbv_bufsize=6000 / nal_hrd=none / filler=0 / ip_ratio=1.40 / aq=1:1.00
Codec configuration box : avcC
Аудио
Идентификатор : 2
Формат : AAC LC
Формат/Информация : Advanced Audio Codec Low Complexity
Идентификатор кодека : mp4a-40-2
Продолжительность : 28 м. 57 с.
Вид битрейта : Постоянный
Битрейт : 128 Кбит/сек
Каналы : 2 канала
Channel layout : L R
Частота : 44,1 КГц
Частота кадров : 43,066 кадра/сек (1024 SPF)
Метод сжатия : С потерями
Размер потока : 26,5 Мбайт (13%)
Default : Да
AlternateGroup/String : 1
Скриншоты:
       

}{@R0N

Post 19-Apr-2019 22:01

[Quote]

Udemy | Java. Клиент-серверное приложение. Многопоточное - Автор (режиссер): Евгений Волосатов
Производство: Udemy
Жанр: Программирование, Java
Описание:
Вы узнаете, как можно установить полноценный диалог между двумя программами, которые могут быть размещены и запущены на разных, даже весьма удалённых, компьютерах. Разработка программы ведётся в среде Intellij Idea, с помощью которой будут показаны некоторые эффективные приемы кодогенерации. Во второй части курса мы поговорим о многопоточности, когда она нужна, а когда от неё нет пользы. А в конце курса рассмотрено два способа создания многопоточного сервера.
Продолжительность: 03:22:56
Качество видео: PCRec
Видео: AVC/H.264, 1280x720, ~1059-2283 Kbps
Аудио: AAC, 2 ch, 127-128 Kbps

Mediainfo:

Общее
Полное имя : .\1. Взаимодействие двух программ\1. Немного теории.mp4
Формат : MPEG-4
Профиль формата : Base Media
Идентификатор кодека : isom (isom/iso2/avc1/mp41)
Размер файла : 78,4 Мбайт
Продолжительность : 9 м. 9 с.
Общий поток : 1197 Кбит/сек
Программа кодирования : Lavf58.12.100
Видео
Идентификатор : 1
Формат : AVC
Формат/Информация : Advanced Video Codec
Профиль формата : [url=mailto:[email protected]][email protected][/url]
Настройки формата : CABAC / 4 Ref Frames
Параметр CABAC формата : Да
Параметр RefFrames формата : 4 кадра
Идентификатор кодека : avc1
Идентификатор кодека/Информация : Advanced Video Coding
Продолжительность : 9 м. 9 с.
Битрейт : 1060 Кбит/сек
Номинальный битрейт : 3000 Кбит/сек
Ширина : 1280 пикселей
Высота : 720 пикселей
Соотношение сторон : 16:9
Режим частоты кадров : Постоянный
Частота кадров : 30,000 кадров/сек
Цветовое пространство : YUV
Субдискретизация насыщенности : 4:2:0
Битовая глубина : 8 бит
Тип развёртки : Прогрессивная
Бит/(Пиксели*Кадры) : 0.038
Размер потока : 69,5 Мбайт (89%)
Библиотека кодирования : x264 core 148
Настройки программы : cabac=1 / ref=3 / deblock=1:-1:-1 / analyse=0x1:0x111 / me=umh / subme=6 / psy=1 / psy_rd=1.00:0.15 / mixed_ref=1 / me_range=16 / chroma_me=1 / trellis=1 / 8x8dct=0 / cqm=0 / deadzone=21,11 / fast_pskip=1 / chroma_qp_offset=-3 / threads=22 / lookahead_threads=3 / sliced_threads=0 / nr=0 / decimate=1 / interlaced=0 / bluray_compat=0 / constrained_intra=0 / bframes=3 / b_pyramid=2 / b_adapt=1 / b_bias=0 / direct=1 / weightb=1 / open_gop=0 / weightp=2 / keyint=60 / keyint_min=6 / scenecut=0 / intra_refresh=0 / rc_lookahead=60 / rc=cbr / mbtree=1 / bitrate=3000 / ratetol=1.0 / qcomp=0.60 / qpmin=0 / qpmax=69 / qpstep=4 / vbv_maxrate=3000 / vbv_bufsize=6000 / nal_hrd=none / filler=0 / ip_ratio=1.40 / aq=1:1.00
Codec configuration box : avcC
Аудио
Идентификатор : 2
Формат : AAC LC
Формат/Информация : Advanced Audio Codec Low Complexity
Идентификатор кодека : mp4a-40-2
Продолжительность : 9 м. 9 с.
Вид битрейта : Постоянный
Битрейт : 128 Кбит/сек
Каналы : 2 канала
Channel layout : L R
Частота : 44,1 КГц
Частота кадров : 43,066 кадра/сек (1024 SPF)
Метод сжатия : С потерями
Размер потока : 8,39 Мбайт (11%)
Default : Да
AlternateGroup/String : 1
Скриншоты:
       

}{@R0N

Post 18-Apr-2019 23:04

[Quote]

creativetuts.ru | Полноценный курс по Photoshop - Автор (режиссер): Айдар Абилдин (creativetuts.ru)
Жанр: Photoshop
Продажник: ПОЛНОЦЕННЫЙ ВИДЕОКУРС ПО PHOTOSHOP
Описание:
Полноценный курс по Фотошопу, каждый модуль подкреплен практикой. Мы не просто пройдемся по интерфейсу, панелям и инструментам, мы изучим их на ПРАКТИЧЕСКИХ примерах, что даст Вам возможность закрепить каждую часть фотошопа на практике, и превратить просто знания в практические навыки, после чего Вы уже сможете создавать проекты и композиции.
Продолжительность: 20:17:47
Качество видео: PCRec
Видео: AVC/H.264, 1280x720, ~117 kbps
Аудио: AAC, 2 ch, 125 kbps

Mediainfo:

General
Complete name : C:\Users\admin\Desktop\Полноценный курс по Photoshop [creativetuts.ru] [Айдар Абилдин] (2019)\PS-1\01. Основы и Интерфейс\01. Интерфейс.mp4
Format : MPEG-4
Format profile : Base Media / Version 2
Codec ID : mp42 (isom/mp42)
File size : 42.6 MiB
Duration : 24 min 14 s
Overall bit rate mode : Variable
Overall bit rate : 246 kb/s
Encoded date : UTC 2017-12-15 06:58:09
Tagged date : UTC 2017-12-15 06:58:09
Video
ID : 1
Format : AVC
Format/Info : Advanced Video Codec
Format profile : [url=mailto:[email protected]][email protected][/url]
Format settings, CABAC : Yes
Format settings, ReFrames : 4 frames
Codec ID : avc1
Codec ID/Info : Advanced Video Coding
Duration : 24 min 14 s
Bit rate : 117 kb/s
Width : 1 280 pixels
Height : 720 pixels
Display aspect ratio : 16:9
Frame rate mode : Constant
Frame rate : 30.000 FPS
Standard : NTSC
Color space : YUV
Chroma subsampling : 4:2:0
Bit depth : 8 bits
Scan type : Progressive
Bits/(Pixel*Frame) : 0.004
Stream size : 20.3 MiB (48%)
Language : English
Encoded date : UTC 2017-12-15 06:58:09
Tagged date : UTC 2017-12-15 06:58:09
Color range : Limited
Audio
ID : 2
Format : AAC
Format/Info : Advanced Audio Codec
Format profile : LC
Codec ID : 40
Duration : 24 min 14 s
Bit rate mode : Variable
Bit rate : 126 kb/s
Maximum bit rate : 207 kb/s
Channel(s) : 2 channels
Channel positions : Front: L R
Sampling rate : 44.1 kHz
Frame rate : 43.066 FPS (1024 spf)
Compression mode : Lossy
Stream size : 21.8 MiB (51%)
Language : English
Encoded date : UTC 2017-12-15 06:58:09
Tagged date : UTC 2017-12-15 06:58:09

Описание далее...

Помимо практики, данный курс включает обширные теоритические знания, которые позволят Вам понять принципы работы с графикой и изображениями, цветом и коррекцией, Вы не просто будете повторять мои действия, Вы будете понимать почему мы делаем именно так а не по другому. Курс полностью структурирован и поэтому даже если Вы абсолютный новичок, вам не составит труда понять и изучить программу.
Все уроки преподносятся пошагово и в логическом порядке, чтобы каждая часть знания была понятна.

Содержание:

МОДУЛЬ 1 - ОСНОВЫ И ИНТЕРФЕЙС В PHOTOSHOP
Полностью изучим интерфейс фотошопа так, что у вас в голове будет четкая и понятная картина что и где находится и для чего это нужно. Интерфейс перестанет казаться чем-то непонятным и запутанным. Также мы изучим теоритические аспекты, поймете что такое векторная графика и что такое растровая графика, чем они отличаются.
01. Интерфейс
02. Работа с документами
03. Значения
04. Векторные изображения и растровые изображения
МОДУЛЬ 2 - СЛОИ В PHOTOSHOP
Слои - одна из важнейших частей фотошопа. В этом модуле мы изучим все о слоях, как с ними работать, их структуру и иерархию. Все будет наглядно и понятно. Рассмотрим множество ситуаций работы со слоями, что даст вам большее понимание. Изучим правильные методы структуры слоев.
01. Иерархия слоев
02. Правило элементов слоя
03. Структура слоев
04. Непрозрачность и Альфа канал
05. Типы слоев
06. Работа со слоями
07. Работа с группами
08. Непрозрачность
09. Блокировка слоев
10. Связка слоев
11. Объединение слоев
12. Растрирование векторного слоя
13. Панель History (История)
МОДУЛЬ 3 - РЕДАКТИРОВАНИЕ И ТРАНСФОРМАЦИЯ В PHOTOSHOP
В этом модуле мы изучим все способы редактирования и трансформаций слоев и изображений, рассмотрим горячие клавиши, чтобы ускорить вашу работу и сделать ее максимально продуктивной.
01. Инструменты
02. Горячие клавиши
03. Дублирование слоев
04. Копирование, вырезание, вставка
05. Трансформация документа и слоев
06. Кадрирование
МОДУЛЬ 4 - ВЫРАВНИВАНИЕ В PHOTOSHOP
В этом модуле мы изучим вспомогательные инструменты, а также выравнивание. Эти инструменты позволят вам быстрее управлятся со слоями, быстро и эффективно их выравнивать.
01. Линейка (Rulers)
02. Линии (Guides)
03. Привязка
04. Smart Guides
05. Выравнивание
06. Вспомогательные инструменты
МОДУЛЬ 5 - ВЫДЕЛЕНИЕ В PHOTOSHOP
Выделение позволят вам выделять а также вырезать объекты с любых изображений и слоев.
01. Стандартные инструменты выделения и опции выделения
02. Работа с выделенной областью
03. Инструменты выделения (Часть 1)
04. Инструменты выделения (Часть 2)
05. Focus Area и Select and Mask
06. Меню Select
МОДУЛЬ 6 - МАСКИ В PHOTOSHOP
Маски - эффективный инструмент который позволит вам решить множество проблем, делать сложные вещи проще и эффективнее.
01. Слой маска
02. Clipping Mask
03. Быстрая маска
МОДУЛЬ 7 - ОФОРМЛЕНИЕ И ЦВЕТ В PHOTOSHOP
В этом модуле мы изучим все касаемо цвета и оформления. Вас ждут не только практические, но и теоретические знания. Мы изучим всю теорию цвета, цветовые модели. Мы изучим все об оформлении в фотошопе (цвет, градиенты, узоры, паттерны, стили слоя и так далее)
01. Цвет и Цветовые модели
02. Color Picker
03. Панели и образцы цветов
04. Заливка слоев
05. Градиенты
06. Preset Manager
07. Patterns (Узоры)
08. Работа со стилями слоя
09. Стили слоя (Часть 1)
10. Стили слоя (Часть 2)
11. Комбинирование стилей слоя
МОДУЛЬ 8 - РИСОВАНИЕ В PHOTOSHOP
Photoshop служит не только для создания дизайна. Большинство художников используют Photoshop для рисования, в нем создаются и концепт-арты и композиции и иллюстрации... В этом модуле мы изучим все инструменты для рисования в фотошопе, подробно изучим кисть и многое другое.
01. Работа с кистью
02. Работа с ластиком и пипеткой
03. Пресеты кистей
04. Пользовательские кисти
05. Микс кисть
06. Замена цвета
07. Настройка кисти в панели Brushes
08. Использование пресетов
МОДУЛЬ 9 - РЕТУШЬ В PHOTOSHOP
Photoshop это мощный инструмент для обрабокти фото и дргуих изображений. Вы можете профессионально обрабатывать кожу человека на фото, удалять объекты с изображения, вставлять объекты в изображение, делать обработку фотографий.
01. Удаляем и клонируем объекты на изображении с Clone Stamp Tool
02. Узорный штамп
03. Healing Brush - Восстанавливающая кисть (Часть 1)
04. Healing Brush - Восстанавливающая кисть (Часть 2)
05. Клонирование и удаление объектов с Patch Tool
06. Перемещение объектов на изображении
07. Объем и контраст фото с Dodge, Burn, Sponge Tool
08. Гладкость, размытие и резкость фото с Blur, Sharpen, Smudge Tool
МОДУЛЬ 10 - ВЕКТОРНАЯ ГРАФИКА В PHOTOSHOP
Photoshop имеет довольно мощные инструменты по работе с векторной графикой. Вы можете создавать и иконки, иллюстрации, флет графику и любую другую векторную графику.
01. Стандартные шейпы (фигуры)
02. Заливка, Обводка, Режимы Combine, Выравнивание фигур
03. Панель Properties
04. Редактирование контура и пути векторного объекта
05. Панель Path
06. Создание флетовой иконки и графики
07. Кастомные шейпы (Произвольные фигуры)
08. Работа с инструментом Pen Tool
09. Выделение и вырезание объектов с Pen Tool
МОДУЛЬ 11 - ТЕКСТ И ТИПОГРАФИКА В PHOTOSHOP
Фотошоп позволит вам достаточно широко работать с текстом. Вы сможете создавать различные текстовые эффекты, типографику, верстку и так далее. Для этого фотошоп имеет все необходимые инструменты
01. Создание и редактирование текста (Часть 1)
02. Создание и редактирование текста (Часть 2)
03. Панели Character и Paragraph
04. Создание типографики
МОДУЛЬ 12 - ФИЛЬТРЫ И РЕЖИМЫ НАЛОЖЕНИЯ В PHOTOSHOP
Фильтры и режимы наложения позволят вам обрабатывать фото, создавать крутые эффекты и стилизации
01. Работа с режимами наложения
02. Использование режимов наложения
03. Применение фильтров
04. Галерея фильтров (Часть 1)
05. Галерея фильтров (Часть 2)
06. Фильтр Liquify
07. Обработка лица
08. Фильтры размытия (Blur)
09. Фильтры искажения (Distort)
10. Фильтры шума (Noise)
11. Фильтры Pixelate
12. Фильтры Render
13. Фильтры резкости
14. Фильтры стилизации
15. Смарт объекты
МОДУЛЬ 13 - ЦВЕТОКОРРЕКЦИЯ В PHOTOSHOP
В этом модуле мы изучим теорию цвета, цветовые гармонии и сочетание цветов, а также изучим все о цветокоррекции в Photoshop (методы, приемы, инструменты, эффекты, корректирующие слои и так далее)
01. Цветовые гармонии
02. Применение цветокоррекции
03. Solid Color, Gradient, Pattern
04. Brightness and Contrast, Exposure, Vibrance
05. Hue and Saturation
06. Кривые (Часть 1)
07. Кривые (Часть 2)
08. Уровни
09. Color Balance
10. Channel Mixer
11. Gradient Map
12. Остальные корректирующие слои
13. Меню Image
14. Camera RAW
МОДУЛЬ 14 - ЭКШЕНЫ (ОПЕРАЦИИ) В PHOTOSHOP
Экшены (Операции) в фотошопе позволяют автоматизировать и выполнять рутинные действия быстрее без ручной работы, на автомате.
01. Основы
02. Создание экшена
03. Сохранение и загрузка экшенов
Скриншоты:
       

}{@R0N

Post 18-Apr-2019 21:08

[Quote]

Udemy | Android разработка с нуля до профессионала - Автор (режиссер): Юрий Аллахвердов
Производство: Udemy
Жанр: Программирование, Java, Kotlin
Описание:
Полный курс Android и основы Java. Создай 16 приложений, включая real-time chat app - клон Viber, WhatsApp, Telegram
Продолжительность: 24:44:04
Качество видео: PCRec
Видео: AVC/H.264, 1280x720, ~254-2462 Kbps
Аудио: AAC, 2 ch, 127-128 Kbps

Mediainfo:

Общее
Полное имя : .\11. Сохранение данных\1. Введение.mp4
Формат : MPEG-4
Профиль формата : Base Media
Идентификатор кодека : isom (isom/iso2/avc1/mp41)
Размер файла : 22,8 Мбайт
Продолжительность : 4 м. 17 с.
Общий поток : 744 Кбит/сек
Программа кодирования : Lavf58.12.100
IsTruncated : Yes
Видео
Идентификатор : 1
Формат : AVC
Формат/Информация : Advanced Video Codec
Профиль формата : [url=mailto:[email protected]][email protected][/url]
Настройки формата : CABAC / 4 Ref Frames
Параметр CABAC формата : Да
Параметр RefFrames формата : 4 кадра
Идентификатор кодека : avc1
Идентификатор кодека/Информация : Advanced Video Coding
Продолжительность : 4 м. 17 с.
Битрейт : 607 Кбит/сек
Номинальный битрейт : 3000 Кбит/сек
Ширина : 1280 пикселей
Высота : 720 пикселей
Соотношение сторон : 16:9
Режим частоты кадров : Постоянный
Частота кадров : 30,000 кадров/сек
Цветовое пространство : YUV
Субдискретизация насыщенности : 4:2:0
Битовая глубина : 8 бит
Тип развёртки : Прогрессивная
Бит/(Пиксели*Кадры) : 0.022
Размер потока : 18,6 Мбайт (82%)
Библиотека кодирования : x264 core 148
Настройки программы : cabac=1 / ref=3 / deblock=1:-1:-1 / analyse=0x1:0x111 / me=umh / subme=6 / psy=1 / psy_rd=1.00:0.15 / mixed_ref=1 / me_range=16 / chroma_me=1 / trellis=1 / 8x8dct=0 / cqm=0 / deadzone=21,11 / fast_pskip=1 / chroma_qp_offset=-3 / threads=22 / lookahead_threads=3 / sliced_threads=0 / nr=0 / decimate=1 / interlaced=0 / bluray_compat=0 / constrained_intra=0 / bframes=3 / b_pyramid=2 / b_adapt=1 / b_bias=0 / direct=1 / weightb=1 / open_gop=0 / weightp=2 / keyint=60 / keyint_min=6 / scenecut=0 / intra_refresh=0 / rc_lookahead=60 / rc=cbr / mbtree=1 / bitrate=3000 / ratetol=1.0 / qcomp=0.60 / qpmin=0 / qpmax=69 / qpstep=4 / vbv_maxrate=3000 / vbv_bufsize=6000 / nal_hrd=none / filler=0 / ip_ratio=1.40 / aq=1:1.00
Codec configuration box : avcC
Аудио
Идентификатор : 2
Формат : AAC LC
Формат/Информация : Advanced Audio Codec Low Complexity
Идентификатор кодека : mp4a-40-2
Продолжительность : 4 м. 17 с.
Вид битрейта : Постоянный
Битрейт : 128 Кбит/сек
Каналы : 2 канала
Channel layout : L R
Частота : 48,0 КГц
Частота кадров : 46,875 кадров/сек (1024 SPF)
Метод сжатия : С потерями
Размер потока : 3,93 Мбайт (17%)
Default : Да
AlternateGroup/String : 1

Дополнительная информация:

В раздаче имеются архивы! В них содержится дополнительные материалы.
Скриншоты:
       

}{@R0N

Post 18-Apr-2019 21:08

[Quote]

Udemy | Фундаментальный курс по основам C# .NET - Автор (режиссер): Юрий Золотарев
Производство: Udemy
Жанр: Программирование, C#
Описание:
Боевой курс по С# для тех кто хочет быстрее начать работать. Все что нужно знать для практического применения.
Продолжительность: 05:08:06
Качество видео: PCRec
Видео: AVC/H.264, 1280x720, ~507-2369 Kbps
Аудио: AAC, 2 ch, 127-128 Kbps

Mediainfo:

Общее
Полное имя : .\8. Наследование\1. Основы наследования.mp4
Формат : MPEG-4
Профиль формата : Base Media
Идентификатор кодека : isom (isom/iso2/avc1/mp41)
Размер файла : 69,5 Мбайт
Продолжительность : 9 м. 0 с.
Общий поток : 1078 Кбит/сек
Программа кодирования : Lavf58.12.100
Видео
Идентификатор : 1
Формат : AVC
Формат/Информация : Advanced Video Codec
Профиль формата : [url=mailto:[email protected]][email protected][/url]
Настройки формата : CABAC / 4 Ref Frames
Параметр CABAC формата : Да
Параметр RefFrames формата : 4 кадра
Идентификатор кодека : avc1
Идентификатор кодека/Информация : Advanced Video Coding
Продолжительность : 9 м. 0 с.
Битрейт : 940 Кбит/сек
Номинальный битрейт : 3000 Кбит/сек
Ширина : 1280 пикселей
Высота : 720 пикселей
Соотношение сторон : 16:9
Режим частоты кадров : Постоянный
Частота кадров : 30,000 кадров/сек
Цветовое пространство : YUV
Субдискретизация насыщенности : 4:2:0
Битовая глубина : 8 бит
Тип развёртки : Прогрессивная
Бит/(Пиксели*Кадры) : 0.034
Размер потока : 60,6 Мбайт (87%)
Библиотека кодирования : x264 core 148
Настройки программы : cabac=1 / ref=3 / deblock=1:-1:-1 / analyse=0x1:0x111 / me=umh / subme=6 / psy=1 / psy_rd=1.00:0.15 / mixed_ref=1 / me_range=16 / chroma_me=1 / trellis=1 / 8x8dct=0 / cqm=0 / deadzone=21,11 / fast_pskip=1 / chroma_qp_offset=-3 / threads=22 / lookahead_threads=3 / sliced_threads=0 / nr=0 / decimate=1 / interlaced=0 / bluray_compat=0 / constrained_intra=0 / bframes=3 / b_pyramid=2 / b_adapt=1 / b_bias=0 / direct=1 / weightb=1 / open_gop=0 / weightp=2 / keyint=60 / keyint_min=6 / scenecut=0 / intra_refresh=0 / rc_lookahead=60 / rc=cbr / mbtree=1 / bitrate=3000 / ratetol=1.0 / qcomp=0.60 / qpmin=0 / qpmax=69 / qpstep=4 / vbv_maxrate=3000 / vbv_bufsize=6000 / nal_hrd=none / filler=0 / ip_ratio=1.40 / aq=1:1.00
Codec configuration box : avcC
Аудио
Идентификатор : 2
Формат : AAC LC
Формат/Информация : Advanced Audio Codec Low Complexity
Идентификатор кодека : mp4a-40-2
Продолжительность : 9 м. 0 с.
Вид битрейта : Постоянный
Битрейт : 128 Кбит/сек
Каналы : 2 канала
Channel layout : L R
Частота : 44,1 КГц
Частота кадров : 43,066 кадра/сек (1024 SPF)
Метод сжатия : С потерями
Размер потока : 8,24 Мбайт (12%)
Default : Да
AlternateGroup/String : 1
Скриншоты:
       

}{@R0N

Post 06-Apr-2019 12:40

[Quote]

Никита Ивановский | Альпийское шале - Автор (режиссер): Никита Ивановский
Производство: HighVisualSchool
Жанр: Обучающее видео
Описание:
После курса Вы получите хорошие знания 3D Max, Vray, Mudbox, MarvelousDesigner, Photoshop, AfterEffects, FumeFX для самостоятельной реализации архитектурных проектов любой сложности с созданием собственных моделей, материалов, аниматиков!
Продолжительность: 22:12:46
Качество видео: PCRec
Видео: AVC/H.264, 1920х1080, ~467 Kbps
Аудио: AAC, 2 ch, ~ 53,3 Kbps

Mediainfo:

Общее
Полное имя : I:\альпийское шале\SHALE_1\VEBINAR 2\LESSON_2 - сплайны, основные настройки, AutoCAD, Lathe, Extrude, Sweep\LESSON_2 - сплайны, основные настройки, AutoCAD, Lathe, Extrude, Sweep.mp4
Формат : MPEG-4
Профиль формата : Base Media / Version 2
Идентификатор кодека : mp42 (M4V /mp42/isom)
Размер файла : 660 Мбайт
Продолжительность : 2 ч. 56 м.
Общий поток : 522 Кбит/сек
Дата кодирования : UTC 2014-02-18 18:30:22
Дата пометки : UTC 2014-02-18 18:30:22
Видео
Идентификатор : 1
Формат : AVC
Формат/Информация : Advanced Video Codec
Профиль формата : [email protected]
Настройки формата : CABAC / 4 Ref Frames
Параметр CABAC формата : Да
Параметр RefFrames формата : 4 кадра
Параметр GOP формата : M=1, N=75
Идентификатор кодека : avc1
Идентификатор кодека/Информация : Advanced Video Coding
Продолжительность : 2 ч. 56 м.
Продолжительность оригинала : 2 ч. 56 м.
Битрейт : 467 Кбит/сек
Ширина : 1920 пикселей
Высота : 1080 пикселей
Соотношение сторон : 16:9
Режим частоты кадров : Постоянный
Частота кадров : 15,000 кадров/сек
Цветовое пространство : YUV
Субдискретизация насыщенности : 4:2:0
Битовая глубина : 8 бит
Тип развёртки : Прогрессивная
Бит/(Пиксели*Кадры) : 0.015
Размер потока : 589 Мбайт (89%)
Размер потока оригинала : 589 Мбайт (89%)
Язык : English
Дата кодирования : UTC 2014-02-18 18:30:22
Дата пометки : UTC 2014-02-18 18:30:22
Цветовой диапазон : Limited
Основные цвета : BT.709
Характеристики трансфера : BT.709
Коэффициенты матрицы : BT.709
mdhd_Duration : 10598425
Codec configuration box : avcC
Аудио
Идентификатор : 2
Формат : AAC LC
Формат/Информация : Advanced Audio Codec Low Complexity
Идентификатор кодека : mp4a-40-2
Продолжительность : 2 ч. 56 м.
Продолжительность оригинала : 2 ч. 56 м.
Вид битрейта : Постоянный
Битрейт : 53,3 Кбит/сек
Каналы : 2 канала
Channel layout : L R
Частота : 44,1 КГц
Частота кадров : 43,066 кадра/сек (1024 SPF)
Метод сжатия : С потерями
Размер потока : 67,7 Мбайт (10%)
Размер потока оригинала : 67,7 Мбайт (10%)
Язык : English
Дата кодирования : UTC 2014-02-18 18:30:22
Дата пометки : UTC 2014-02-18 18:30:22
mdhd_Duration : 10651572
Скриншоты:
       

}{@R0N

Post 25-Mar-2019 17:52

[Quote]

Udemy | React + Redux - Профессиональная Разработка - Автор (режиссер): Юрий Бура
Производство: Udemy
Жанр: Программирование, React, Redux
Описание:
Фокус этого курса - практическая разработка приложений на React. Это означает, что мы рассмотрим не только эффективное использование самого React, но и целую экосистему инструментов и библиотек, которые необходимы для создания полноценного UI приложения.
Продолжительность: 18:10:02
Качество видео: PCRec
Видео: AVC/H.264, 1280x720, ~562-2969 Kbps
Аудио: AAC, 2 ch, 127-128 Kbps

Mediainfo:

Общее
Полное имя : .10 Redux\110 Действия с параметрами.mp4
Формат : MPEG-4
Профиль формата : Base Media
Идентификатор кодека : isom (isom/iso2/avc1/mp41)
Размер файла : 35,6 Мбайт
Продолжительность : 3 м. 42 с.
Общий поток : 1343 Кбит/сек
Программа кодирования : Lavf58.12.100
IsTruncated : Yes
Видео
Идентификатор : 1
Формат : AVC
Формат/Информация : Advanced Video Codec
Профиль формата : [url=mailto:[email protected]][email protected][/url]
Настройки формата : CABAC / 4 Ref Frames
Параметр CABAC формата : Да
Параметр RefFrames формата : 4 кадра
Параметр GOP формата : M=4, N=60
Идентификатор кодека : avc1
Идентификатор кодека/Информация : Advanced Video Coding
Продолжительность : 3 м. 42 с.
Битрейт : 1206 Кбит/сек
Номинальный битрейт : 3000 Кбит/сек
Ширина : 1280 пикселей
Высота : 720 пикселей
Соотношение сторон : 16:9
Режим частоты кадров : Постоянный
Частота кадров : 30,000 кадров/сек
Цветовое пространство : YUV
Субдискретизация насыщенности : 4:2:0
Битовая глубина : 8 бит
Тип развёртки : Прогрессивная
Бит/(Пиксели*Кадры) : 0.044
Размер потока : 32,0 Мбайт (90%)
Библиотека кодирования : x264 core 148
Настройки программы : cabac=1 / ref=3 / deblock=1:-1:-1 / analyse=0x1:0x111 / me=umh / subme=6 / psy=1 / psy_rd=1.00:0.15 / mixed_ref=1 / me_range=16 / chroma_me=1 / trellis=1 / 8x8dct=0 / cqm=0 / deadzone=21,11 / fast_pskip=1 / chroma_qp_offset=-3 / threads=22 / lookahead_threads=3 / sliced_threads=0 / nr=0 / decimate=1 / interlaced=0 / bluray_compat=0 / constrained_intra=0 / bframes=3 / b_pyramid=2 / b_adapt=1 / b_bias=0 / direct=1 / weightb=1 / open_gop=0 / weightp=2 / keyint=60 / keyint_min=6 / scenecut=0 / intra_refresh=0 / rc_lookahead=60 / rc=cbr / mbtree=1 / bitrate=3000 / ratetol=1.0 / qcomp=0.60 / qpmin=0 / qpmax=69 / qpstep=4 / vbv_maxrate=3000 / vbv_bufsize=6000 / nal_hrd=none / filler=0 / ip_ratio=1.40 / aq=1:1.00
Codec configuration box : avcC
Аудио
Идентификатор : 2
Формат : AAC LC
Формат/Информация : Advanced Audio Codec Low Complexity
Идентификатор кодека : mp4a-40-2
Продолжительность : 3 м. 42 с.
Вид битрейта : Постоянный
Битрейт : 128 Кбит/сек
Каналы : 2 канала
Channel layout : L R
Частота : 48,0 КГц
Частота кадров : 46,875 кадров/сек (1024 SPF)
Метод сжатия : С потерями
Размер потока : 3,40 Мбайт (10%)
Default : Да
AlternateGroup/String : 1

Дополнительная информация:

В раздаче имеются архивы! В них содержится дополнительные материалы.

История обновлений:

23.03.2019 торрент файл обновлен
- добавлены 2 новых раздела ("11 Разработка Redux приложения" и "12 WebPack и Babel")
- обновлен архив с исходниками ("pro-react-redux-master.zip")

Раздача ведётся путём добавления новых файлов:

Раздача ведётся путём добавления новых файлов; при каждом добавлении создаётся новый торрент. Чтобы начать докачку новых файлов, пользователям необходимо сделать следующее:
(1) остановить скачивание,
(2) удалить старый торрент у себя из клиента (имеющиеся файлы удалять не надо),
(3) скачать новый торрент и запустить его у себя в клиенте вместо старого, при этом указать клиенту путь в старую папку, куда и должно происходить скачивание новых файлов.
Ваш клиент при этом должен произвести хеширование (проверку) старой папки (если не производит сам - помогите ему сделать это), и будет докачивать только те файлы, которых у вас ещё нет. Старые файлы при этом не удаляются, а продолжают раздаваться!
Eсли вы уже удалили старые файлы, то предотвратить повторную закачку старых файлов можно, отжав галочку в соответствующих местах при запуске нового торрента. По возможности, желательно не удалять старые файлы как можно дольше, чтобы релизёр не только продолжал раздавать старые файлы, а смог сконцентрироваться на новых.
Скриншоты:
       

}{@R0N

Post 13-Mar-2019 18:12

[Quote]

Джама Джурабаев | Основы 3D рисования / 3d painting basics - Автор (режиссер): Джама Джурабаев / Jama Jurabaev
Производство: Gumroad
Жанр: Рисование, Photoshop
Описание:
В этом курсе я покажу, как с нуля создавать 3D рисунки в Photoshop.
Я расскажу о 3D возможностях в Photoshop и объясню основные принципы рисования в 3D.
Продолжительность: 01:10:19
Качество видео: PCRec
Перевод: Отсутствует
Язык озвучки: Английский
Видео: AVC/H.264, 1920x1080, ~5004 Kbps
Аудио: AAC, 2 ch, 192 Kbps, VBR

Mediainfo:

Код:
General
Complete name                            : C:\Torrents\Jama Jurabaev - 3d painting basics\02_3D_painting_Photoshop_3D.mp4
Format                                   : MPEG-4
Codec ID                                 : M4V
File size                                : 288 MiB
Duration                                 : 7mn 44s
Overall bit rate mode                    : Variable
Overall bit rate                         : 5 197 Kbps
Encoded date                             : UTC 2017-11-19 23:39:33
Tagged date                              : UTC 2017-11-19 23:39:38
©TIM                                     : 00:00:00:00
©TSC                                     : 30
©TSZ                                     : 1
Video
ID                                       : 1
Format                                   : AVC
Format/Info                              : Advanced Video Codec
Format profile                           : [url=mailto:[email protected]][email protected][/url]
Format settings, CABAC                   : No
Format settings, ReFrames                : 2 frames
Format settings, GOP                     : M=1, N=30
Codec ID                                 : avc1
Codec ID/Info                            : Advanced Video Coding
Duration                                 : 7mn 44s
Bit rate                                 : 5 004 Kbps
Width                                    : 1 920 pixels
Height                                   : 1 080 pixels
Display aspect ratio                     : 16:9
Frame rate mode                          : Constant
Frame rate                               : 30.000 fps
Standard                                 : NTSC
Color space                              : YUV
Chroma subsampling                       : 4:2:0
Bit depth                                : 8 bits
Scan type                                : Progressive
Bits/(Pixel*Frame)                       : 0.080
Stream size                              : 277 MiB (96%)
Language                                 : English
Encoded date                             : UTC 2017-11-19 23:39:33
Tagged date                              : UTC 2017-11-19 23:39:33
Color primaries                          : BT.709
Transfer characteristics                 : BT.709
Matrix coefficients                      : BT.709
Audio
ID                                       : 2
Format                                   : AAC
Format/Info                              : Advanced Audio Codec
Format profile                           : LC
Codec ID                                 : 40
Duration                                 : 7mn 44s
Source duration                          : 7mn 44s
Bit rate mode                            : Variable
Bit rate                                 : 192 Kbps
Maximum bit rate                         : 279 Kbps
Channel(s)                               : 2 channels
Channel positions                        : Front: L R
Sampling rate                            : 48.0 KHz
Compression mode                         : Lossy
Stream size                              : 10.5 MiB (4%)
Source stream size                       : 10.5 MiB (4%)
Language                                 : English
Encoded date                             : UTC 2017-11-19 23:39:33
Tagged date                              : UTC 2017-11-19 23:39:33

Дополнительная информация:

В RAR архиве находятся файлы проектов для Photoshop и OctaneRender.

Трейлер:

Скриншоты:
     

Дополнительные скриншоты:

   

}{@R0N

Post 09-Mar-2019 10:16

[Quote]

Dylan Werner | Plasticity: Fascial Stretching - Автор (режиссер): Dylan Werner
Производство: США
Жанр: Фитнес, йога
Описание:
Фасция - это соединительная ткань, которая сплетается по всему телу. Она составляет наши сухожилия, связки и более 30 процентов наших мышц. Большая часть нашей гибкости и ограничений в передвижении проистекает из ограничений нашей фасции, и этот план предназначен именно для этого.
Продолжительность: 02:24:16
Качество видео: HDTVRip
Перевод: Отсутствует
Язык озвучки: Английский
Видео: AVC/H.264, 1280х720, ~1980 Kbps
Аудио: AAC, 2 ch, 192 Kbps

Mediainfo:

Dylan Werner - 1. SF Front Line  Deep Front Arm Line (Mobility RX).mp4
Format : MPEG-4
Format profile : Base Media
Codec ID : isom (isom/iso2/avc1/mp41)
File size : 343 MiB
Duration : 21 min 58 s
Overall bit rate : 2 179 kb/s
Writing application : Lavf58.20.100
Video
ID : 1
Format : AVC
Format/Info : Advanced Video Codec
Format profile : [url=mailto:[email protected]][email protected][/url]
Format settings : CABAC / 4 Ref Frames
Format settings, CABAC : Yes
Format settings, ReFrames : 4 frames
Codec ID : avc1
Codec ID/Info : Advanced Video Coding
Duration : 21 min 58 s
Bit rate : 1 980 kb/s
Width : 1 280 pixels
Height : 720 pixels
Display aspect ratio : 16:9
Frame rate mode : Constant
Frame rate : 23.976 (24000/1001) FPS
Color space : YUV
Chroma subsampling : 4:2:0
Bit depth : 8 bits
Scan type : Progressive
Bits/(Pixel*Frame) : 0.090
Stream size : 311 MiB (91%)
Writing library : x264 core 157
Encoding settings : cabac=1 / ref=2 / deblock=1:0:0 / analyse=0x3:0x113 / me=hex / subme=6 / psy=1 / psy_rd=1.00:0.00 / mixed_ref=1 / me_range=16 / chroma_me=1 / trellis=1 / 8x8dct=1 / cqm=0 / deadzone=21,11 / fast_pskip=1 / chroma_qp_offset=-2 / threads=6 / lookahead_threads=1 / sliced_threads=0 / nr=0 / decimate=1 / interlaced=0 / bluray_compat=0 / constrained_intra=0 / bframes=3 / b_pyramid=2 / b_adapt=1 / b_bias=0 / direct=1 / weightb=1 / open_gop=0 / weightp=1 / keyint=250 / keyint_min=23 / scenecut=40 / intra_refresh=0 / rc_lookahead=30 / rc=cbr / mbtree=1 / bitrate=1980 / ratetol=1.0 / qcomp=0.60 / qpmin=0 / qpmax=69 / qpstep=4 / vbv_maxrate=1980 / vbv_bufsize=3960 / nal_hrd=none / filler=0 / ip_ratio=1.40 / aq=1:1.00
Codec configuration box : avcC
Audio
ID : 2
Format : AAC LC
Format/Info : Advanced Audio Codec Low Complexity
Codec ID : mp4a-40-2
Duration : 21 min 58 s
Duration_LastFrame : -3 ms
Bit rate mode : Constant
Bit rate : 192 kb/s
Channel(s) : 2 channels
Channel layout : L R
Sampling rate : 44.1 kHz
Frame rate : 43.066 FPS (1024 SPF)
Compression mode : Lossy
Stream size : 30.2 MiB (9%)
Default : Yes
Alternate group : 1

Дополнительная информация:

Пластичность означает, что фасция меняет свою длину и сохраняет свою форму. Когда фасция растягивается мимо ее упругих свойств в течение более длительных периодов времени, связи, которые удерживают фасцию вместе, изменяются, и образуются новые связи. Это изменение фасции способствует улучшению мобильности за счет снижения напряжения и жесткости.
Большинство традиционных растяжений имеют тенденцию фокусироваться на одном суставе или группе мышц. Это похоже на растяжение пластикового пакета, но только в середине пакета. Однако работать над пластичностью - это все равно, что держать пластиковый пакет с обоих концов и равномерно растягивать его по всей сумке, а не просто посередине. Если вы работаете над растяжением фасции в целом по всей фасциальной линии, вы увеличиваете свой потенциал, чтобы быть более гибким.
Каждый из пяти классов в этой серии проходит через одну из пяти основных фасциальных линий. Разделяя видео на разные фасциальные листы.

В комплекте:

Dylan Werner - 1. SF Front Line Deep Front Arm Line (00:21:58)
Dylan Werner - 2. SF Back Line Deep Back Arm Line (00:29:29)
Dylan Werner - 3. Lateral Lines SF Arm Lines (00:31:33)
Dylan Werner - 4. Spiral Lines Finctional Lines (00:31:33)
Dylan Werner - 5. Deep Front Line (00:29:42)
Скриншоты:
       

}{@R0N

Post 08-Mar-2019 10:59

[Quote]

ITVDN | ASP.NET WEB API2 (2018) - Автор (режиссер): Ярослав Кучук
Производство: ITVDN
Жанр: Программирование
Описание:
Курс ASP.NET WEB API 2 состоит из 5-ти логически взаимосвязанных уроков, на которых учащиеся изучают теоретические основы для создания, работы с Web API, и затем применяют их на практике. В рамках данного курса слушатели ознакомятся с теорией, необходимой для последующей практики в создании собственных Web API.
Продолжительность: 02:36:11
Качество видео: PCRec
Видео: AVC/H.264, 1920х1080, ~137 Kbps
Аудио: AAC, 2 ch, 137 Kbps

Mediainfo:

Общее
Полное имя : C:\Users\Admin\Desktop\ASP.NET WEB API2\ASP.NET WEB API2 Lesson 4.mp4
Формат : MPEG-4
Профиль формата : Base Media / Version 2
Идентификатор кодека : mp42 (mp42/mp41/isom/avc1)
Размер файла : 126 Мбайт
Продолжительность : 35 м. 43 с.
Режим общего битрейта : Переменный
Общий поток : 494 Кбит/сек
Дата кодирования : UTC 2018-11-26 13:46:20
Дата пометки : UTC 2018-11-26 13:46:20
Видео
Идентификатор : 1
Формат : AVC
Формат/Информация : Advanced Video Codec
Профиль формата : [email protected]
Настройки формата : CABAC / 5 Ref Frames
Параметр CABAC формата : Да
Параметр RefFrames формата : 5 кадров
Идентификатор кодека : avc1
Идентификатор кодека/Информация : Advanced Video Coding
Продолжительность : 35 м. 43 с.
Битрейт : 353 Кбит/сек
Ширина : 1920 пикселей
Высота : 1080 пикселей
Соотношение сторон : 16:9
Режим частоты кадров : Постоянный
Частота кадров : 30,000 кадров/сек
Цветовое пространство : YUV
Субдискретизация насыщенности : 4:2:0
Битовая глубина : 8 бит
Тип развёртки : Прогрессивная
Бит/(Пиксели*Кадры) : 0.006
Размер потока : 90,1 Мбайт (71%)
Библиотека кодирования : x264 core 157 r10 545de2f
Настройки программы : cabac=1 / ref=5 / deblock=1:0:0 / analyse=0x3:0x113 / me=hex / subme=8 / psy=1 / psy_rd=1.00:0.00 / mixed_ref=1 / me_range=16 / chroma_me=1 / trellis=2 / 8x8dct=1 / cqm=0 / deadzone=21,11 / fast_pskip=1 / chroma_qp_offset=-2 / threads=34 / lookahead_threads=5 / sliced_threads=0 / nr=0 / decimate=1 / interlaced=0 / bluray_compat=0 / stitchable=1 / constrained_intra=0 / bframes=3 / b_pyramid=2 / b_adapt=2 / b_bias=0 / direct=3 / weightb=1 / open_gop=0 / weightp=2 / keyint=infinite / keyint_min=30 / scenecut=40 / intra_refresh=0 / rc_lookahead=50 / rc=crf / mbtree=1 / crf=20.0 / qcomp=0.60 / qpmin=5 / qpmax=69 / qpstep=4 / vbv_maxrate=5500 / vbv_bufsize=15000 / crf_max=0.0 / nal_hrd=none / filler=0 / ip_ratio=1.40 / aq=1:1.00
Дата кодирования : UTC 2018-11-26 13:46:20
Дата пометки : UTC 2018-11-26 13:46:20
Цветовой диапазон : Limited
Основные цвета : BT.709
Характеристики трансфера : BT.709
Коэффициенты матрицы : BT.709
Codec configuration box : avcC
Аудио
Идентификатор : 2
Формат : AAC LC
Формат/Информация : Advanced Audio Codec Low Complexity
Идентификатор кодека : mp4a-40-2
Продолжительность : 35 м. 43 с.
Вид битрейта : Переменный
Битрейт : 137 Кбит/сек
Каналы : 2 канала
Channel layout : L R
Частота : 48,0 КГц
Частота кадров : 46,875 кадров/сек (1024 SPF)
Метод сжатия : С потерями
Размер потока : 35,0 Мбайт (28%)
Дата кодирования : UTC 2018-11-26 13:46:20
Дата пометки : UTC 2018-11-26 13:46:20
Общее
Полное имя : C:\Users\Admin\Desktop\ASP.NET WEB API2\ASP.NET WEB API2 Lesson 5.mp4
Формат : MPEG-4
Профиль формата : Base Media / Version 2
Идентификатор кодека : mp42 (mp42/mp41/isom/avc1)
Размер файла : 106 Мбайт
Продолжительность : 29 м. 47 с.
Режим общего битрейта : Переменный
Общий поток : 499 Кбит/сек
Дата кодирования : UTC 2019-01-11 13:17:06
Дата пометки : UTC 2019-01-11 13:17:06
Видео
Идентификатор : 1
Формат : AVC
Формат/Информация : Advanced Video Codec
Профиль формата : [email protected]
Настройки формата : CABAC / 5 Ref Frames
Параметр CABAC формата : Да
Параметр RefFrames формата : 5 кадров
Идентификатор кодека : avc1
Идентификатор кодека/Информация : Advanced Video Coding
Продолжительность : 29 м. 47 с.
Битрейт : 357 Кбит/сек
Ширина : 1920 пикселей
Высота : 1080 пикселей
Соотношение сторон : 16:9
Режим частоты кадров : Постоянный
Частота кадров : 30,000 кадров/сек
Цветовое пространство : YUV
Субдискретизация насыщенности : 4:2:0
Битовая глубина : 8 бит
Тип развёртки : Прогрессивная
Бит/(Пиксели*Кадры) : 0.006
Размер потока : 76,1 Мбайт (72%)
Библиотека кодирования : x264 core 157 r10 545de2f
Настройки программы : cabac=1 / ref=5 / deblock=1:0:0 / analyse=0x3:0x113 / me=hex / subme=8 / psy=1 / psy_rd=1.00:0.00 / mixed_ref=1 / me_range=16 / chroma_me=1 / trellis=2 / 8x8dct=1 / cqm=0 / deadzone=21,11 / fast_pskip=1 / chroma_qp_offset=-2 / threads=34 / lookahead_threads=5 / sliced_threads=0 / nr=0 / decimate=1 / interlaced=0 / bluray_compat=0 / stitchable=1 / constrained_intra=0 / bframes=3 / b_pyramid=2 / b_adapt=2 / b_bias=0 / direct=3 / weightb=1 / open_gop=0 / weightp=2 / keyint=infinite / keyint_min=30 / scenecut=40 / intra_refresh=0 / rc_lookahead=50 / rc=crf / mbtree=1 / crf=20.0 / qcomp=0.60 / qpmin=5 / qpmax=69 / qpstep=4 / vbv_maxrate=5500 / vbv_bufsize=15000 / crf_max=0.0 / nal_hrd=none / filler=0 / ip_ratio=1.40 / aq=1:1.00
Дата кодирования : UTC 2019-01-11 13:17:06
Дата пометки : UTC 2019-01-11 13:17:06
Цветовой диапазон : Limited
Основные цвета : BT.709
Характеристики трансфера : BT.709
Коэффициенты матрицы : BT.709
Codec configuration box : avcC
Аудио
Идентификатор : 2
Формат : AAC LC
Формат/Информация : Advanced Audio Codec Low Complexity
Идентификатор кодека : mp4a-40-2
Продолжительность : 29 м. 47 с.
Вид битрейта : Переменный
Битрейт : 137 Кбит/сек
Каналы : 2 канала
Channel layout : L R
Частота : 48,0 КГц
Частота кадров : 46,875 кадров/сек (1024 SPF)
Метод сжатия : С потерями
Размер потока : 29,2 Мбайт (27%)
Дата кодирования : UTC 2019-01-11 13:17:06
Дата пометки : UTC 2019-01-11 13:17:06
Общее
Полное имя : C:\Users\Admin\Desktop\ASP.NET WEB API2\ASP.NET WEB API2 Lesson 1.mp4
Формат : MPEG-4
Профиль формата : Base Media / Version 2
Идентификатор кодека : mp42 (mp42/mp41/isom/avc1)
Размер файла : 105 Мбайт
Продолжительность : 32 м. 5 с.
Режим общего битрейта : Переменный
Общий поток : 458 Кбит/сек
Дата кодирования : UTC 2018-11-26 13:42:26
Дата пометки : UTC 2018-11-26 13:42:26
Видео
Идентификатор : 1
Формат : AVC
Формат/Информация : Advanced Video Codec
Профиль формата : [email protected]
Настройки формата : CABAC / 5 Ref Frames
Параметр CABAC формата : Да
Параметр RefFrames формата : 5 кадров
Идентификатор кодека : avc1
Идентификатор кодека/Информация : Advanced Video Coding
Продолжительность : 32 м. 5 с.
Битрейт : 316 Кбит/сек
Ширина : 1920 пикселей
Высота : 1080 пикселей
Соотношение сторон : 16:9
Режим частоты кадров : Постоянный
Частота кадров : 30,000 кадров/сек
Цветовое пространство : YUV
Субдискретизация насыщенности : 4:2:0
Битовая глубина : 8 бит
Тип развёртки : Прогрессивная
Бит/(Пиксели*Кадры) : 0.005
Размер потока : 72,6 Мбайт (69%)
Библиотека кодирования : x264 core 157 r10 545de2f
Настройки программы : cabac=1 / ref=5 / deblock=1:0:0 / analyse=0x3:0x113 / me=hex / subme=8 / psy=1 / psy_rd=1.00:0.00 / mixed_ref=1 / me_range=16 / chroma_me=1 / trellis=2 / 8x8dct=1 / cqm=0 / deadzone=21,11 / fast_pskip=1 / chroma_qp_offset=-2 / threads=34 / lookahead_threads=5 / sliced_threads=0 / nr=0 / decimate=1 / interlaced=0 / bluray_compat=0 / stitchable=1 / constrained_intra=0 / bframes=3 / b_pyramid=2 / b_adapt=2 / b_bias=0 / direct=3 / weightb=1 / open_gop=0 / weightp=2 / keyint=infinite / keyint_min=30 / scenecut=40 / intra_refresh=0 / rc_lookahead=50 / rc=crf / mbtree=1 / crf=20.0 / qcomp=0.60 / qpmin=5 / qpmax=69 / qpstep=4 / vbv_maxrate=5500 / vbv_bufsize=15000 / crf_max=0.0 / nal_hrd=none / filler=0 / ip_ratio=1.40 / aq=1:1.00
Дата кодирования : UTC 2018-11-26 13:42:26
Дата пометки : UTC 2018-11-26 13:42:26
Цветовой диапазон : Limited
Основные цвета : BT.709
Характеристики трансфера : BT.709
Коэффициенты матрицы : BT.709
Codec configuration box : avcC
Аудио
Идентификатор : 2
Формат : AAC LC
Формат/Информация : Advanced Audio Codec Low Complexity
Идентификатор кодека : mp4a-40-2
Продолжительность : 32 м. 5 с.
Вид битрейта : Переменный
Битрейт : 137 Кбит/сек
Каналы : 2 канала
Channel layout : L R
Частота : 48,0 КГц
Частота кадров : 46,875 кадров/сек (1024 SPF)
Метод сжатия : С потерями
Размер потока : 31,4 Мбайт (30%)
Дата кодирования : UTC 2018-11-26 13:42:26
Дата пометки : UTC 2018-11-26 13:42:26
Общее
Полное имя : C:\Users\Admin\Desktop\ASP.NET WEB API2\ASP.NET WEB API2 Lesson 2.mp4
Формат : MPEG-4
Профиль формата : Base Media / Version 2
Идентификатор кодека : mp42 (mp42/mp41/isom/avc1)
Размер файла : 106 Мбайт
Продолжительность : 31 м. 35 с.
Режим общего битрейта : Переменный
Общий поток : 468 Кбит/сек
Дата кодирования : UTC 2018-11-26 13:44:35
Дата пометки : UTC 2018-11-26 13:44:35
Видео
Идентификатор : 1
Формат : AVC
Формат/Информация : Advanced Video Codec
Профиль формата : [email protected]
Настройки формата : CABAC / 5 Ref Frames
Параметр CABAC формата : Да
Параметр RefFrames формата : 5 кадров
Идентификатор кодека : avc1
Идентификатор кодека/Информация : Advanced Video Coding
Продолжительность : 31 м. 35 с.
Битрейт : 326 Кбит/сек
Ширина : 1920 пикселей
Высота : 1080 пикселей
Соотношение сторон : 16:9
Режим частоты кадров : Постоянный
Частота кадров : 30,000 кадров/сек
Цветовое пространство : YUV
Субдискретизация насыщенности : 4:2:0
Битовая глубина : 8 бит
Тип развёртки : Прогрессивная
Бит/(Пиксели*Кадры) : 0.005
Размер потока : 73,6 Мбайт (70%)
Библиотека кодирования : x264 core 157 r10 545de2f
Настройки программы : cabac=1 / ref=5 / deblock=1:0:0 / analyse=0x3:0x113 / me=hex / subme=8 / psy=1 / psy_rd=1.00:0.00 / mixed_ref=1 / me_range=16 / chroma_me=1 / trellis=2 / 8x8dct=1 / cqm=0 / deadzone=21,11 / fast_pskip=1 / chroma_qp_offset=-2 / threads=34 / lookahead_threads=5 / sliced_threads=0 / nr=0 / decimate=1 / interlaced=0 / bluray_compat=0 / stitchable=1 / constrained_intra=0 / bframes=3 / b_pyramid=2 / b_adapt=2 / b_bias=0 / direct=3 / weightb=1 / open_gop=0 / weightp=2 / keyint=infinite / keyint_min=30 / scenecut=40 / intra_refresh=0 / rc_lookahead=50 / rc=crf / mbtree=1 / crf=20.0 / qcomp=0.60 / qpmin=5 / qpmax=69 / qpstep=4 / vbv_maxrate=5500 / vbv_bufsize=15000 / crf_max=0.0 / nal_hrd=none / filler=0 / ip_ratio=1.40 / aq=1:1.00
Дата кодирования : UTC 2018-11-26 13:44:35
Дата пометки : UTC 2018-11-26 13:44:35
Цветовой диапазон : Limited
Основные цвета : BT.709
Характеристики трансфера : BT.709
Коэффициенты матрицы : BT.709
Codec configuration box : avcC
Аудио
Идентификатор : 2
Формат : AAC LC
Формат/Информация : Advanced Audio Codec Low Complexity
Идентификатор кодека : mp4a-40-2
Продолжительность : 31 м. 35 с.
Вид битрейта : Переменный
Битрейт : 137 Кбит/сек
Каналы : 2 канала
Channel layout : L R
Частота : 48,0 КГц
Частота кадров : 46,875 кадров/сек (1024 SPF)
Метод сжатия : С потерями
Размер потока : 31,0 Мбайт (29%)
Дата кодирования : UTC 2018-11-26 13:44:35
Дата пометки : UTC 2018-11-26 13:44:35
Общее
Полное имя : C:\Users\Admin\Desktop\ASP.NET WEB API2\ASP.NET WEB API2 Lesson 3.mp4
Формат : MPEG-4
Профиль формата : Base Media / Version 2
Идентификатор кодека : mp42 (mp42/mp41/isom/avc1)
Размер файла : 92,7 Мбайт
Продолжительность : 27 м. 0 с.
Режим общего битрейта : Переменный
Общий поток : 480 Кбит/сек
Дата кодирования : UTC 2018-12-26 12:06:01
Дата пометки : UTC 2018-12-26 12:06:01
Видео
Идентификатор : 1
Формат : AVC
Формат/Информация : Advanced Video Codec
Профиль формата : [email protected]
Настройки формата : CABAC / 5 Ref Frames
Параметр CABAC формата : Да
Параметр RefFrames формата : 5 кадров
Идентификатор кодека : avc1
Идентификатор кодека/Информация : Advanced Video Coding
Продолжительность : 27 м. 0 с.
Битрейт : 338 Кбит/сек
Ширина : 1920 пикселей
Высота : 1080 пикселей
Соотношение сторон : 16:9
Режим частоты кадров : Постоянный
Частота кадров : 30,000 кадров/сек
Цветовое пространство : YUV
Субдискретизация насыщенности : 4:2:0
Битовая глубина : 8 бит
Тип развёртки : Прогрессивная
Бит/(Пиксели*Кадры) : 0.005
Размер потока : 65,3 Мбайт (70%)
Библиотека кодирования : x264 core 157 r10 545de2f
Настройки программы : cabac=1 / ref=5 / deblock=1:0:0 / analyse=0x3:0x113 / me=hex / subme=8 / psy=1 / psy_rd=1.00:0.00 / mixed_ref=1 / me_range=16 / chroma_me=1 / trellis=2 / 8x8dct=1 / cqm=0 / deadzone=21,11 / fast_pskip=1 / chroma_qp_offset=-2 / threads=34 / lookahead_threads=5 / sliced_threads=0 / nr=0 / decimate=1 / interlaced=0 / bluray_compat=0 / stitchable=1 / constrained_intra=0 / bframes=3 / b_pyramid=2 / b_adapt=2 / b_bias=0 / direct=3 / weightb=1 / open_gop=0 / weightp=2 / keyint=infinite / keyint_min=30 / scenecut=40 / intra_refresh=0 / rc_lookahead=50 / rc=crf / mbtree=1 / crf=20.0 / qcomp=0.60 / qpmin=5 / qpmax=69 / qpstep=4 / vbv_maxrate=5500 / vbv_bufsize=15000 / crf_max=0.0 / nal_hrd=none / filler=0 / ip_ratio=1.40 / aq=1:1.00
Дата кодирования : UTC 2018-12-26 12:06:01
Дата пометки : UTC 2018-12-26 12:06:01
Цветовой диапазон : Limited
Основные цвета : BT.709
Характеристики трансфера : BT.709
Коэффициенты матрицы : BT.709
Codec configuration box : avcC
Аудио
Идентификатор : 2
Формат : AAC LC
Формат/Информация : Advanced Audio Codec Low Complexity
Идентификатор кодека : mp4a-40-2
Продолжительность : 27 м. 0 с.
Вид битрейта : Переменный
Битрейт : 137 Кбит/сек
Каналы : 2 канала
Channel layout : L R
Частота : 48,0 КГц
Частота кадров : 46,875 кадров/сек (1024 SPF)
Метод сжатия : С потерями
Размер потока : 26,5 Мбайт (29%)
Дата кодирования : UTC 2018-12-26 12:06:01
Дата пометки : UTC 2018-12-26 12:06:01

Продолжение описания:

В рамках практических занятий будет создано API для интернет-магазина, включающее в себя управление каталогом товаров, а также их категорированным отображением. Каждое занятие кроме теории включает в себя практические кейсы и итерационное наращивание функционала вышеупомянутого API. После прохождения курса Вы сможете создавать свои (а также поддерживать существующие) Web API.
Скриншоты:
       

}{@R0N

Post 06-Mar-2019 21:20

[Quote]

Ярослав Брин | Фитнес модель за 4 месяца - 5.0 - Автор (режиссер): Ярослав Брин
Производство: Россия
Жанр: Видеотренинг по жиросжиганию
Описание:
Пошаговый Видео - Тренинг по Вашему Преображению.
За 4 месяца произойдет самая Яркая и Адски Тяжелая трансформация вашего тела и сознания.
Никаких соплей из Рубрики Полюби себя такой, какая ты есть, Хорошего человека должно быть много, Главное Внутренний мир.
Это мы оставим психологам, торговцам шаурмой и продавцам из магазина одежды больших размеров.
Продолжительность: 69:33:44
Качество видео: HDRip
Видео: AVC/H.264, ~1280x720,3840-2160, ~730-25000 Kbps
Аудио: AAC, 2 ch, ~124-317 Kbps

Mediainfo:

Общее
Полное имя : Z:\ФМ4М - 5.0\1_FM5-1-29\001_Урок-1.mp4
Формат : MPEG-4
Профиль формата : Base Media
Идентификатор кодека : isom (isom/iso2/avc1/mp41)
Размер файла : 4,89 Гбайт
Продолжительность : 3 ч. 44 м.
Режим общего битрейта : Переменный
Общий поток : 3117 Кбит/сек
Программа кодирования : Lavf56.15.102
Видео
Идентификатор : 1
Формат : AVC
Формат/Информация : Advanced Video Codec
Профиль формата : [url=mailto:[email protected]][email protected][/url]
Настройки формата : CABAC / 4 Ref Frames
Параметр CABAC формата : Да
Параметр RefFrames формата : 4 кадра
Идентификатор кодека : avc1
Идентификатор кодека/Информация : Advanced Video Coding
Продолжительность : 3 ч. 44 м.
Битрейт : 2981 Кбит/сек
Ширина : 3840 пикселей
Высота : 1080 пикселей
Соотношение сторон : 3,556
Режим частоты кадров : Переменный
Частота кадров : 29,674 кадров/сек
Минимальная частота кадров : 10,004 кадров/сек
Максимальная частота кадров : 30,000 кадров/сек
Цветовое пространство : YUV
Субдискретизация насыщенности : 4:2:0
Битовая глубина : 8 бит
Тип развёртки : Прогрессивная
Бит/(Пиксели*Кадры) : 0.024
Размер потока : 4,68 Гбайт (96%)
Библиотека кодирования : x264 core 148 r2638 7599210
Настройки программы : cabac=1 / ref=1 / deblock=1:-1:-1 / analyse=0x3:0x113 / me=umh / subme=2 / psy=1 / psy_rd=1.00:0.00 / mixed_ref=0 / me_range=24 / chroma_me=1 / trellis=1 / 8x8dct=1 / cqm=0 / deadzone=21,11 / fast_pskip=1 / chroma_qp_offset=0 / threads=12 / lookahead_threads=4 / sliced_threads=0 / nr=0 / decimate=1 / interlaced=0 / bluray_compat=0 / constrained_intra=0 / bframes=3 / b_pyramid=2 / b_adapt=1 / b_bias=0 / direct=1 / weightb=1 / open_gop=0 / weightp=1 / keyint=50 / keyint_min=5 / scenecut=0 / intra_refresh=0 / rc_lookahead=10 / rc=crf / mbtree=1 / crf=23.0 / qcomp=0.60 / qpmin=0 / qpmax=69 / qpstep=4 / ip_ratio=1.40 / aq=1:1.00
Codec configuration box : avcC
Аудио
Идентификатор : 2
Формат : AAC LC
Формат/Информация : Advanced Audio Codec Low Complexity
Идентификатор кодека : mp4a-40-2
Продолжительность : 3 ч. 44 м.
Вид битрейта : Переменный
Битрейт : 124 Кбит/сек
Максимальный битрейт : 129 Кбит/сек
Каналы : 2 канала
Channel layout : L R
Частота : 44,1 КГц
Частота кадров : 43,066 кадра/сек (1024 SPF)
Метод сжатия : С потерями
Размер потока : 200 Мбайт (4%)
Default : Да
AlternateGroup/String : 1

Дополнительная информация:

Мы не будем говорить о "Теории" или "Как надо было бы сделать" или "Как было бы хорошо", всё, что мы будем делать и изучать, будет на конкретном практическом примере и опыте.
Для данного формата, я специально разжираюсь до 2-й степени ожирения, чтобы всю теорию и практику показывать на себе.
Я не рассказываю методики из учебников и не пересказываю интернет мусор, я использую научно-спортивные разработки в области БИОХИМИИ, ДИЕТОЛОГИИ и ПСИХОЛОГИИ, упрощаю насколько возможно и показываю НА СЕБЕ!
Я не просто покажу, как сжигать жирок, я покажу, как создать идеальные пропорции под ваш тип телосложения, мы максимально, насколько возможно приблизим вас к эталону красоты тела.
Будет Ежедневная работа ДО РЕЗУЛЬТАТА!
Скриншоты:
       

}{@R0N

Post 03-Mar-2019 21:01

[Quote]

OTUS | Разработчик на Spring Framework - Автор (режиссер): Юрий Дворжецкий
Производство: OTUS
Жанр: Программирование, Java, Spring
Описание:
Курс будет полезен всем. От Junior Java-программистов, не имеющих опыта работы со Spring, с минимальным опытом с IoC-контейнером Spring или испытывающих трудности с ним до архитекторов и тех.лидов, желающих узнать про современные возможности Spring для решения высокоуровневых задач.
Продолжительность: 50:27:38
Качество видео: PCRec
Видео: AVC/H.264, 640x360-1280x720, ~69-710 Kbps
Аудио: AAC, 2 ch, 93-128 Kbps

Программа курса:

Модуль 1 Введение
В данном модуле будут рассматриваться понятия и функциональности, на которых базируются все проекты Spring: Inversion of Control (Spring Context), аспектное программирование (Spring AOP), Spring Expression Language (SpEL).
Слушатели смогут правильно и эффективно конфигурировать Spring-приложения различными средствами и способами, а также будет рассмотрена "чёрная магия" Spring Boot - автоконфигурации.-Модуль 2 Работа с базами данных
В данном разделе будет рассмотрены проекты Spring для работы как с реляционными базами данных, так и с NoSQL базами данных.
Spring JDBC, Spring ORM, Spring Data Repositories и, разумеется, работа с транзакциями.
Помимо проектов Spring, участники смогут разбираться в особенностях различных баз данных, а также использовать специальные embedded-базы даных.-Модуль 3 Разработка Web-приложений
В данном модуле будут рассматриваться возможности Spring для разработки Web-приложений: Spring MVC и современный Reactive-ориентированный Spring WebFlux.
Разумеется, будут рассмотрены популярные технологии View и разработка современных SPA-приложений.
И, конечно, различные "плюшки" Spring Boot, максимально ускоряющие разработку Web-приложений.-Модуль 4 "Около" и "Дзен"
В данном модуле рассматриваются продвинутые проекты Spring решающие специфичные задачи, связанные с авторизацией и аутентификацией, размещения сервисов в облаках и работой с БД, а также облегчающие создание больших монолитов и систем на микросервисной архитектуре.-Модуль 5 Проектная работа
Заключительный месяц курса посвящен проектной работе. Свой проект - это то, что интересно писать студенту. То, что можно создать на основе знаний, полученных на курсе.
При этом не обязательно закончить его за месяц. В процессе написания по проекту можно получить консультации преподавателей.
Проект должен стать примером кода, который можно показывать потенциальным работодателям.
Проект должен быть сделан на основе Spring Boot, включать работу с DB с ипользованием Spring Data репозиториев и/или Spring JDBC.
Проект должен иметь UI построенный на современных принципах разработки Web-приложений (AJAX и/или SPA).
Приложение должно содержать механизмы аутентификации и авторизации с использованием Spring Security
Асинхронные части могут быть реализованы с помощью Spring Integration.
Пектные обработки, утилиты поддержки должны быть реализованы с помощью Spring Batch + Spring Shell.
Проект должен быть cloud-ready.
Примеры тем:
- Онлайн-библиотека
- Блог с админкой/регистрацией пользователей
Предлагаемые темы выпускного проекта:
- Онлайн-библиотека
- Блог с админкой/регистрацией пользователей
- Всё что угодно, к чему "душа лежит"

Mediainfo:

Общее
Полное имя : .\4. Около и Дзен\32. Обзор дополнительных технологий Spring, выбор архитектуры и технологий\32 - Обзор дополнительных технологий Spring (часть 2).mp4
Формат : MPEG-4
Профиль формата : Base Media / Version 2
Идентификатор кодека : mp42 (isom/mp42)
Размер файла : 118 Мбайт
Продолжительность : 58 м. 52 с.
Режим общего битрейта : Переменный
Общий поток : 281 Кбит/сек
Дата кодирования : UTC 2018-10-31 20:39:46
Дата пометки : UTC 2018-10-31 20:39:46
Видео
Идентификатор : 1
Формат : AVC
Формат/Информация : Advanced Video Codec
Профиль формата : [email protected]
Настройки формата : 1 Ref Frames
Параметр CABAC формата : Нет
Параметр RefFrames формата : 1 кадр
Параметр GOP формата : M=1, N=60
Идентификатор кодека : avc1
Идентификатор кодека/Информация : Advanced Video Coding
Продолжительность : 58 м. 52 с.
Битрейт : 182 Кбит/сек
Ширина : 640 пикселей
Высота : 360 пикселей
Соотношение сторон : 16:9
Режим частоты кадров : Постоянный
Частота кадров : 30,000 кадров/сек
Цветовое пространство : YUV
Субдискретизация насыщенности : 4:2:0
Битовая глубина : 8 бит
Тип развёртки : Прогрессивная
Бит/(Пиксели*Кадры) : 0.026
Размер потока : 76,8 Мбайт (65%)
Заголовок : ISO Media file produced by Google Inc. Created on: 10/31/2018.
Дата кодирования : UTC 2018-10-31 20:39:46
Дата пометки : UTC 2018-10-31 20:39:46
Цветовой диапазон : Limited
Основные цвета : BT.709
Характеристики трансфера : BT.709
Коэффициенты матрицы : BT.709
Codec configuration box : avcC
Аудио
Идентификатор : 2
Формат : AAC LC
Формат/Информация : Advanced Audio Codec Low Complexity
Идентификатор кодека : mp4a-40-2
Продолжительность : 58 м. 52 с.
Вид битрейта : Переменный
Битрейт : 96,0 Кбит/сек
Каналы : 2 канала
Channel layout : L R
Частота : 44,1 КГц
Частота кадров : 43,066 кадра/сек (1024 SPF)
Метод сжатия : С потерями
Размер потока : 40,4 Мбайт (34%)
Заголовок : ISO Media file produced by Google Inc. Created on: 10/31/2018.
Дата кодирования : UTC 2018-10-31 20:39:46
Дата пометки : UTC 2018-10-31 20:39:46
Общее
Полное имя : .\2. Работа с базами данных\8. JPQL, Spring ORM, DAO на основе Spring ORM + JPA\8 - JPQL, Spring ORM, DAO на основе Spring ORM + JPA.mp4
Формат : MPEG-4
Профиль формата : Base Media / Version 2
Идентификатор кодека : mp42 (isom/mp42)
Размер файла : 580 Мбайт
Продолжительность : 1 ч. 56 м.
Режим общего битрейта : Переменный
Общий поток : 697 Кбит/сек
Дата кодирования : UTC 2018-07-20 21:13:23
Дата пометки : UTC 2018-07-20 21:13:23
gsst : 0
gstd : 6986025
Видео
Идентификатор : 1
Формат : AVC
Формат/Информация : Advanced Video Codec
Профиль формата : [url=mailto:[email protected]][email protected][/url]
Настройки формата : CABAC / 1 Ref Frames
Параметр CABAC формата : Да
Параметр RefFrames формата : 1 кадр
Идентификатор кодека : avc1
Идентификатор кодека/Информация : Advanced Video Coding
Продолжительность : 1 ч. 56 м.
Битрейт : 598 Кбит/сек
Максимальный битрейт : 3036 Кбит/сек
Ширина : 1260 пикселей
Высота : 720 пикселей
Соотношение сторон : 16:9
Режим частоты кадров : Постоянный
Частота кадров : 25,000 кадров/сек
Цветовое пространство : YUV
Субдискретизация насыщенности : 4:2:0
Битовая глубина : 8 бит
Тип развёртки : Прогрессивная
Бит/(Пиксели*Кадры) : 0.026
Размер потока : 498 Мбайт (86%)
Дата пометки : UTC 2018-07-20 21:13:52
Цветовой диапазон : Limited
Основные цвета : BT.709
Характеристики трансфера : BT.709
Коэффициенты матрицы : BT.709
Codec configuration box : avcC
Аудио
Идентификатор : 2
Формат : AAC LC
Формат/Информация : Advanced Audio Codec Low Complexity
Идентификатор кодека : mp4a-40-2
Продолжительность : 1 ч. 56 м.
Вид битрейта : Переменный
Битрейт : 96,0 Кбит/сек
Максимальный битрейт : 101 Кбит/сек
Каналы : 1 канал
Channel layout : C
Частота : 44,1 КГц
Частота кадров : 43,066 кадра/сек (1024 SPF)
Метод сжатия : С потерями
Размер потока : 79,9 Мбайт (14%)
Заголовок : IsoMedia File Produced by Google, 5-11-2011
Дата кодирования : UTC 2018-07-20 21:13:40
Дата пометки : UTC 2018-07-20 21:13:52
Общее
Полное имя : .\4. Около и Дзен\20. Spring Security_ Авторизация\20. Spring Security - Авторизация (часть 3).mp4
Формат : MPEG-4
Профиль формата : Base Media / Version 2
Идентификатор кодека : mp42 (isom/mp42)
Размер файла : 26,9 Мбайт
Продолжительность : 20 м. 55 с.
Режим общего битрейта : Переменный
Общий поток : 180 Кбит/сек
Дата кодирования : UTC 2018-09-14 05:44:36
Дата пометки : UTC 2018-09-14 05:44:36
gsst : 0
gstd : 1255177
Видео
Идентификатор : 1
Формат : AVC
Формат/Информация : Advanced Video Codec
Профиль формата : [url=mailto:[email protected]][email protected][/url]
Настройки формата : CABAC / 3 Ref Frames
Параметр CABAC формата : Да
Параметр RefFrames формата : 3 кадра
Идентификатор кодека : avc1
Идентификатор кодека/Информация : Advanced Video Coding
Продолжительность : 20 м. 55 с.
Битрейт : 82,7 Кбит/сек
Ширина : 1280 пикселей
Высота : 686 пикселей
Соотношение сторон : 1,85:1
Режим частоты кадров : Постоянный
Частота кадров : 25,000 кадров/сек
Цветовое пространство : YUV
Субдискретизация насыщенности : 4:2:0
Битовая глубина : 8 бит
Тип развёртки : Прогрессивная
Бит/(Пиксели*Кадры) : 0.004
Размер потока : 12,4 Мбайт (46%)
Заголовок : ISO Media file produced by Google Inc. Created on: 09/13/2018.
Дата кодирования : UTC 2018-09-14 05:44:36
Дата пометки : UTC 2018-09-14 05:44:36
Цветовой диапазон : Limited
Основные цвета : BT.709
Характеристики трансфера : BT.709
Коэффициенты матрицы : BT.709
Codec configuration box : avcC
Аудио
Идентификатор : 2
Формат : AAC LC
Формат/Информация : Advanced Audio Codec Low Complexity
Идентификатор кодека : mp4a-40-2
Продолжительность : 20 м. 55 с.
Вид битрейта : Переменный
Битрейт : 93,6 Кбит/сек
Каналы : 1 канал
Channel layout : C
Частота : 44,1 КГц
Частота кадров : 43,066 кадра/сек (1024 SPF)
Метод сжатия : С потерями
Размер потока : 14,0 Мбайт (52%)
Заголовок : ISO Media file produced by Google Inc. Created on: 09/13/2018.
Дата кодирования : UTC 2018-09-14 05:44:36
Дата пометки : UTC 2018-09-14 05:44:36
Общее
Полное имя : .\4. Около и Дзен\32. Обзор дополнительных технологий Spring, выбор архитектуры и технологий\32 - Обзор дополнительных технологий Spring (часть 1).mp4
Формат : MPEG-4
Профиль формата : Base Media / Version 2
Идентификатор кодека : mp42 (isom/mp42)
Размер файла : 110 Мбайт
Продолжительность : 41 м. 12 с.
Режим общего битрейта : Переменный
Общий поток : 372 Кбит/сек
Дата кодирования : UTC 2018-10-31 20:30:50
Дата пометки : UTC 2018-10-31 20:30:50
gsst : 0
gstd : 2472623
Видео
Идентификатор : 1
Формат : AVC
Формат/Информация : Advanced Video Codec
Профиль формата : [url=mailto:[email protected]][email protected][/url]
Настройки формата : CABAC / 3 Ref Frames
Параметр CABAC формата : Да
Параметр RefFrames формата : 3 кадра
Идентификатор кодека : avc1
Идентификатор кодека/Информация : Advanced Video Coding
Продолжительность : 41 м. 12 с.
Битрейт : 240 Кбит/сек
Ширина : 1280 пикселей
Высота : 720 пикселей
Соотношение сторон : 16:9
Режим частоты кадров : Постоянный
Частота кадров : 30,000 кадров/сек
Цветовое пространство : YUV
Субдискретизация насыщенности : 4:2:0
Битовая глубина : 8 бит
Тип развёртки : Прогрессивная
Бит/(Пиксели*Кадры) : 0.009
Размер потока : 70,7 Мбайт (65%)
Заголовок : ISO Media file produced by Google Inc. Created on: 10/31/2018.
Дата кодирования : UTC 2018-10-31 20:30:50
Дата пометки : UTC 2018-10-31 20:30:50
Цветовой диапазон : Limited
Основные цвета : BT.709
Характеристики трансфера : BT.709
Коэффициенты матрицы : BT.709
Codec configuration box : avcC
Аудио
Идентификатор : 2
Формат : AAC LC
Формат/Информация : Advanced Audio Codec Low Complexity
Идентификатор кодека : mp4a-40-2
Продолжительность : 41 м. 12 с.
Вид битрейта : Переменный
Битрейт : 128 Кбит/сек
Каналы : 2 канала
Channel layout : L R
Частота : 44,1 КГц
Частота кадров : 43,066 кадра/сек (1024 SPF)
Метод сжатия : С потерями
Размер потока : 37,7 Мбайт (34%)
Заголовок : ISO Media file produced by Google Inc. Created on: 10/31/2018.
Дата кодирования : UTC 2018-10-31 20:30:50
Дата пометки : UTC 2018-10-31 20:30:50
Скриншоты:
       

}{@R0N

Post 03-Mar-2019 21:00

[Quote]

Константин Шереметьев | Программирование баз данных на SQLite- Автор (режиссер): Константин Шереметьев
Жанр: Программирование, Базы данных, SQLite
Описание:
Данный курс - отличное руководство для тех, кто хочет программировать за деньги. Минимум воды и теории, в курс вошли только те приёмы, которые реально используются на практике. Константин рассказывает не только о том, как написать программу, но и как взаимодействовать с заказчиком (получить заказ и затем оплату).
Продолжительность: 05:35:59
Качество видео: PCRec
Видео: AVC/H.264, 1920x1080, ~509-524 Kbps
Аудио: AAC, 2 ch, 96-161 Kbps

Mediainfo:

Общее
Полное имя : .\01 Основы баз данных\1.1 Настройка Среды Codeblocks.mp4
Формат : MPEG-4
Профиль формата : Base Media / Version 2
Идентификатор кодека : mp42 (isom/iso2/avc1/mp41)
Размер файла : 44,1 Мбайт
Продолжительность : 10 м. 4 с.
Режим общего битрейта : Переменный
Общий поток : 612 Кбит/сек
Дата кодирования : UTC 2018-10-09 20:52:14
Дата пометки : UTC 2018-10-09 20:52:14
Программа кодирования : HandBrake 1.0.7 2017040900
Видео
Идентификатор : 1
Формат : AVC
Формат/Информация : Advanced Video Codec
Профиль формата : [email protected]
Настройки формата : CABAC / 4 Ref Frames
Параметр CABAC формата : Да
Параметр RefFrames формата : 4 кадра
Идентификатор кодека : avc1
Идентификатор кодека/Информация : Advanced Video Coding
Продолжительность : 10 м. 4 с.
Битрейт : 512 Кбит/сек
Ширина : 1920 пикселей
Высота : 1080 пикселей
Соотношение сторон : 16:9
Режим частоты кадров : Постоянный
Частота кадров : 30,000 кадров/сек
Цветовое пространство : YUV
Субдискретизация насыщенности : 4:2:0
Битовая глубина : 8 бит
Тип развёртки : Прогрессивная
Бит/(Пиксели*Кадры) : 0.008
Размер потока : 36,7 Мбайт (83%)
Библиотека кодирования : x264 core 148 r2708 86b7198
Настройки программы : cabac=1 / ref=4 / deblock=1:0:0 / analyse=0x1:0x131 / me=umh / subme=9 / psy=1 / psy_rd=1.00:0.00 / mixed_ref=1 / me_range=16 / chroma_me=1 / trellis=2 / 8x8dct=0 / cqm=0 / deadzone=21,11 / fast_pskip=1 / chroma_qp_offset=-2 / threads=6 / lookahead_threads=1 / sliced_threads=0 / nr=0 / decimate=1 / interlaced=0 / bluray_compat=0 / constrained_intra=0 / bframes=3 / b_pyramid=2 / b_adapt=2 / b_bias=0 / direct=3 / weightb=1 / open_gop=0 / weightp=2 / keyint=300 / keyint_min=30 / scenecut=40 / intra_refresh=0 / rc_lookahead=60 / rc=2pass / mbtree=1 / bitrate=512 / ratetol=1.0 / qcomp=0.60 / qpmin=0 / qpmax=69 / qpstep=4 / cplxblur=20.0 / qblur=0.5 / vbv_maxrate=20000 / vbv_bufsize=25000 / nal_hrd=none / filler=0 / ip_ratio=1.40 / aq=1:1.00
Дата кодирования : UTC 2018-10-09 20:52:14
Дата пометки : UTC 2018-10-09 20:52:14
Цветовой диапазон : Limited
Основные цвета : BT.709
Характеристики трансфера : BT.709
Коэффициенты матрицы : BT.709
Codec configuration box : avcC
Аудио
Идентификатор : 2
Формат : AAC LC
Формат/Информация : Advanced Audio Codec Low Complexity
Идентификатор кодека : mp4a-40-2
Продолжительность : 10 м. 4 с.
Вид битрейта : Переменный
Битрейт : 96,0 Кбит/сек
Каналы : 2 канала
Channel layout : L R
Частота : 44,1 КГц
Частота кадров : 43,066 кадра/сек (1024 SPF)
Метод сжатия : С потерями
Размер потока : 6,94 Мбайт (16%)
Заголовок : Stereo / Stereo
Язык : English
Default : Да
AlternateGroup/String : 1
Дата кодирования : UTC 2018-10-09 20:52:14
Дата пометки : UTC 2018-10-09 20:52:14

Дополнительная информация:

В раздаче имеются архивы! В них содержится исходники.
Скриншоты:
       
 

The time now is: Today 11:33

All times are GMT + 3 Hours