Today is a free download without charge Download

Search found 500 matches

Author Message

}{@R0N

Post 13-Jun-2019 08:46

[Quote]

GeekUniversity | Третья четверть. Социальная сеть и таск-менеджер- Автор (режиссер): GeekUniversity
Жанр: Программирование, PHP, JS
Описание:
В третьей четверти студенты выйдут на новый уровень и научатся программировать с использованием Yii2 Framework. Задачи становятся сложнее и интереснее — в течение двух уровней курса по Yii2 студенты разработают систему управления задачами. На курсе «Архитектуры веб-приложений» студенты освоят самые важные шаблоны проектирования и научатся их использовать.
Продолжительность: 107:06:02
Качество видео: PCRec
Видео: AVC/H.264, 1280x720-1920x1080, ~216-3491 Kbps
Аудио: AAC, 2 ch, 64-195 Kbps

MediaInfo:

Общее
Полное имя : .\01 месяц\workshop\Воркшоп по программированию «Написание Телеграм-бота» GeekBrains - образовательный портал.mp4
Формат : MPEG-4
Профиль формата : Base Media / Version 2
Идентификатор кодека : mp42 (isom/mp42)
Размер файла : 268 Мбайт
Продолжительность : 1 ч. 48 м.
Режим общего битрейта : Переменный
Общий поток : 345 Кбит/сек
Дата кодирования : UTC 2018-10-10 19:41:12
Дата пометки : UTC 2018-10-10 19:41:12
gsst : 0
gstd : 6518909
Видео
Идентификатор : 1
Формат : AVC
Формат/Информация : Advanced Video Codec
Профиль формата : [url=mailto:[email protected]][email protected][/url]
Настройки формата : CABAC / 3 Ref Frames
Параметр CABAC формата : Да
Параметр RefFrames формата : 3 кадра
Идентификатор кодека : avc1
Идентификатор кодека/Информация : Advanced Video Coding
Продолжительность : 1 ч. 48 м.
Битрейт : 216 Кбит/сек
Ширина : 1280 пикселей
Высота : 720 пикселей
Соотношение сторон : 16:9
Режим частоты кадров : Постоянный
Частота кадров : 25,000 кадров/сек
Цветовое пространство : YUV
Субдискретизация насыщенности : 4:2:0
Битовая глубина : 8 бит
Тип развёртки : Прогрессивная
Бит/(Пиксели*Кадры) : 0.009
Размер потока : 168 Мбайт (63%)
Заголовок : ISO Media file produced by Google Inc. Created on: 10/10/2018.
Дата кодирования : UTC 2018-10-10 19:41:12
Дата пометки : UTC 2018-10-10 19:41:12
Цветовой диапазон : Limited
Основные цвета : BT.709
Характеристики трансфера : BT.709
Коэффициенты матрицы : BT.709
Codec configuration box : avcC
Аудио
Идентификатор : 2
Формат : AAC LC
Формат/Информация : Advanced Audio Codec Low Complexity
Идентификатор кодека : mp4a-40-2
Продолжительность : 1 ч. 48 м.
Вид битрейта : Переменный
Битрейт : 126 Кбит/сек
Каналы : 2 канала
Channel layout : L R
Частота : 44,1 КГц
Частота кадров : 43,066 кадра/сек (1024 SPF)
Метод сжатия : С потерями
Размер потока : 97,6 Мбайт (36%)
Заголовок : ISO Media file produced by Google Inc. Created on: 10/10/2018.
Дата кодирования : UTC 2018-10-10 19:41:12
Дата пометки : UTC 2018-10-10 19:41:12
Общее
Полное имя : .\03 месяц\Основы языка Си\Урок 1. Введение. Зачем нужен С и как им пользоваться\Урок-1.mp4
Формат : MPEG-4
Профиль формата : Base Media / Version 2
Идентификатор кодека : mp42 (mp41/mp42/isom)
Размер файла : 471 Мбайт
Продолжительность : 17 м. 52 с.
Режим общего битрейта : Переменный
Общий поток : 3687 Кбит/сек
Название фильма : Basic C. episode 01
Movie_More : Basic C. episode 01
Дата кодирования : UTC 2017-06-27 18:43:24
Дата пометки : UTC 2017-06-27 19:46:57
thmb : яШяа
Видео
Идентификатор : 2
Формат : AVC
Формат/Информация : Advanced Video Codec
Профиль формата : [email protected]
Настройки формата : CABAC / 2 Ref Frames
Параметр CABAC формата : Да
Параметр RefFrames формата : 2 кадра
Параметр GOP формата : M=1, N=30
Идентификатор кодека : avc1
Идентификатор кодека/Информация : Advanced Video Coding
Продолжительность : 17 м. 52 с.
Вид битрейта : Переменный
Битрейт : 3491 Кбит/сек
Максимальный битрейт : 768 Кбит/сек
Ширина : 1920 пикселей
Высота : 1080 пикселей
Соотношение сторон : 16:9
Режим частоты кадров : Постоянный
Частота кадров : 29,970 (30000/1001) кадров/сек
Частота кадров в оригинале : 25,000 кадров/сек
Цветовое пространство : YUV
Субдискретизация насыщенности : 4:2:0
Битовая глубина : 8 бит
Тип развёртки : Прогрессивная
Бит/(Пиксели*Кадры) : 0.056
Размер потока : 446 Мбайт (95%)
Заголовок : Core Media Video
Дата кодирования : UTC 2017-06-27 18:43:24
Дата пометки : UTC 2017-06-27 19:46:57
Цветовой диапазон : Limited
Основные цвета : BT.709
Характеристики трансфера : BT.709
Коэффициенты матрицы : BT.709
Codec configuration box : avcC
Аудио
Идентификатор : 1
Формат : AAC LC
Формат/Информация : Advanced Audio Codec Low Complexity
Идентификатор кодека : mp4a-40-2
Продолжительность : 17 м. 52 с.
Продолжительность оригинала : 17 м. 52 с.
Вид битрейта : Постоянный
Битрейт : 192 Кбит/сек
Номинальный битрейт : 256 Кбит/сек
Каналы : 2 канала
Channel layout : L R
Частота : 48,0 КГц
Частота кадров : 46,875 кадров/сек (1024 SPF)
Метод сжатия : С потерями
Размер потока : 24,6 Мбайт (5%)
Размер потока оригинала : 24,6 Мбайт (5%)
Заголовок : Core Media Audio
Язык : Russian
Дата кодирования : UTC 2017-06-27 18:43:24
Дата пометки : UTC 2017-06-27 19:46:57

Дополнительная информация:

В раздаче имеются архивы! В них содержится дополнительные материалы.

Программа обучения:

YII 2 Framework. Часть 1
Модели и формы в Yii 2
DAO и ORM, работа с БД
Автоматическая генерация кода с использованием GII
Кеширование данных
Тестирование в Yii2. Codeception + PHPUnit, Selenium
REST API на базе Yii2
PAjax
Push-уведомления, интеграция с Telegram
Оптимизация производительности
YII 2 Framework. Часть 2
Модели и формы в Yii 2
DAO и ORM, работа с БД
Автоматическая генерация кода с использованием GII
Кеширование данных
Тестирование в Yii2. Codeception + PHPUnit, Selenium
REST API на базе Yii2
PAjax
Push-уведомления, интеграция с Telegram
Оптимизация производительности
React JS
Стандарт ES6
Webpack
ReactJS
Flux, Redux
Алгоритмы и структуры данных на PHP
Рекурсивные алгоритмы
Сортировки
Динамические структуры данных
Архитектуры и шаблоны проектирования
Проектирование UML-диаграмм
Шаблоны проектирования: singletone, adapter, factory, dependency injection и многое другое.
Основные архитектурные решения
Факультативы от компаний
Скриншоты:
       

}{@R0N

Post 13-Jun-2019 08:46

[Quote]

GeekUniversity | Четвертая четверть. Разработка Highload-проекта- Автор (режиссер): GeekUniversity
Жанр: Программирование, JS, PHP
Описание:
Эта четверть полностью посвящена командной разработке. Сначала мы с вами научимся разрабатывать высоконагруженные проекты, работать с большими объемами данных и выдерживать большое количество пользователей. Затем мы примем участие в разработке OpenSource-проекта и научимся работать с большим количеством чужого кода - это именно то, что будет требоваться от вас при выходе на работу. Также мы пройдем тренинг по подготовке к техническому собеседованию на Middle-разработчика.
Продолжительность: 57:33:17
Качество видео: PCRec
Видео: AVC/H.264, 1280x720-1920x1080, ~162-4012 Kbps
Аудио: AAC, 2 ch, 51-319 Kbps

MediaInfo:

Общее
Полное имя : .\02 месяц\Подготовка к собеседованию веб-разработчика\Урок 7. Экзамен\071.mp4
Формат : MPEG-4
Профиль формата : Base Media
Идентификатор кодека : isom (isom/iso2/avc1/mp41)
Размер файла : 6,91 Мбайт
Продолжительность : 4 м. 10 с.
Общий поток : 232 Кбит/сек
Программа кодирования : Lavf56.25.101
Видео
Идентификатор : 1
Формат : AVC
Формат/Информация : Advanced Video Codec
Профиль формата : [url=mailto:[email protected]][email protected][/url]
Настройки формата : CABAC / 4 Ref Frames
Параметр CABAC формата : Да
Параметр RefFrames формата : 4 кадра
Идентификатор кодека : avc1
Идентификатор кодека/Информация : Advanced Video Coding
Продолжительность : 4 м. 10 с.
Битрейт : 162 Кбит/сек
Номинальный битрейт : 640 Кбит/сек
Ширина : 1280 пикселей
Высота : 720 пикселей
Соотношение сторон : 16:9
Режим частоты кадров : Переменный
Частота кадров : 19,998 кадров/сек
Минимальная частота кадров : 13,889 кадров/сек
Максимальная частота кадров : 20,000 кадров/сек
Цветовое пространство : YUV
Субдискретизация насыщенности : 4:2:0
Битовая глубина : 8 бит
Тип развёртки : Прогрессивная
Бит/(Пиксели*Кадры) : 0.009
Размер потока : 4,83 Мбайт (70%)
Библиотека кодирования : x264 core 146
Настройки программы : cabac=1 / ref=1 / deblock=1:0:0 / analyse=0x3:0x113 / me=hex / subme=2 / psy=1 / psy_rd=1.00:0.00 / mixed_ref=0 / me_range=16 / chroma_me=1 / trellis=0 / 8x8dct=1 / cqm=0 / deadzone=21,11 / fast_pskip=1 / chroma_qp_offset=0 / threads=4 / lookahead_threads=1 / sliced_threads=0 / nr=0 / decimate=1 / interlaced=0 / bluray_compat=0 / constrained_intra=0 / bframes=3 / b_pyramid=2 / b_adapt=1 / b_bias=0 / direct=1 / weightb=1 / open_gop=0 / weightp=1 / keyint=80 / keyint_min=8 / scenecut=40 / intra_refresh=0 / rc_lookahead=10 / rc=cbr / mbtree=1 / bitrate=640 / ratetol=1.0 / qcomp=0.60 / qpmin=0 / qpmax=69 / qpstep=4 / vbv_maxrate=640 / vbv_bufsize=512 / nal_hrd=none / filler=0 / ip_ratio=1.40 / aq=1:1.00
Codec configuration box : avcC
Аудио
Идентификатор : 2
Формат : AAC LC
Формат/Информация : Advanced Audio Codec Low Complexity
Идентификатор кодека : mp4a-40-2
Продолжительность : 4 м. 9 с.
Вид битрейта : Постоянный
Битрейт : 64,0 Кбит/сек
Каналы : 2 канала
Channel layout : L R
Частота : 44,1 КГц
Частота кадров : 43,066 кадра/сек (1024 SPF)
Метод сжатия : С потерями
Размер потока : 1,90 Мбайт (28%)
Default : Да
AlternateGroup/String : 1
Общее
Полное имя : .\03 месяц\Урок 2. Этапы создания продукта\02.mp4
Формат : MPEG-4
Профиль формата : Base Media / Version 2
Идентификатор кодека : mp42 (mp42/mp41)
Размер файла : 1,97 Гбайт
Продолжительность : 1 ч. 5 м.
Режим общего битрейта : Переменный
Общий поток : 4339 Кбит/сек
Дата кодирования : UTC 2018-11-08 15:06:17
Дата пометки : UTC 2018-11-08 15:40:08
TIM : 00:00:00:00
TSC : 25
TSZ : 1
Видео
Идентификатор : 1
Формат : AVC
Формат/Информация : Advanced Video Codec
Профиль формата : [url=mailto:[email protected]][email protected][/url]
Настройки формата : CABAC / 4 Ref Frames
Параметр CABAC формата : Да
Параметр RefFrames формата : 4 кадра
Параметр GOP формата : M=4, N=25
Идентификатор кодека : avc1
Идентификатор кодека/Информация : Advanced Video Coding
Продолжительность : 1 ч. 5 м.
Битрейт : 4012 Кбит/сек
Ширина : 1920 пикселей
Высота : 1080 пикселей
Соотношение сторон : 16:9
Режим частоты кадров : Постоянный
Частота кадров : 25,000 кадров/сек
Цветовое пространство : YUV
Субдискретизация насыщенности : 4:2:0
Битовая глубина : 8 бит
Тип развёртки : Прогрессивная
Бит/(Пиксели*Кадры) : 0.077
Размер потока : 1,83 Гбайт (92%)
Язык : English
Дата кодирования : UTC 2018-11-08 15:06:17
Дата пометки : UTC 2018-11-08 15:06:17
Цветовой диапазон : Limited
Основные цвета : BT.709
Характеристики трансфера : BT.709
Коэффициенты матрицы : BT.709
Codec configuration box : avcC
Аудио
Идентификатор : 2
Формат : AAC LC
Формат/Информация : Advanced Audio Codec Low Complexity
Идентификатор кодека : mp4a-40-2
Продолжительность : 1 ч. 5 м.
Продолжительность оригинала : 1 ч. 5 м.
Вид битрейта : Переменный
Битрейт : 317 Кбит/сек
Максимальный битрейт : 403 Кбит/сек
Каналы : 2 канала
Channel layout : L R
Частота : 48,0 КГц
Частота кадров : 46,875 кадров/сек (1024 SPF)
Метод сжатия : С потерями
Размер потока : 148 Мбайт (7%)
Размер потока оригинала : 148 Мбайт (7%)
Язык : English
Дата кодирования : UTC 2018-11-08 15:06:17
Дата пометки : UTC 2018-11-08 15:06:17

Дополнительная информация:

В раздаче имеются архивы! В них содержится дополнительные материалы.

Программа обучения:

Разработка Highload-проекта
Профилирование. Поиск узких мест. Оптимизация PHP
Оптимизация работы с БД
Масштабирование БД: шардирование, балансировщики
Кэширование: redis, memcache
Горизонтальное скалирование, бесшовная развёртка приложений
Командная разработка
Работа над крупным проектом в команде
Bug Tracker
Git flow
Подготовка к собеседованию веб-разработчика
PHP – основные понятия и задачи по процедурному программированию
PHP – парадигма ООП и связанные задачи
JavaScript – применение и логика
MySQL – проектирование БД и построение запросов
HTML/CSS – верстка и стилизация страниц
Linux – базовые навыки работы в серверной операционной системе
БОНУС:
Blockchain Ethereum (Совкомбанк)
React и Redux. Библиотека ARUI-Feather (Альфа-Банк)
Введение в AngularJS и Backbone (МТТ)
Креатив для некреаторов
Основы продакт-менеджмента
Скриншоты:
       

darkos_bot

Post 25-May-2019 19:07

[Quote]

Учебные фильмы о рыбалке (Братья Щербаковы) - все 68 выпусков (2006-2009) DVDRip- Жанр: Документальный, рыбалка
Страна: Россия
Описание:
Описание: Полное собрание учебных фильмов о рыбалке братьев Щербаковых (60 выпусков). Тактика, способы и мелкие хитрости рыбной ловли. От завязывания узлов и колки льда зимой до... В общем, объем информации в 68 выпусках огромен. Все объясняется до малейших деталей.
Продолжительность: ~01:00:00
Качество видео: DVDRip
Перевод: Оригинальный
Субтитры: отсутствуют
Видео: XviD, 720x480 29.97fps, ~800 Kbps
Аудио кодек: MP3, 2 ch, 64 Kbps

Список Выпусков:

Выпуск № 1 — Изготовление джиг-приманок 1
Выпуск № 2 — Изготовление джиг-приманок 2
Выпуск № 3 — Джиг-спиннинг, часть 1
Выпуск № 4 — Зимняя рыбалка
Выпуск № 5 — Ловля форели
Выпуск № 6 — Ловля на попперы
Выпуск № 7 — Ловля на незацепляйки
Выпуск № 8 — Ловля на ультралайт
Выпуск № 9 — Мягкие приманки
Выпуск № 10 — Воблеры, часть 1
Выпуск № 11 — Вращающиеся блесны
Выпуск № 12 — Колеблющиеся блесны
Выпуск № 13 — Джиговый кивок
Выпуск № 14 — "Вольфрамовые" вертушки
Выпуск № 15 — Спиннинговые удилища
Выпуск № 16 — Безынерционные катушки
Выпуск № 17 — Плетеные лески
Выпуск № 18 — Ночная ловля судака на джиг
Выпуск № 19 — Спутниковые навигаторы GPS
Выпуск № 20 — Ловля на балансиры
Выпуск № 21 — Безмотыльные мормышки
Выпуск № 22 — Зимние донные блесны
Выпуск № 23 — Джиг-спиннинг, часть 2
Выпуск № 24 — Воблеры, часть 2
Выпуск № 25 — Мультипликаторные и инерционные катушки
Выпуск № 26 — Ловля окуня на вертушки
Выпуск № 27 — Ловля окуня на джиг-приманки
Выпуск № 28 — Джиг-спиннинг, часть 3
Выпуск № 29 — Лодочные электромоторы
Выпуск № 30 — Ловля щуки, часть 1
Выпуск № 31 — Ловля щуки, часть 2
Выпуск № 32 — Ловля судака и берша
Выпуск № 33 — Троллинг на реке, часть 1
Выпуск № 34 — Эхолоты
Выпуск № 35 — Зимой на безмотылку
Выпуск № 36 — Зимой вертикалку
Выпуск № 37 — Зимой на донные блесны
Выпуск № 38 — Лодки (ПВХ) и моторы (до 15 л.)
Выпуск № 39 — Фидер и пикер, часть 1
Выпуск № 40 — Фидер и пикер, часть 2
Выпуск № 41 — Прикормки
Выпуск № 42 — Маховая удочка
Выпуск № 43 — Рыболовные узлы
Выпуск № 44 — Матчевая удочка
Выпуск № 45 — Троллинг с даунриггером
Выпуск № 46 — Зимой за окунем
Выпуск № 47 — Зимой за щукой
Выпуск № 48 — Ловля голавля
Выпуск № 49 — Экипировка рыболова
Выпуск № 50 — Дроп-шот и поводковые оснастки
Выпуск № 51 — Комбинированные приманки
Выпуск № 52 — Растительные насадки
Выпуск № 53 — Болонская удочка
Выпуск № 54 — Отвесное блеснение с лодки
Выпуск № 55 — Зимние судаковые приманки
Выпуск № 56 — Спиннинг для начинающих
Выпуск № 57 — Ловля сома на квок
Выпуск № 58 — Джиг в речном коряжнике
Выпуск № 59 — Твичинг воблеров минноу
Выпуск № 60 — Ловля карася
Выпуск № 61 — Комбинированные приманки
Выпуск № 62 — Растительные насадки
Добавлено!!!
Выпуск № 63 — Болонская удочка
Выпуск № 64 — Отвесное блеснение с лодки
Выпуск № 65 — Зимние судаковые приманки
Выпуск № 66 — Спиннинг для начинающих
Выпуск № 67 — Ловля сома на квок
Выпуск № 68 — Джиг в речном коряжнике
Скриншоты:
     

}{@R0N

Post 25-May-2019 10:06

[Quote]

Gumroad.com
Sci-Fi Weapon Process
- Автор (режиссер): Michael Pavlovich
Производство: Gumroad.com
Жанр: 3D графика
Описание:
Создание Sci-Fi оружия с Michael Pavlovich
В этих уроках (42 видео) автор продемонстрирует полный процесс создания Sci-Fi оружия, начиная от использования примитивов и до текстурирования законченного игрового ассета в программе Substance Painter, используя ряд новых возможностей ZBrush 4R8.
Необходимое программное обеспечение: ZBrush 4R8, Substance Painter, Autodesk Maya
Продолжительность: 03:17:13
Качество видео: PCRec
Перевод: Дублированный (Pushkin)
Язык озвучки: Русский, Английский
Видео: AVC/H.264, 1280x720, ~252-1096 Kbps
Аудио 1: AAC, 1 ch, 128 Kbps - Русский, дублированный (Pushkin)
Аудио 2: AAC, 2 ch, 192 Kbps - Английский, оригинал

Mediainfo:

General
Complete name : 00. Sci-Fi Weapon Process Intro.mp4
Format : MPEG-4
Format profile : Base Media
Codec ID : isom
File size : 15.5 MiB
Duration : 1mn 30s
Overall bit rate : 1 425 Kbps
Video
ID : 1
Format : AVC
Format/Info : Advanced Video Codec
Format profile : [url=mailto:[email protected]][email protected][/url]
Format settings, CABAC : Yes
Format settings, ReFrames : 4 frames
Codec ID : avc1
Codec ID/Info : Advanced Video Coding
Duration : 1mn 30s
Bit rate : 1 096 Kbps
Width : 1 280 pixels
Height : 720 pixels
Display aspect ratio : 16:9
Frame rate mode : Constant
Frame rate : 30.000 fps
Color space : YUV
Chroma subsampling : 4:2:0
Bit depth : 8 bits
Scan type : Progressive
Bits/(Pixel*Frame) : 0.040
Stream size : 11.9 MiB (77%)
Writing library : x264 core 144 r2525 40bb568
Language : English
Audio #1
ID : 2
Format : AAC
Format/Info : Advanced Audio Codec
Format profile : LC
Codec ID : 40
Duration : 1mn 30s
Duration_LastFrame : 43ms
Bit rate mode : Constant
Bit rate : 128 Kbps
Channel(s) : 2 channels
Channel(s)_Original : 1 channel
Channel positions : Front: C
Sampling rate : 44.1 KHz
Compression mode : Lossy
Stream size : 1.39 MiB (9%)
Language : Russian
Audio #2
ID : 3
Format : AAC
Format/Info : Advanced Audio Codec
Format profile : LC
Codec ID : 40
Duration : 1mn 30s
Bit rate mode : Constant
Bit rate : 192 Kbps
Channel(s) : 2 channels
Channel positions : Front: L R
Sampling rate : 48.0 KHz
Compression mode : Lossy
Stream size : 2.08 MiB (13%)
Language : English

Дополнительная информация:

Об авторе:
Майкл Павлович - художник по персонажам, его специализация - 3D концепт-арт и продакшн пайплайны.
В 2005 закончил Ринглингский колледж искусств и дизайна, получив степень бакалавра изящных искусств в компьютерной анимации. Начал свою карьеру в Electronic Arts в качестве художника по окружению, работал над такими проектами, как Madden NFL и NCAA Football, затем занимался анимацией персонажей комиксов DC Universe Online в составе Sony Online Entertainment.
Сейчас Майкл занимается созданием персонажей, оружия, транспортных средств, а также концепт-артом для таких топовых видеоигр, как Halo, Call of Duty и DOOM в качестве ведущего художника (Senior Artist) для Certain Affinity.
Примечание.
Учебный курс был записан с разрешением как минимум 1920x1080, однако по непонятным причинам автор сделал релиз в формате 1280x720.
Файлы изображений прилагаются к курсу.
Дополнительная информация на официальном сайте (ссылка 1, ссылка 2).
Как выбрать звуковую дорожку по умолчанию (ссылка).
Скриншоты:
       

Дополнительные скриншоты:

             

}{@R0N

Post 21-May-2019 21:22

[Quote]

Таня Иванова | Курс-практикум в Photoshop — «Сочные баннеры» - Автор (режиссер): Таня Иванова
Жанр: Обучение работе в Photoshop
Продолжительность: 06:12:34
Качество видео: PCRec
Видео: AVC/H.264, 1920x1080, ~347 kbps
Аудио: AAC, 2 ch, 128 kbps
Описание:
Этот курс отличается от привычных курсов по дизайну. Здесь не будет скучной теории, заумных слов и воды. Только практика создания эффектных баннеров по шагам.
Будем отрабатывать навыки вырезания объектов, совмещения разных картинок, создания сложных фонов, декоративных элементов. Вы освоите маску слоя, научитесь вырезать волосы, создавать кистями разные эффекты и многое другое.
Вам нужно только повторить, а потом придумать на основе этого свой вариант, который вы потом выложите в своё портфолио.

Описание далее

Практикум «Сочные баннеры» подойдет тем, кто знаком с базовым функционалом программы Фотошоп (понимает принцип работы со слоями, хорошо владеет инструментами текст, фигуры, умеет создавать баннеры на уровне «готовая картинка +текст+подложка»), но не хватает навыков применения более сложных инструментов и создания более сложных эффектов.
Как будет проходить обучение
◾ старт второго запуска курса — 25 февраля, продолжительность 5 недель;
◾ курс состоит из 10 практических видео-уроков, в конце курса в вашем арсенале будет 10 новых баннеров;
◾ к каждому уроку будет домашнее задание, состоящее из двух частей: создать копию моего баннера, повторяя за мной по шагам, а затем, используя эту идею, создать свой баннер на свою тему;
◾ к каждому уроку подготовлен набор дополнительных материалов, которые я использовала при создании каждого из баннеров (изображения, шрифты, кисти), и которые вы можете использовать для создания своих вариантов;
◾ обратная связь будет в виде ответов на любые вопросы, видео-разбор предусмотрен в двух вариантах участия.
◾ уроки будут выходить 2 раза в неделю: понедельник и четверг, чтобы у вас было время посмотреть урок и выполнить домашнее задание;
◾ сделанные баннеры можно будет выложить в портфолио (не копии, а придуманные вами варианты).
1. Начинающие дизайнеры соцсетей
Если у вас не хватает фантазии и идей, надоело использовать однообразные приемы, работы получаются скучными, пустыми, с ощущением, что чего-то не хватает — курс вам в этом поможет.
Просмотрев базовый урок, вам необходимо с помощью полученных приемов создать свой вариант, и так по 10 урокам. Это пробуждает фантазию и тренирует мозг. А еще можно подсмотреть идеи у других участников. Т.е после курса вы будете заряжены новыми идеями, приемами и эффектами, которые сможете использовать в дальнейшей своей работе.
2. Администраторы соцсетей
По долгу службы вам приходится заниматься оформлением картинок для постов. Если вы стесняетесь просить дополнительную оплату за это, т.к. считаете свои работы сырыми, то курс поможет вам повысить уровень работ и получить бОльшую уверенность в своих силах. Вы сможете уверенно брать дополнительную оплату за создание различных баннеров, объявлений и других мелочей, связанных с ведением сообщества.
3. Таргетологи, SMM-щики
У таргетологов проблема в том, что идеи прут, а чтобы их воплотить не хватает навыков работы, не получается на практике создать картинку, засевшую в голове.
Добросовестно повторив за мной все 10 уроков, вы будете более уверенно и быстро оперировать инструментами, отточите навыки работы, сможете вырезать разные объекты, совмещать их, комбинировать и воплощать свои идеи и задумки.

Mediainfo:

General
Unique ID : 248329786067947552237686470849486218007 (0xBAD293BD4B5F2C8D83C2E02187DD6317)
Complete name : C:\Users\admin\Desktop\Сочные баннеры — Курс практикум в Photoshop\Сочные баннеры\1\Урок № 1. Создание Баннера «сочные Скидки».mkv
Format : Matroska
Format version : Version 2
File size : 92.8 MiB
Duration : 37 min 24 s
Overall bit rate : 347 kb/s
Encoded date : UTC 2019-04-19T10:18:09Z
Writing application : HandBrake 0.10.5 2016021100
Writing library : Lavf55.12.0
Video
ID : 1
Format : AVC
Format/Info : Advanced Video Codec
Format profile : [email protected]
Format settings, CABAC : Yes
Format settings, ReFrames : 4 frames
Codec ID : V_MPEG4/ISO/AVC
Duration : 37 min 24 s
Width : 1 920 pixels
Height : 1 080 pixels
Display aspect ratio : 16:9
Frame rate mode : Constant
Frame rate : 30.000 FPS
Color space : YUV
Chroma subsampling : 4:2:0
Bit depth : 8 bits
Scan type : Progressive
Writing library : x264 core 142 r2479 dd79a61
Encoding settings : cabac=1 / ref=1 / deblock=1:0:0 / analyse=0x1:0x111 / me=hex / subme=2 / psy=1 / psy_rd=1.00:0.00 / mixed_ref=0 / me_range=16 / chroma_me=1 / trellis=0 / 8x8dct=0 / cqm=0 / deadzone=21,11 / fast_pskip=1 / chroma_qp_offset=0 / threads=3 / lookahead_threads=1 / sliced_threads=0 / nr=0 / decimate=1 / interlaced=0 / bluray_compat=0 / constrained_intra=0 / bframes=3 / b_pyramid=2 / b_adapt=1 / b_bias=0 / direct=1 / weightb=1 / open_gop=0 / weightp=1 / keyint=300 / keyint_min=30 / scenecut=40 / intra_refresh=0 / rc_lookahead=10 / rc=crf / mbtree=1 / crf=25.0 / qcomp=0.60 / qpmin=0 / qpmax=69 / qpstep=4 / vbv_maxrate=20000 / vbv_bufsize=25000 / crf_max=0.0 / nal_hrd=none / filler=0 / ip_ratio=1.40 / aq=1:1.00
Default : Yes
Forced : No
Color range : Limited
Color primaries : BT.709
Transfer characteristics : BT.709
Matrix coefficients : BT.709
Audio
ID : 2
Format : AAC
Format/Info : Advanced Audio Codec
Format profile : LC
Codec ID : A_AAC
Duration : 37 min 24 s
Channel(s) : 2 channels
Channel positions : Front: L R
Sampling rate : 44.1 kHz
Frame rate : 43.066 FPS (1024 spf)
Compression mode : Lossy
Delay relative to video : -23 ms
Title : Stereo
Default : Yes
Forced : No
Скриншоты:
       

Boriss

Post 07-May-2019 19:14

[Quote]

СПАСИБО ТЕБЕ

}{@R0N

Post 19-Apr-2019 22:01

[Quote]

Udemy | Шахматы на JavaScript - Автор (режиссер): Евгений Волосатов
Производство: Udemy
Жанр: Программирование, JavaScript
Описание:
На этом курсе мы создадим на JavaScript алгоритмы для игры в Шахматы. Мы напишем алгоритмы генерации и проверки ходов по всем шахматным правилам. Все занятия практические - повторяй и получай, всё подробно и поэтапно.
Продолжительность: 07:14:34
Качество видео: PCRec
Видео: AVC/H.264, 1280x720, ~974-1818 Kbps
Аудио: AAC, 2 ch, 127-128 Kbps

Mediainfo:

Общее
Полное имя : .\1. Вступление\7. Шахматные выборы.mp4
Формат : MPEG-4
Профиль формата : Base Media
Идентификатор кодека : isom (isom/iso2/avc1/mp41)
Размер файла : 139 Мбайт
Продолжительность : 11 м. 57 с.
Общий поток : 1626 Кбит/сек
Программа кодирования : Lavf58.12.100
Видео
Идентификатор : 1
Формат : AVC
Формат/Информация : Advanced Video Codec
Профиль формата : [url=mailto:[email protected]][email protected][/url]
Настройки формата : CABAC / 4 Ref Frames
Параметр CABAC формата : Да
Параметр RefFrames формата : 4 кадра
Идентификатор кодека : avc1
Идентификатор кодека/Информация : Advanced Video Coding
Продолжительность : 11 м. 57 с.
Битрейт : 1489 Кбит/сек
Номинальный битрейт : 3000 Кбит/сек
Ширина : 1280 пикселей
Высота : 720 пикселей
Соотношение сторон : 16:9
Режим частоты кадров : Постоянный
Частота кадров : 30,000 кадров/сек
Цветовое пространство : YUV
Субдискретизация насыщенности : 4:2:0
Битовая глубина : 8 бит
Тип развёртки : Прогрессивная
Бит/(Пиксели*Кадры) : 0.054
Размер потока : 127 Мбайт (92%)
Библиотека кодирования : x264 core 148
Настройки программы : cabac=1 / ref=3 / deblock=1:-1:-1 / analyse=0x1:0x111 / me=umh / subme=6 / psy=1 / psy_rd=1.00:0.15 / mixed_ref=1 / me_range=16 / chroma_me=1 / trellis=1 / 8x8dct=0 / cqm=0 / deadzone=21,11 / fast_pskip=1 / chroma_qp_offset=-3 / threads=22 / lookahead_threads=3 / sliced_threads=0 / nr=0 / decimate=1 / interlaced=0 / bluray_compat=0 / constrained_intra=0 / bframes=3 / b_pyramid=2 / b_adapt=1 / b_bias=0 / direct=1 / weightb=1 / open_gop=0 / weightp=2 / keyint=60 / keyint_min=6 / scenecut=0 / intra_refresh=0 / rc_lookahead=60 / rc=cbr / mbtree=1 / bitrate=3000 / ratetol=1.0 / qcomp=0.60 / qpmin=0 / qpmax=69 / qpstep=4 / vbv_maxrate=3000 / vbv_bufsize=6000 / nal_hrd=none / filler=0 / ip_ratio=1.40 / aq=1:1.00
Codec configuration box : avcC
Аудио
Идентификатор : 2
Формат : AAC LC
Формат/Информация : Advanced Audio Codec Low Complexity
Идентификатор кодека : mp4a-40-2
Продолжительность : 11 м. 57 с.
Вид битрейта : Постоянный
Битрейт : 128 Кбит/сек
Каналы : 2 канала
Channel layout : L R
Частота : 44,1 КГц
Частота кадров : 43,066 кадра/сек (1024 SPF)
Метод сжатия : С потерями
Размер потока : 10,9 Мбайт (8%)
Default : Да
AlternateGroup/String : 1
Скриншоты:
       

}{@R0N

Post 19-Apr-2019 22:01

[Quote]

Udemy | Игры со спрайтами на C# - Автор (режиссер): Евгений Волосатов
Производство: Udemy
Жанр: Программирование, C#
Описание:
На этом курсе мы сначала создаём редактор спрайтов, в котором можно создавать простые графические картинки из линий, а затем сериализовать их в отдельный файл для последующего использования в игровых программах. Далее мы создаём анимационную игру "Прилунение Аполлона" и оформляем её созданными спрайтами. Затем мы пишем логику игры Домино-пасьянса, реализуем движение плашек во время игры, а потом добавляем рисованные спрайты для каждой плашки домино и делаем анимацию через ООП.
Продолжительность: 10:51:33
Качество видео: PCRec
Видео: AVC/H.264, 1280x720, ~1047-1588 Kbps
Аудио: AAC, 2 ch, 127-128 Kbps

Mediainfo:

Общее
Полное имя : .\2. Прилунение Аполлона\3. Плавное прилунение.mp4
Формат : MPEG-4
Профиль формата : Base Media
Идентификатор кодека : isom (isom/iso2/avc1/mp41)
Размер файла : 468 Мбайт
Продолжительность : 55 м. 15 с.
Общий поток : 1185 Кбит/сек
Программа кодирования : Lavf58.12.100
Видео
Идентификатор : 1
Формат : AVC
Формат/Информация : Advanced Video Codec
Профиль формата : [url=mailto:[email protected]][email protected][/url]
Настройки формата : CABAC / 4 Ref Frames
Параметр CABAC формата : Да
Параметр RefFrames формата : 4 кадра
Идентификатор кодека : avc1
Идентификатор кодека/Информация : Advanced Video Coding
Продолжительность : 55 м. 15 с.
Битрейт : 1048 Кбит/сек
Номинальный битрейт : 3000 Кбит/сек
Ширина : 1280 пикселей
Высота : 720 пикселей
Соотношение сторон : 16:9
Режим частоты кадров : Постоянный
Частота кадров : 30,000 кадров/сек
Цветовое пространство : YUV
Субдискретизация насыщенности : 4:2:0
Битовая глубина : 8 бит
Тип развёртки : Прогрессивная
Бит/(Пиксели*Кадры) : 0.038
Размер потока : 414 Мбайт (88%)
Библиотека кодирования : x264 core 148
Настройки программы : cabac=1 / ref=3 / deblock=1:-1:-1 / analyse=0x1:0x111 / me=umh / subme=6 / psy=1 / psy_rd=1.00:0.15 / mixed_ref=1 / me_range=16 / chroma_me=1 / trellis=1 / 8x8dct=0 / cqm=0 / deadzone=21,11 / fast_pskip=1 / chroma_qp_offset=-3 / threads=22 / lookahead_threads=3 / sliced_threads=0 / nr=0 / decimate=1 / interlaced=0 / bluray_compat=0 / constrained_intra=0 / bframes=3 / b_pyramid=2 / b_adapt=1 / b_bias=0 / direct=1 / weightb=1 / open_gop=0 / weightp=2 / keyint=60 / keyint_min=6 / scenecut=0 / intra_refresh=0 / rc_lookahead=60 / rc=cbr / mbtree=1 / bitrate=3000 / ratetol=1.0 / qcomp=0.60 / qpmin=0 / qpmax=69 / qpstep=4 / vbv_maxrate=3000 / vbv_bufsize=6000 / nal_hrd=none / filler=0 / ip_ratio=1.40 / aq=1:1.00
Codec configuration box : avcC
Аудио
Идентификатор : 2
Формат : AAC LC
Формат/Информация : Advanced Audio Codec Low Complexity
Идентификатор кодека : mp4a-40-2
Продолжительность : 55 м. 15 с.
Вид битрейта : Постоянный
Битрейт : 128 Кбит/сек
Каналы : 2 канала
Channel layout : L R
Частота : 44,1 КГц
Частота кадров : 43,066 кадра/сек (1024 SPF)
Метод сжатия : С потерями
Размер потока : 50,6 Мбайт (11%)
Default : Да
AlternateGroup/String : 1
Скриншоты:
       

}{@R0N

Post 19-Apr-2019 22:01

[Quote]

Udemy | Игры со словами на C#- Автор (режиссер): Евгений Волосатов
Производство: Udemy
Жанр: Программирование, C#
Описание:
Мы напишем игру "Виселка" - отгадывание слова по буквам. Потом напишем помощника для игры. Затем попрактикуемся в поиске интересные слов по разным правилам: детские слова, палиндромы, самые длинные/короткие из указанных букв, подбор слов для игры в эрудит и так далее. В конце курса мы создадим бота для игры "Балда".
Продолжительность: 05:36:03
Качество видео: PCRec
Видео: AVC/H.264, 1280x720, ~703-1670 Kbps
Аудио: AAC, 2 ch, 191-128 Kbps

Mediainfo:

Общее
Полное имя : .\1.Виселка\2.Блок-схема помощника.mp4
Формат : MPEG-4
Профиль формата : Base Media
Идентификатор кодека : isom (isom/iso2/avc1/mp41)
Размер файла : 210 Мбайт
Продолжительность : 28 м. 57 с.
Общий поток : 1016 Кбит/сек
Программа кодирования : Lavf58.12.100
Видео
Идентификатор : 1
Формат : AVC
Формат/Информация : Advanced Video Codec
Профиль формата : [url=mailto:[email protected]][email protected][/url]
Настройки формата : CABAC / 4 Ref Frames
Параметр CABAC формата : Да
Параметр RefFrames формата : 4 кадра
Параметр GOP формата : M=4, N=60
Идентификатор кодека : avc1
Идентификатор кодека/Информация : Advanced Video Coding
Продолжительность : 28 м. 57 с.
Битрейт : 879 Кбит/сек
Номинальный битрейт : 3000 Кбит/сек
Ширина : 1280 пикселей
Высота : 720 пикселей
Соотношение сторон : 16:9
Режим частоты кадров : Постоянный
Частота кадров : 30,000 кадров/сек
Цветовое пространство : YUV
Субдискретизация насыщенности : 4:2:0
Битовая глубина : 8 бит
Тип развёртки : Прогрессивная
Бит/(Пиксели*Кадры) : 0.032
Размер потока : 182 Мбайт (87%)
Библиотека кодирования : x264 core 148
Настройки программы : cabac=1 / ref=3 / deblock=1:-1:-1 / analyse=0x1:0x111 / me=umh / subme=6 / psy=1 / psy_rd=1.00:0.15 / mixed_ref=1 / me_range=16 / chroma_me=1 / trellis=1 / 8x8dct=0 / cqm=0 / deadzone=21,11 / fast_pskip=1 / chroma_qp_offset=-3 / threads=22 / lookahead_threads=3 / sliced_threads=0 / nr=0 / decimate=1 / interlaced=0 / bluray_compat=0 / constrained_intra=0 / bframes=3 / b_pyramid=2 / b_adapt=1 / b_bias=0 / direct=1 / weightb=1 / open_gop=0 / weightp=2 / keyint=60 / keyint_min=6 / scenecut=0 / intra_refresh=0 / rc_lookahead=60 / rc=cbr / mbtree=1 / bitrate=3000 / ratetol=1.0 / qcomp=0.60 / qpmin=0 / qpmax=69 / qpstep=4 / vbv_maxrate=3000 / vbv_bufsize=6000 / nal_hrd=none / filler=0 / ip_ratio=1.40 / aq=1:1.00
Codec configuration box : avcC
Аудио
Идентификатор : 2
Формат : AAC LC
Формат/Информация : Advanced Audio Codec Low Complexity
Идентификатор кодека : mp4a-40-2
Продолжительность : 28 м. 57 с.
Вид битрейта : Постоянный
Битрейт : 128 Кбит/сек
Каналы : 2 канала
Channel layout : L R
Частота : 44,1 КГц
Частота кадров : 43,066 кадра/сек (1024 SPF)
Метод сжатия : С потерями
Размер потока : 26,5 Мбайт (13%)
Default : Да
AlternateGroup/String : 1
Скриншоты:
       

}{@R0N

Post 19-Apr-2019 22:01

[Quote]

Udemy | Java. Клиент-серверное приложение. Многопоточное - Автор (режиссер): Евгений Волосатов
Производство: Udemy
Жанр: Программирование, Java
Описание:
Вы узнаете, как можно установить полноценный диалог между двумя программами, которые могут быть размещены и запущены на разных, даже весьма удалённых, компьютерах. Разработка программы ведётся в среде Intellij Idea, с помощью которой будут показаны некоторые эффективные приемы кодогенерации. Во второй части курса мы поговорим о многопоточности, когда она нужна, а когда от неё нет пользы. А в конце курса рассмотрено два способа создания многопоточного сервера.
Продолжительность: 03:22:56
Качество видео: PCRec
Видео: AVC/H.264, 1280x720, ~1059-2283 Kbps
Аудио: AAC, 2 ch, 127-128 Kbps

Mediainfo:

Общее
Полное имя : .\1. Взаимодействие двух программ\1. Немного теории.mp4
Формат : MPEG-4
Профиль формата : Base Media
Идентификатор кодека : isom (isom/iso2/avc1/mp41)
Размер файла : 78,4 Мбайт
Продолжительность : 9 м. 9 с.
Общий поток : 1197 Кбит/сек
Программа кодирования : Lavf58.12.100
Видео
Идентификатор : 1
Формат : AVC
Формат/Информация : Advanced Video Codec
Профиль формата : [url=mailto:[email protected]][email protected][/url]
Настройки формата : CABAC / 4 Ref Frames
Параметр CABAC формата : Да
Параметр RefFrames формата : 4 кадра
Идентификатор кодека : avc1
Идентификатор кодека/Информация : Advanced Video Coding
Продолжительность : 9 м. 9 с.
Битрейт : 1060 Кбит/сек
Номинальный битрейт : 3000 Кбит/сек
Ширина : 1280 пикселей
Высота : 720 пикселей
Соотношение сторон : 16:9
Режим частоты кадров : Постоянный
Частота кадров : 30,000 кадров/сек
Цветовое пространство : YUV
Субдискретизация насыщенности : 4:2:0
Битовая глубина : 8 бит
Тип развёртки : Прогрессивная
Бит/(Пиксели*Кадры) : 0.038
Размер потока : 69,5 Мбайт (89%)
Библиотека кодирования : x264 core 148
Настройки программы : cabac=1 / ref=3 / deblock=1:-1:-1 / analyse=0x1:0x111 / me=umh / subme=6 / psy=1 / psy_rd=1.00:0.15 / mixed_ref=1 / me_range=16 / chroma_me=1 / trellis=1 / 8x8dct=0 / cqm=0 / deadzone=21,11 / fast_pskip=1 / chroma_qp_offset=-3 / threads=22 / lookahead_threads=3 / sliced_threads=0 / nr=0 / decimate=1 / interlaced=0 / bluray_compat=0 / constrained_intra=0 / bframes=3 / b_pyramid=2 / b_adapt=1 / b_bias=0 / direct=1 / weightb=1 / open_gop=0 / weightp=2 / keyint=60 / keyint_min=6 / scenecut=0 / intra_refresh=0 / rc_lookahead=60 / rc=cbr / mbtree=1 / bitrate=3000 / ratetol=1.0 / qcomp=0.60 / qpmin=0 / qpmax=69 / qpstep=4 / vbv_maxrate=3000 / vbv_bufsize=6000 / nal_hrd=none / filler=0 / ip_ratio=1.40 / aq=1:1.00
Codec configuration box : avcC
Аудио
Идентификатор : 2
Формат : AAC LC
Формат/Информация : Advanced Audio Codec Low Complexity
Идентификатор кодека : mp4a-40-2
Продолжительность : 9 м. 9 с.
Вид битрейта : Постоянный
Битрейт : 128 Кбит/сек
Каналы : 2 канала
Channel layout : L R
Частота : 44,1 КГц
Частота кадров : 43,066 кадра/сек (1024 SPF)
Метод сжатия : С потерями
Размер потока : 8,39 Мбайт (11%)
Default : Да
AlternateGroup/String : 1
Скриншоты:
       

}{@R0N

Post 18-Apr-2019 23:04

[Quote]

creativetuts.ru | Полноценный курс по Photoshop - Автор (режиссер): Айдар Абилдин (creativetuts.ru)
Жанр: Photoshop
Продажник: ПОЛНОЦЕННЫЙ ВИДЕОКУРС ПО PHOTOSHOP
Описание:
Полноценный курс по Фотошопу, каждый модуль подкреплен практикой. Мы не просто пройдемся по интерфейсу, панелям и инструментам, мы изучим их на ПРАКТИЧЕСКИХ примерах, что даст Вам возможность закрепить каждую часть фотошопа на практике, и превратить просто знания в практические навыки, после чего Вы уже сможете создавать проекты и композиции.
Продолжительность: 20:17:47
Качество видео: PCRec
Видео: AVC/H.264, 1280x720, ~117 kbps
Аудио: AAC, 2 ch, 125 kbps

Mediainfo:

General
Complete name : C:\Users\admin\Desktop\Полноценный курс по Photoshop [creativetuts.ru] [Айдар Абилдин] (2019)\PS-1\01. Основы и Интерфейс\01. Интерфейс.mp4
Format : MPEG-4
Format profile : Base Media / Version 2
Codec ID : mp42 (isom/mp42)
File size : 42.6 MiB
Duration : 24 min 14 s
Overall bit rate mode : Variable
Overall bit rate : 246 kb/s
Encoded date : UTC 2017-12-15 06:58:09
Tagged date : UTC 2017-12-15 06:58:09
Video
ID : 1
Format : AVC
Format/Info : Advanced Video Codec
Format profile : [url=mailto:[email protected]][email protected][/url]
Format settings, CABAC : Yes
Format settings, ReFrames : 4 frames
Codec ID : avc1
Codec ID/Info : Advanced Video Coding
Duration : 24 min 14 s
Bit rate : 117 kb/s
Width : 1 280 pixels
Height : 720 pixels
Display aspect ratio : 16:9
Frame rate mode : Constant
Frame rate : 30.000 FPS
Standard : NTSC
Color space : YUV
Chroma subsampling : 4:2:0
Bit depth : 8 bits
Scan type : Progressive
Bits/(Pixel*Frame) : 0.004
Stream size : 20.3 MiB (48%)
Language : English
Encoded date : UTC 2017-12-15 06:58:09
Tagged date : UTC 2017-12-15 06:58:09
Color range : Limited
Audio
ID : 2
Format : AAC
Format/Info : Advanced Audio Codec
Format profile : LC
Codec ID : 40
Duration : 24 min 14 s
Bit rate mode : Variable
Bit rate : 126 kb/s
Maximum bit rate : 207 kb/s
Channel(s) : 2 channels
Channel positions : Front: L R
Sampling rate : 44.1 kHz
Frame rate : 43.066 FPS (1024 spf)
Compression mode : Lossy
Stream size : 21.8 MiB (51%)
Language : English
Encoded date : UTC 2017-12-15 06:58:09
Tagged date : UTC 2017-12-15 06:58:09

Описание далее...

Помимо практики, данный курс включает обширные теоритические знания, которые позволят Вам понять принципы работы с графикой и изображениями, цветом и коррекцией, Вы не просто будете повторять мои действия, Вы будете понимать почему мы делаем именно так а не по другому. Курс полностью структурирован и поэтому даже если Вы абсолютный новичок, вам не составит труда понять и изучить программу.
Все уроки преподносятся пошагово и в логическом порядке, чтобы каждая часть знания была понятна.

Содержание:

МОДУЛЬ 1 - ОСНОВЫ И ИНТЕРФЕЙС В PHOTOSHOP
Полностью изучим интерфейс фотошопа так, что у вас в голове будет четкая и понятная картина что и где находится и для чего это нужно. Интерфейс перестанет казаться чем-то непонятным и запутанным. Также мы изучим теоритические аспекты, поймете что такое векторная графика и что такое растровая графика, чем они отличаются.
01. Интерфейс
02. Работа с документами
03. Значения
04. Векторные изображения и растровые изображения
МОДУЛЬ 2 - СЛОИ В PHOTOSHOP
Слои - одна из важнейших частей фотошопа. В этом модуле мы изучим все о слоях, как с ними работать, их структуру и иерархию. Все будет наглядно и понятно. Рассмотрим множество ситуаций работы со слоями, что даст вам большее понимание. Изучим правильные методы структуры слоев.
01. Иерархия слоев
02. Правило элементов слоя
03. Структура слоев
04. Непрозрачность и Альфа канал
05. Типы слоев
06. Работа со слоями
07. Работа с группами
08. Непрозрачность
09. Блокировка слоев
10. Связка слоев
11. Объединение слоев
12. Растрирование векторного слоя
13. Панель History (История)
МОДУЛЬ 3 - РЕДАКТИРОВАНИЕ И ТРАНСФОРМАЦИЯ В PHOTOSHOP
В этом модуле мы изучим все способы редактирования и трансформаций слоев и изображений, рассмотрим горячие клавиши, чтобы ускорить вашу работу и сделать ее максимально продуктивной.
01. Инструменты
02. Горячие клавиши
03. Дублирование слоев
04. Копирование, вырезание, вставка
05. Трансформация документа и слоев
06. Кадрирование
МОДУЛЬ 4 - ВЫРАВНИВАНИЕ В PHOTOSHOP
В этом модуле мы изучим вспомогательные инструменты, а также выравнивание. Эти инструменты позволят вам быстрее управлятся со слоями, быстро и эффективно их выравнивать.
01. Линейка (Rulers)
02. Линии (Guides)
03. Привязка
04. Smart Guides
05. Выравнивание
06. Вспомогательные инструменты
МОДУЛЬ 5 - ВЫДЕЛЕНИЕ В PHOTOSHOP
Выделение позволят вам выделять а также вырезать объекты с любых изображений и слоев.
01. Стандартные инструменты выделения и опции выделения
02. Работа с выделенной областью
03. Инструменты выделения (Часть 1)
04. Инструменты выделения (Часть 2)
05. Focus Area и Select and Mask
06. Меню Select
МОДУЛЬ 6 - МАСКИ В PHOTOSHOP
Маски - эффективный инструмент который позволит вам решить множество проблем, делать сложные вещи проще и эффективнее.
01. Слой маска
02. Clipping Mask
03. Быстрая маска
МОДУЛЬ 7 - ОФОРМЛЕНИЕ И ЦВЕТ В PHOTOSHOP
В этом модуле мы изучим все касаемо цвета и оформления. Вас ждут не только практические, но и теоретические знания. Мы изучим всю теорию цвета, цветовые модели. Мы изучим все об оформлении в фотошопе (цвет, градиенты, узоры, паттерны, стили слоя и так далее)
01. Цвет и Цветовые модели
02. Color Picker
03. Панели и образцы цветов
04. Заливка слоев
05. Градиенты
06. Preset Manager
07. Patterns (Узоры)
08. Работа со стилями слоя
09. Стили слоя (Часть 1)
10. Стили слоя (Часть 2)
11. Комбинирование стилей слоя
МОДУЛЬ 8 - РИСОВАНИЕ В PHOTOSHOP
Photoshop служит не только для создания дизайна. Большинство художников используют Photoshop для рисования, в нем создаются и концепт-арты и композиции и иллюстрации... В этом модуле мы изучим все инструменты для рисования в фотошопе, подробно изучим кисть и многое другое.
01. Работа с кистью
02. Работа с ластиком и пипеткой
03. Пресеты кистей
04. Пользовательские кисти
05. Микс кисть
06. Замена цвета
07. Настройка кисти в панели Brushes
08. Использование пресетов
МОДУЛЬ 9 - РЕТУШЬ В PHOTOSHOP
Photoshop это мощный инструмент для обрабокти фото и дргуих изображений. Вы можете профессионально обрабатывать кожу человека на фото, удалять объекты с изображения, вставлять объекты в изображение, делать обработку фотографий.
01. Удаляем и клонируем объекты на изображении с Clone Stamp Tool
02. Узорный штамп
03. Healing Brush - Восстанавливающая кисть (Часть 1)
04. Healing Brush - Восстанавливающая кисть (Часть 2)
05. Клонирование и удаление объектов с Patch Tool
06. Перемещение объектов на изображении
07. Объем и контраст фото с Dodge, Burn, Sponge Tool
08. Гладкость, размытие и резкость фото с Blur, Sharpen, Smudge Tool
МОДУЛЬ 10 - ВЕКТОРНАЯ ГРАФИКА В PHOTOSHOP
Photoshop имеет довольно мощные инструменты по работе с векторной графикой. Вы можете создавать и иконки, иллюстрации, флет графику и любую другую векторную графику.
01. Стандартные шейпы (фигуры)
02. Заливка, Обводка, Режимы Combine, Выравнивание фигур
03. Панель Properties
04. Редактирование контура и пути векторного объекта
05. Панель Path
06. Создание флетовой иконки и графики
07. Кастомные шейпы (Произвольные фигуры)
08. Работа с инструментом Pen Tool
09. Выделение и вырезание объектов с Pen Tool
МОДУЛЬ 11 - ТЕКСТ И ТИПОГРАФИКА В PHOTOSHOP
Фотошоп позволит вам достаточно широко работать с текстом. Вы сможете создавать различные текстовые эффекты, типографику, верстку и так далее. Для этого фотошоп имеет все необходимые инструменты
01. Создание и редактирование текста (Часть 1)
02. Создание и редактирование текста (Часть 2)
03. Панели Character и Paragraph
04. Создание типографики
МОДУЛЬ 12 - ФИЛЬТРЫ И РЕЖИМЫ НАЛОЖЕНИЯ В PHOTOSHOP
Фильтры и режимы наложения позволят вам обрабатывать фото, создавать крутые эффекты и стилизации
01. Работа с режимами наложения
02. Использование режимов наложения
03. Применение фильтров
04. Галерея фильтров (Часть 1)
05. Галерея фильтров (Часть 2)
06. Фильтр Liquify
07. Обработка лица
08. Фильтры размытия (Blur)
09. Фильтры искажения (Distort)
10. Фильтры шума (Noise)
11. Фильтры Pixelate
12. Фильтры Render
13. Фильтры резкости
14. Фильтры стилизации
15. Смарт объекты
МОДУЛЬ 13 - ЦВЕТОКОРРЕКЦИЯ В PHOTOSHOP
В этом модуле мы изучим теорию цвета, цветовые гармонии и сочетание цветов, а также изучим все о цветокоррекции в Photoshop (методы, приемы, инструменты, эффекты, корректирующие слои и так далее)
01. Цветовые гармонии
02. Применение цветокоррекции
03. Solid Color, Gradient, Pattern
04. Brightness and Contrast, Exposure, Vibrance
05. Hue and Saturation
06. Кривые (Часть 1)
07. Кривые (Часть 2)
08. Уровни
09. Color Balance
10. Channel Mixer
11. Gradient Map
12. Остальные корректирующие слои
13. Меню Image
14. Camera RAW
МОДУЛЬ 14 - ЭКШЕНЫ (ОПЕРАЦИИ) В PHOTOSHOP
Экшены (Операции) в фотошопе позволяют автоматизировать и выполнять рутинные действия быстрее без ручной работы, на автомате.
01. Основы
02. Создание экшена
03. Сохранение и загрузка экшенов
Скриншоты:
       

}{@R0N

Post 18-Apr-2019 21:08

[Quote]

Udemy | Android разработка с нуля до профессионала - Автор (режиссер): Юрий Аллахвердов
Производство: Udemy
Жанр: Программирование, Java, Kotlin
Описание:
Полный курс Android и основы Java. Создай 16 приложений, включая real-time chat app - клон Viber, WhatsApp, Telegram
Продолжительность: 24:44:04
Качество видео: PCRec
Видео: AVC/H.264, 1280x720, ~254-2462 Kbps
Аудио: AAC, 2 ch, 127-128 Kbps

Mediainfo:

Общее
Полное имя : .\11. Сохранение данных\1. Введение.mp4
Формат : MPEG-4
Профиль формата : Base Media
Идентификатор кодека : isom (isom/iso2/avc1/mp41)
Размер файла : 22,8 Мбайт
Продолжительность : 4 м. 17 с.
Общий поток : 744 Кбит/сек
Программа кодирования : Lavf58.12.100
IsTruncated : Yes
Видео
Идентификатор : 1
Формат : AVC
Формат/Информация : Advanced Video Codec
Профиль формата : [url=mailto:[email protected]][email protected][/url]
Настройки формата : CABAC / 4 Ref Frames
Параметр CABAC формата : Да
Параметр RefFrames формата : 4 кадра
Идентификатор кодека : avc1
Идентификатор кодека/Информация : Advanced Video Coding
Продолжительность : 4 м. 17 с.
Битрейт : 607 Кбит/сек
Номинальный битрейт : 3000 Кбит/сек
Ширина : 1280 пикселей
Высота : 720 пикселей
Соотношение сторон : 16:9
Режим частоты кадров : Постоянный
Частота кадров : 30,000 кадров/сек
Цветовое пространство : YUV
Субдискретизация насыщенности : 4:2:0
Битовая глубина : 8 бит
Тип развёртки : Прогрессивная
Бит/(Пиксели*Кадры) : 0.022
Размер потока : 18,6 Мбайт (82%)
Библиотека кодирования : x264 core 148
Настройки программы : cabac=1 / ref=3 / deblock=1:-1:-1 / analyse=0x1:0x111 / me=umh / subme=6 / psy=1 / psy_rd=1.00:0.15 / mixed_ref=1 / me_range=16 / chroma_me=1 / trellis=1 / 8x8dct=0 / cqm=0 / deadzone=21,11 / fast_pskip=1 / chroma_qp_offset=-3 / threads=22 / lookahead_threads=3 / sliced_threads=0 / nr=0 / decimate=1 / interlaced=0 / bluray_compat=0 / constrained_intra=0 / bframes=3 / b_pyramid=2 / b_adapt=1 / b_bias=0 / direct=1 / weightb=1 / open_gop=0 / weightp=2 / keyint=60 / keyint_min=6 / scenecut=0 / intra_refresh=0 / rc_lookahead=60 / rc=cbr / mbtree=1 / bitrate=3000 / ratetol=1.0 / qcomp=0.60 / qpmin=0 / qpmax=69 / qpstep=4 / vbv_maxrate=3000 / vbv_bufsize=6000 / nal_hrd=none / filler=0 / ip_ratio=1.40 / aq=1:1.00
Codec configuration box : avcC
Аудио
Идентификатор : 2
Формат : AAC LC
Формат/Информация : Advanced Audio Codec Low Complexity
Идентификатор кодека : mp4a-40-2
Продолжительность : 4 м. 17 с.
Вид битрейта : Постоянный
Битрейт : 128 Кбит/сек
Каналы : 2 канала
Channel layout : L R
Частота : 48,0 КГц
Частота кадров : 46,875 кадров/сек (1024 SPF)
Метод сжатия : С потерями
Размер потока : 3,93 Мбайт (17%)
Default : Да
AlternateGroup/String : 1

Дополнительная информация:

В раздаче имеются архивы! В них содержится дополнительные материалы.
Скриншоты:
       

}{@R0N

Post 18-Apr-2019 21:08

[Quote]

Udemy | Фундаментальный курс по основам C# .NET - Автор (режиссер): Юрий Золотарев
Производство: Udemy
Жанр: Программирование, C#
Описание:
Боевой курс по С# для тех кто хочет быстрее начать работать. Все что нужно знать для практического применения.
Продолжительность: 05:08:06
Качество видео: PCRec
Видео: AVC/H.264, 1280x720, ~507-2369 Kbps
Аудио: AAC, 2 ch, 127-128 Kbps

Mediainfo:

Общее
Полное имя : .\8. Наследование\1. Основы наследования.mp4
Формат : MPEG-4
Профиль формата : Base Media
Идентификатор кодека : isom (isom/iso2/avc1/mp41)
Размер файла : 69,5 Мбайт
Продолжительность : 9 м. 0 с.
Общий поток : 1078 Кбит/сек
Программа кодирования : Lavf58.12.100
Видео
Идентификатор : 1
Формат : AVC
Формат/Информация : Advanced Video Codec
Профиль формата : [url=mailto:[email protected]][email protected][/url]
Настройки формата : CABAC / 4 Ref Frames
Параметр CABAC формата : Да
Параметр RefFrames формата : 4 кадра
Идентификатор кодека : avc1
Идентификатор кодека/Информация : Advanced Video Coding
Продолжительность : 9 м. 0 с.
Битрейт : 940 Кбит/сек
Номинальный битрейт : 3000 Кбит/сек
Ширина : 1280 пикселей
Высота : 720 пикселей
Соотношение сторон : 16:9
Режим частоты кадров : Постоянный
Частота кадров : 30,000 кадров/сек
Цветовое пространство : YUV
Субдискретизация насыщенности : 4:2:0
Битовая глубина : 8 бит
Тип развёртки : Прогрессивная
Бит/(Пиксели*Кадры) : 0.034
Размер потока : 60,6 Мбайт (87%)
Библиотека кодирования : x264 core 148
Настройки программы : cabac=1 / ref=3 / deblock=1:-1:-1 / analyse=0x1:0x111 / me=umh / subme=6 / psy=1 / psy_rd=1.00:0.15 / mixed_ref=1 / me_range=16 / chroma_me=1 / trellis=1 / 8x8dct=0 / cqm=0 / deadzone=21,11 / fast_pskip=1 / chroma_qp_offset=-3 / threads=22 / lookahead_threads=3 / sliced_threads=0 / nr=0 / decimate=1 / interlaced=0 / bluray_compat=0 / constrained_intra=0 / bframes=3 / b_pyramid=2 / b_adapt=1 / b_bias=0 / direct=1 / weightb=1 / open_gop=0 / weightp=2 / keyint=60 / keyint_min=6 / scenecut=0 / intra_refresh=0 / rc_lookahead=60 / rc=cbr / mbtree=1 / bitrate=3000 / ratetol=1.0 / qcomp=0.60 / qpmin=0 / qpmax=69 / qpstep=4 / vbv_maxrate=3000 / vbv_bufsize=6000 / nal_hrd=none / filler=0 / ip_ratio=1.40 / aq=1:1.00
Codec configuration box : avcC
Аудио
Идентификатор : 2
Формат : AAC LC
Формат/Информация : Advanced Audio Codec Low Complexity
Идентификатор кодека : mp4a-40-2
Продолжительность : 9 м. 0 с.
Вид битрейта : Постоянный
Битрейт : 128 Кбит/сек
Каналы : 2 канала
Channel layout : L R
Частота : 44,1 КГц
Частота кадров : 43,066 кадра/сек (1024 SPF)
Метод сжатия : С потерями
Размер потока : 8,24 Мбайт (12%)
Default : Да
AlternateGroup/String : 1
Скриншоты:
       

}{@R0N

Post 06-Apr-2019 12:40

[Quote]

Никита Ивановский | Альпийское шале - Автор (режиссер): Никита Ивановский
Производство: HighVisualSchool
Жанр: Обучающее видео
Описание:
После курса Вы получите хорошие знания 3D Max, Vray, Mudbox, MarvelousDesigner, Photoshop, AfterEffects, FumeFX для самостоятельной реализации архитектурных проектов любой сложности с созданием собственных моделей, материалов, аниматиков!
Продолжительность: 22:12:46
Качество видео: PCRec
Видео: AVC/H.264, 1920х1080, ~467 Kbps
Аудио: AAC, 2 ch, ~ 53,3 Kbps

Mediainfo:

Общее
Полное имя : I:\альпийское шале\SHALE_1\VEBINAR 2\LESSON_2 - сплайны, основные настройки, AutoCAD, Lathe, Extrude, Sweep\LESSON_2 - сплайны, основные настройки, AutoCAD, Lathe, Extrude, Sweep.mp4
Формат : MPEG-4
Профиль формата : Base Media / Version 2
Идентификатор кодека : mp42 (M4V /mp42/isom)
Размер файла : 660 Мбайт
Продолжительность : 2 ч. 56 м.
Общий поток : 522 Кбит/сек
Дата кодирования : UTC 2014-02-18 18:30:22
Дата пометки : UTC 2014-02-18 18:30:22
Видео
Идентификатор : 1
Формат : AVC
Формат/Информация : Advanced Video Codec
Профиль формата : [email protected]
Настройки формата : CABAC / 4 Ref Frames
Параметр CABAC формата : Да
Параметр RefFrames формата : 4 кадра
Параметр GOP формата : M=1, N=75
Идентификатор кодека : avc1
Идентификатор кодека/Информация : Advanced Video Coding
Продолжительность : 2 ч. 56 м.
Продолжительность оригинала : 2 ч. 56 м.
Битрейт : 467 Кбит/сек
Ширина : 1920 пикселей
Высота : 1080 пикселей
Соотношение сторон : 16:9
Режим частоты кадров : Постоянный
Частота кадров : 15,000 кадров/сек
Цветовое пространство : YUV
Субдискретизация насыщенности : 4:2:0
Битовая глубина : 8 бит
Тип развёртки : Прогрессивная
Бит/(Пиксели*Кадры) : 0.015
Размер потока : 589 Мбайт (89%)
Размер потока оригинала : 589 Мбайт (89%)
Язык : English
Дата кодирования : UTC 2014-02-18 18:30:22
Дата пометки : UTC 2014-02-18 18:30:22
Цветовой диапазон : Limited
Основные цвета : BT.709
Характеристики трансфера : BT.709
Коэффициенты матрицы : BT.709
mdhd_Duration : 10598425
Codec configuration box : avcC
Аудио
Идентификатор : 2
Формат : AAC LC
Формат/Информация : Advanced Audio Codec Low Complexity
Идентификатор кодека : mp4a-40-2
Продолжительность : 2 ч. 56 м.
Продолжительность оригинала : 2 ч. 56 м.
Вид битрейта : Постоянный
Битрейт : 53,3 Кбит/сек
Каналы : 2 канала
Channel layout : L R
Частота : 44,1 КГц
Частота кадров : 43,066 кадра/сек (1024 SPF)
Метод сжатия : С потерями
Размер потока : 67,7 Мбайт (10%)
Размер потока оригинала : 67,7 Мбайт (10%)
Язык : English
Дата кодирования : UTC 2014-02-18 18:30:22
Дата пометки : UTC 2014-02-18 18:30:22
mdhd_Duration : 10651572
Скриншоты:
       

}{@R0N

Post 25-Mar-2019 17:52

[Quote]

Udemy | React + Redux - Профессиональная Разработка - Автор (режиссер): Юрий Бура
Производство: Udemy
Жанр: Программирование, React, Redux
Описание:
Фокус этого курса - практическая разработка приложений на React. Это означает, что мы рассмотрим не только эффективное использование самого React, но и целую экосистему инструментов и библиотек, которые необходимы для создания полноценного UI приложения.
Продолжительность: 18:10:02
Качество видео: PCRec
Видео: AVC/H.264, 1280x720, ~562-2969 Kbps
Аудио: AAC, 2 ch, 127-128 Kbps

Mediainfo:

Общее
Полное имя : .10 Redux\110 Действия с параметрами.mp4
Формат : MPEG-4
Профиль формата : Base Media
Идентификатор кодека : isom (isom/iso2/avc1/mp41)
Размер файла : 35,6 Мбайт
Продолжительность : 3 м. 42 с.
Общий поток : 1343 Кбит/сек
Программа кодирования : Lavf58.12.100
IsTruncated : Yes
Видео
Идентификатор : 1
Формат : AVC
Формат/Информация : Advanced Video Codec
Профиль формата : [url=mailto:[email protected]][email protected][/url]
Настройки формата : CABAC / 4 Ref Frames
Параметр CABAC формата : Да
Параметр RefFrames формата : 4 кадра
Параметр GOP формата : M=4, N=60
Идентификатор кодека : avc1
Идентификатор кодека/Информация : Advanced Video Coding
Продолжительность : 3 м. 42 с.
Битрейт : 1206 Кбит/сек
Номинальный битрейт : 3000 Кбит/сек
Ширина : 1280 пикселей
Высота : 720 пикселей
Соотношение сторон : 16:9
Режим частоты кадров : Постоянный
Частота кадров : 30,000 кадров/сек
Цветовое пространство : YUV
Субдискретизация насыщенности : 4:2:0
Битовая глубина : 8 бит
Тип развёртки : Прогрессивная
Бит/(Пиксели*Кадры) : 0.044
Размер потока : 32,0 Мбайт (90%)
Библиотека кодирования : x264 core 148
Настройки программы : cabac=1 / ref=3 / deblock=1:-1:-1 / analyse=0x1:0x111 / me=umh / subme=6 / psy=1 / psy_rd=1.00:0.15 / mixed_ref=1 / me_range=16 / chroma_me=1 / trellis=1 / 8x8dct=0 / cqm=0 / deadzone=21,11 / fast_pskip=1 / chroma_qp_offset=-3 / threads=22 / lookahead_threads=3 / sliced_threads=0 / nr=0 / decimate=1 / interlaced=0 / bluray_compat=0 / constrained_intra=0 / bframes=3 / b_pyramid=2 / b_adapt=1 / b_bias=0 / direct=1 / weightb=1 / open_gop=0 / weightp=2 / keyint=60 / keyint_min=6 / scenecut=0 / intra_refresh=0 / rc_lookahead=60 / rc=cbr / mbtree=1 / bitrate=3000 / ratetol=1.0 / qcomp=0.60 / qpmin=0 / qpmax=69 / qpstep=4 / vbv_maxrate=3000 / vbv_bufsize=6000 / nal_hrd=none / filler=0 / ip_ratio=1.40 / aq=1:1.00
Codec configuration box : avcC
Аудио
Идентификатор : 2
Формат : AAC LC
Формат/Информация : Advanced Audio Codec Low Complexity
Идентификатор кодека : mp4a-40-2
Продолжительность : 3 м. 42 с.
Вид битрейта : Постоянный
Битрейт : 128 Кбит/сек
Каналы : 2 канала
Channel layout : L R
Частота : 48,0 КГц
Частота кадров : 46,875 кадров/сек (1024 SPF)
Метод сжатия : С потерями
Размер потока : 3,40 Мбайт (10%)
Default : Да
AlternateGroup/String : 1

Дополнительная информация:

В раздаче имеются архивы! В них содержится дополнительные материалы.

История обновлений:

23.03.2019 торрент файл обновлен
- добавлены 2 новых раздела ("11 Разработка Redux приложения" и "12 WebPack и Babel")
- обновлен архив с исходниками ("pro-react-redux-master.zip")

Раздача ведётся путём добавления новых файлов:

Раздача ведётся путём добавления новых файлов; при каждом добавлении создаётся новый торрент. Чтобы начать докачку новых файлов, пользователям необходимо сделать следующее:
(1) остановить скачивание,
(2) удалить старый торрент у себя из клиента (имеющиеся файлы удалять не надо),
(3) скачать новый торрент и запустить его у себя в клиенте вместо старого, при этом указать клиенту путь в старую папку, куда и должно происходить скачивание новых файлов.
Ваш клиент при этом должен произвести хеширование (проверку) старой папки (если не производит сам - помогите ему сделать это), и будет докачивать только те файлы, которых у вас ещё нет. Старые файлы при этом не удаляются, а продолжают раздаваться!
Eсли вы уже удалили старые файлы, то предотвратить повторную закачку старых файлов можно, отжав галочку в соответствующих местах при запуске нового торрента. По возможности, желательно не удалять старые файлы как можно дольше, чтобы релизёр не только продолжал раздавать старые файлы, а смог сконцентрироваться на новых.
Скриншоты:
       
 

The time now is: Today 18:21

All times are GMT + 3 Hours