Today is a free download without charge Download

Search found 500 matches

Author Message

DED

Post 24-Aug-2020 19:53

[Quote]

--Полигон-- Год выпуска: 2012–2019
Страна: Россия
Студия: ООО «Единая медиагруппа»
Жанр: документальный, военный
Продолжительность: 93 x ~ 00:27:00
Язык: Русский
Ведущий: Иван Лебедев, Дмитрий Задорожный, Алексей Громыко-Описание: Одна из самых ожидаемых премьер этого телесезона - программа о современных военных разработках, новейших видах вооружения, средствах ведения боя и индивидуальной защиты! Российская армия сегодня – это не только автомат Калашникова и самолеты Сухого. Инновационные разработки военно-промышленного комплекса открывают практически безграничные возможности. Однако гражданским лицам о них известно крайне мало. Чтобы восполнить этот пробел, ведущие телеканала "Россия 2" Иван Лебедев и Дмитрий Задорожный отправляются на настоящие военные полигоны. В "боевых условиях" они попытаются выяснить, как устроены и работают современные бронеавтомобили и снайперские винтовки, ударные вертолеты и боевые корабли. С любознательностью новобранцев они будут рассматривать каждый винтик и интересоваться его предназначением, а также проводить тест-драйвы, ставить рискованные опыты и бесшабашные эксперименты. В этой программе не будет кирзовых сапог и строевой подготовки. Зато будет все то, о чем каждый настоящий мужчина мечтает с раннего детства – много оружия и грозной военной техники.-Качество видео: SATRip
Формат видео: AVI
Видеокодек: XviD
Аудиокодек: MP3/АС3
Видео: 720x400; 704х400, 25.000 fps, XviD MPEG-4, ~1800 kbps avg
Аудио: 48.0 kHz, MPEG Audio Layer 3, AC3 DD, 2 ch, ~192.00 kbps avg
Cубтитры: нет
-

Содержание релиза:

1. Универсальный солдат
2. Терминатор
3. Прорыв
4. Оружие снайпера
5. Десантура
6. Мост за час
7. Боевые вертолёты
8. Дикая кошка
9. Неуловимый мститель
10. Крупный калибр
11. Корд
12. Ключ к небу
13. Возвращение легенды
14. База 201
15. Боевая авиация
16. "ОКНО"
17. Панцирь
18. Воздушный бой
19. Спасение подводной лодки
20. Большие пушки
21. Путешествие на глубину (1 часть)
22. Путешествие на глубину (2 часть)
23. РХБЗ
24. Разведка
25. Авианосец
26. Саперы
27. Тяжелый десант
28. Артиллерия Балтики
29. Зубр
30. Оружие победы
31. БМП-3. (часть 1)
32. БМП-3. (часть 2)
33. Спрут
34. Эшелон
35. Ангара. Часть 1
36. Ангара. Часть 2
37. Пулеметы
38. Дневники танкиста. Часть 1
39. Дневники танкиста. Часть 2
40. Дневники танкиста. Часть 3
41. Самоходное орудие "Нона"
42. Мины
43. Огнеметы
44. Тор. Рождение
45. Тор. Испытание
46. Ту-95. Медведь
47.Танк Победы
48. Танк Т-80У
49. Спецбоеприпасы
50. Стратеги
51. Минная война
52. Переправа
53. Морпехи
54. Танк Т-72БЗ
55. Корветы (1 часть)
56. Корветы (2 часть)
57. Большой десантный корабль
58. Гаубица Д-30
59. Разминирование
60. БПК. Североморск
61. Ка-27
62. Операция Шторм. Часть 1
63. Операция Шторм. Часть 2
64. Операция Шторм. Часть 3
65. ТАРКР. Петр Великий
66. Операция Шторм. Часть 4
67. Андреевский флаг. Фильм 1
68. Андреевский флаг. Фильм 2
69. Андреевский флаг. Возвращение
70. Начало
71. Проверено на себе
72. Избранное
73. Штурмовики
74. Взрывной выпуск
75. Как снять танк и не попасть под гусеницы
76. МиГ-29К.Возрождение
77. МиГ-29К. Форсаж
78. Эволюция танкостроения
79. СУ-30СМ
80. Северный флот
81. Тавкр.«Адмирал Кузнецов»
82. Малые ракетные корабли
83. Служебные собаки
84. Комплекс ПВО С-400
85. Комплекс ПВО С-300
86. Вертолет Ми-28H
87. Вертолет МиГ – 35
88. Вертолетный Полк
89. Военная база в Армении. База 102. Часть 1
90. Военная база в Армении. База 102. Часть 2
91. Краснополь
92. Снайперы
93. Горная бригада
-

Внимание! Раздача ведётся путём добавления новых серий!:

Внимание! Раздача ведётся путём добавления новых серий; при каждом добавлении создаётся новый торрент. Чтобы начать закачку новой серии, пользователям необходимо сделать следующее:
(1) остановить скачивание, раздачу,
(2) удалить старый торрент у себя из клиента (старые серии удалять не надо),
(3) скачать новый торрент и запустить его у себя в клиенте вместо старого, при этом указать клиенту путь в старую папку, куда и должно происходить скачивание новых серий.
Ваш клиент при этом должен произвести хеширование (проверку) старой папки (если не производит сами - помогите ему сделать это), и будет скачивать только те серии, которых у вас ещё нет. Старые серии при этом не удаляются, а продолжают раздаваться!
Если вы уже удалили старые серии, то предотвратить повторную закачку старых серий можно, отжав галочку в соответствующих местах при запуске нового торрента. По возможности, желательно не удалять старые серии как можно дольше, чтобы релизёр не столько продолжал раздавать старые серии, а смог сконцентрироваться на добавлении новых.
-

Скриншоты:

       
- -

kilmister777

Post 20-Aug-2020 09:36

[Quote]

Курск. Десять дней, которые потрясли мир- Год выпуска: 2020
Страна: Россия
Жанр: документальный, военный, история
Продолжительность: 01:11:00
Перевод: Не требуется-Режиссер: Вадим Черноштан, Дарья Былинушкина, Александ Прохоренков, Александр Смирнов-Описание: Документальный фильм, приуроченный к 20-летию со дня катастрофы атомной подлодки "Курск" в Баренцевом море. Уникальные съемки Главной военной прокуратуры на борту ракетоносца, адмиралы, следователи, водолазы, родственники погибших, 18 версий трагедии и – впервые – свою версию излагает командующий Северным флотом Вячеслав Попов.-Качество: WEBRip
Формат: AVI
Видео кодек: XviD
Аудио кодек: AC3
Видео: 720x400 (2.37:1), 24.000 fps, XviD build 73 ~1701 kbps avg, 0.24 bit/pixel
Аудио: 48 kHz, AC3 Dolby Digital, 2/0 (L,R) ch, ~192 kbps-

Скриншоты

       

kilmister777

Post 24-Jun-2020 13:07

[Quote]

Парад Победы. Москва. Красная площадь- Год выпуска: 2020
Страна: Россия
Жанр: документальный, военный парад
Продолжительность: 01:16:37
Перевод: Не требуется-Описание: В главном параде страны, посвящённом 75-й годовщине победы в Великой Отечественной войне, принимают участие пятнадцать тысяч военнослужащих, 234 единицы наземной боевой техники, 80 самолетов и вертолетов.-Качество: HDTVRip
Формат: AVI
Видео кодек: XviD
Аудио кодек: AC3
Видео: 720x400 (2.37:1), 24.000 fps, XviD build 73 ~1598 kbps avg, 0.30 bit/pixel
Аудио: 48 kHz, AC3 Dolby Digital, 2/0 (L,R) ch, ~192 kbps-

Скриншоты

       

RazBoyNik

Post 28-Feb-2020 13:20

[Quote]

Мир наизнанку. Китай / Світ навиворіт з Дмитром Комаровим (2020) WEB-DLRip [H.264/1080p-LQ] (сезон 11, серии 1-5 из ??) - Телекомпания: Украина, 1+1 Production
Жанр: Документальный, Телепередача, Природа
Ведущий: Дмитрий Комаров
Описание:
«Китай занимает второе место среди стран мира по развитию экономики, и ты чувствуешь это во всем. Действительно, за почти полгода съемок в Китае мы с Сашей ни разу не ездили плохой дорогой. Нашим обычным транспортом были поезда, которые едут со скоростью 350 километров в час. И это обычный транспорт, который соединяет между собой все города. Для нас тысяча километров - это было расстояние, которое преодолеваешь за два-три часа. Также испытали на себе поезд, который движется с помощью магнитной левитации со скоростью 431 км в час. Он буквально летит над землей и проезжает 29 километров за 7 мин. Он появился еще в 2000-х годах, и это для них не ноу-хау. Там очень много всего высокотехнологичного, но при этом китайцы очень хранят свои многовековые традиции», - рассказал Дмитрий Комаров.
Продолжительность: 01:07:08
Качество видео: WEB-DLRip
Перевод: Одноголосый закадровый, профессиональный
Видео: AVC/H.264, 1920x1080, ~4046 Kbps
Аудио: AAC, 2 ch, 128 Kbps

Серии

1.Китай Школа боевых искусств и древний монастырь Шаолинь
2.Тренировки по кунг-фу в Шаолине и самой опасной школе Китая
3.Утренние зарядки в Китае и традиционная китайская медицина
4.Как добывают лед для Харбинского ледяного фестиваля
5.Как строится ледяной городок для Харбинского фестиваля

AvDump:

File: D:\Разное\Мир наизнанку 11 сезон\Мир наизнаку.Китай S11E01 Школа боевых искусств и древний монастырь Шаолинь.mkv
Duration: 01:07:09 (4028.71)
Track #1: video
lang: und (1)
codc: V_MPEG4/ISO/AVC -> H264/AVC (22)
reso: 1920x1080 -> 16:9
fram: 25 fps
rate: 2385 kbps (2384.93)
dura: 01:07:09 (4028.6)
size: 1.12 GB (1200990188)
Track #2: audio
lang: Unknown (1)
codc: A_AAC -> AAC (9)
chan: 2 -> Stereo
samp: 44100 Hz
rate: 128 kbps (128.43)
dura: 01:07:09 (4028.59)
size: 61.68 MB (64674099)
Sizes: (check sanity)
disk: 1.18 GB (1266613710)
trac: 1.18 GB (1265664287) [based on track size]
bitr: 1.18 GB (1265664240) [based on bitrate]
tdif: 927.17 KB (949423) 0.07%
bdif: 927.22 KB (949469) 0.07%

MediaInfo:

General
Unique ID : 223262761895842906115219424554610017669 (0xA7F6D807388419F78136F1793EB34585)
Complete name : D:\Разное\Мир наизнанку 11 сезон\Мир наизнаку.Китай S11E01 Школа боевых искусств и древний монастырь Шаолинь.mkv
Format : Matroska
Format version : Version 2
File size : 1.18 GiB
Duration : 1 h 7 min
Overall bit rate : 2 515 kb/s
Encoded date : UTC 2020-01-31 08:29:19
Writing application : mkvmerge v4.2.0 ('No Talking') сборка от Jul 28 2010 18:38:23
Writing library : libebml v1.0.0 + libmatroska v1.0.0
Video
ID : 1
Format : AVC
Format/Info : Advanced Video Codec
Format profile : [email protected]
Format settings : CABAC / 3 Ref Frames
Format settings, CABAC : Yes
Format settings, ReFrames : 3 frames
Muxing mode : Header stripping
Codec ID : V_MPEG4/ISO/AVC
Duration : 1 h 7 min
Width : 1 920 pixels
Height : 1 080 pixels
Display aspect ratio : 16:9
Frame rate mode : Constant
Frame rate : 25.000 FPS
Color space : YUV
Chroma subsampling : 4:2:0
Bit depth : 8 bits
Scan type : Progressive
Writing library : x264 core 155 r2901 7d0ff22
Default : Yes
Forced : No
Color range : Limited
Color primaries : BT.709
Transfer characteristics : BT.709
Matrix coefficients : BT.709
Audio
ID : 2
Format : AAC LC
Format/Info : Advanced Audio Codec Low Complexity
Codec ID : A_AAC-2
Duration : 1 h 7 min
Channel(s) : 2 channels
Channel layout : L R
Sampling rate : 44.1 kHz
Frame rate : 43.066 FPS (1024 SPF)
Compression mode : Lossy
Language : English
Default : Yes
Forced : No
Скриншоты
       

Борисыч

Post 11-Feb-2020 11:08

[Quote]

<<ЗОЛОТО КОЛЧАКА>>- Год выпуска: 2020
Страна: Россия
Жанр: Документальный
Продолжительность: 00:51:51
Режиссер: Елена Чавчавадзе
Описание: Эпопея "Золота Колчака" – настоящий исторический детектив, до сих пор до конца не расследованный и изобилующий многочисленными загадками. Каким образом у Колчака оказалась значительная часть золотого запаса Российской империи? Ведь он находился у большевиков! Почему восставший против них Чехословацкий корпус не двинулся на Москву, а повернул вверх по Волге, вдогонку за золотом, вывезенным из Самары в Казань? Почему председатель Реввоенсовета Троцкий проявил такую поразительную беспечность и, имея достаточно подкрепления, за два месяца не принял должных мер для обороны Казани? Куда и какими путями исчезло огромное количество золота?
Судьба золотого запаса Российской империи и принципиально новая, очищенная от накопившихся фальсификаций картина ключевых событий гражданской войны в России – в новом документальном расследовании Елены Чавчавадзе.
Качество: SATRip
Формат: AVI
Видео кодек: XviD
Аудио кодек: AC3
Видео: 720x400, 25 fps, 1800 kbps
Аудио: 48 kHz, 2 ch, 192 kbps

Скриншоты

     
 

Clavik

Post 18-Nov-2019 21:24

[Quote]

Титаник: истории из глубины / Titanic: Stories From the Deep (2019) HDTVRip - Производство: Канада, Infinity Films
Жанр: Документальный, катастрофы, история
Режиссер: Шел Пирси
Описание:
Останки «Титаника» были найдены в Атлантическом океане на глубине 3800 метров. С тех пор, на поверхность было поднято более пяти с половиной тысячи предметов и вещей, принадлежащих пассажирам и членам команды. Эти предметы могут рассказать правдивые истории любви, выживания, судьбы и тайн.
Релиз от: alf62
Продолжительность: 5 х ~ 00:43:02
Качество видео: HDTVRip
Перевод: Одноголосый закадровый, профессиональный (SDI Media)
Видео: AVC/H.264, 1280х720, ~4000 Kbps
Аудио: AAC, 2 ch, 192 Kbps

Список серий

1. Тайна и гнев / Mystery and Anger
Загадочная история Говарда Ирвина, чей саквояж находился на борту «Титаника», несмотря на то, что его не было, и история, стоящая за учебниками Эдгара Сэмюэля Эндрю, и пугающие пророческие слова, которые он написал в письме своему другу.
2. Муки выжившего / Survivor Guilt
Мы расскажем о Роберте Хиченсе и Фредерике Флите, которые никогда не простили себе, что не увидели айсберг пораньше. Также нас ждет встреча с Элизабет Наврати, дочерью одного из «сирот «Титаника».
3. Отголоски прошлого / Echoes of the Past
Этот эпизод касается пятого офицера Гарольда Лоу. После того, как «Титаник» затонул, его спасательная шлюпка стала одной из немногих, которые вернулись и подняли выживших. Один из людей, которых он спас, Рене Харрис, подарил ему набор позолоченного морского снаряжения как символ его благодарности. А еще это история паровых свистков, которые подняли с места катастрофы.
4. Любовь переживет все / Love Survives
Мы узнаем истории Истидора и Иды Штраус, Джорджа Розеншайна и Гертруды Мейбл Торн, чья любовь заставила их отбросить обычаи той эпохи, а также историю четырнадцати эмигрантов из Аддергуля, чье путешествие на «Титанике» помнят и увековечивают по сей день.

MediaInfo&#58;

Общее
Уникальный идентификатор : 229595289143506436757429093505252647789 (0xACBA71BA0D3728BABD31CF383936E36D)
Полное имя : C:\титаник\Титаник.истории.из.глубины.HDTVRip.(720p.)alf62\01.Тайна.и.гнев.2019.HDTVRip.(720p.)alf62.mkv
Формат : Matroska
Версия формата : Version 2
Размер файла : 1,26 Гбайт
Продолжительность : 43 м.
Общий поток : 4192 Кбит/сек
Дата кодирования : UTC 2019-10-28 11:57:49
Программа кодирования : mkvmerge v7.8.0 ('River Man') 32bit built on Apr 3 2015 12:11:22
Библиотека кодирования : libebml v1.3.1 + libmatroska v1.4.2
Видео
Идентификатор : 1
Формат : AVC
Формат/Информация : Advanced Video Codec
Профиль формата : [url=mailto:[email protected]][email protected][/url]
Параметр CABAC формата : Да
Параметр ReFrames формата : 8 кадров
Идентификатор кодека : V_MPEG4/ISO/AVC
Продолжительность : 43 м.
Номинальный битрейт : 4000 Кбит/сек
Ширина : 1280 пикселей
Высота : 720 пикселей
Соотношение сторон : 16:9
Режим частоты кадров : Постоянный
Частота кадров : 25,000 кадров/сек
Цветовое пространство : YUV
Субдискретизация насыщенности : 4:2:0
Битовая глубина : 8 бит
Тип развёртки : Прогрессивная
Бит/(Пиксели*Кадры) : 0.174
Библиотека кодирования : x264 core 146 r2538 121396c
Настройки программы : cabac=1 / ref=8 / deblock=1:-1:-2 / analyse=0x3:0x113 / me=umh / subme=10 / psy=1 / psy_rd=1.00:0.00 / mixed_ref=1 / me_range=32 / chroma_me=1 / trellis=2 / 8x8dct=1 / cqm=0 / deadzone=21,11 / fast_pskip=0 / chroma_qp_offset=-2 / threads=6 / lookahead_threads=1 / sliced_threads=0 / nr=0 / decimate=0 / interlaced=0 / bluray_compat=0 / constrained_intra=0 / bframes=9 / b_pyramid=2 / b_adapt=2 / b_bias=0 / direct=3 / weightb=1 / open_gop=0 / weightp=2 / keyint=250 / keyint_min=25 / scenecut=40 / intra_refresh=0 / rc_lookahead=40 / rc=2pass / mbtree=1 / bitrate=4000 / ratetol=1.0 / qcomp=0.60 / qpmin=10 / qpmax=51 / qpstep=4 / cplxblur=20.0 / qblur=0.5 / vbv_maxrate=14000 / vbv_bufsize=14000 / nal_hrd=none / filler=0 / ip_ratio=1.40 / aq=1:0.80
Default : Да
Forced : Нет
Аудио
Идентификатор : 2
Формат : AAC
Формат/Информация : Advanced Audio Codec
Профиль формата : LC
Идентификатор кодека : A_AAC
Продолжительность : 43 м.
Каналы : 2 канала
Расположение каналов : Front: L R
Частота : 48,0 КГц
Частота кадров : 46,875 кадров/сек (1024 spf)
Метод сжатия : С потерями
Default : Да
Forced : Нет
Скриншоты:
       

Дополнительные скриншоты&#58;

       
       
 

Clavik

Post 06-Oct-2019 22:57

[Quote]

Путешествия / Европа / HDlife: Smart Travels / Europe (2012) HDTV [H.264/1080i] (Часть 2, 14 фильмов) - Производство: США, Small World Productions Inc., Seattle
Жанр: Документальный, история, путешествия
Участники: ведущий: Руди Макса
Описание:
Smart Travels: Европа - от города знаменитой статуи Давида, работы Микеланджело, до неоновых ночных клубов Парижа и уютных деревенских церквей, предлагает лучшие сюжеты о Европе от Руди Максы.
Релиз от: BLUEBIRD
Продолжительность: серии x ~00:26:38
Качество видео: HDTV
Перевод: Одноголосый закадровый, профессиональный (Видеопродакшн)
Субтитры: отсутствуют
Видео: AVC/H.264, 1920x1080, ~6961 Kbps
Аудио: MP2, 2 ch, 192 Kbps

Mediainfo&#58; (тех. данные всех серий идентичны&#41;

Общее
Уникальный идентификатор : 189500215071171598475697112180300249449 (0x8E9069F335BE35AFB9601115E6B0F969)
Полное имя : F:\КИНО\HDLIFE_PART_2_HDTV_BLUEBIRD\Florence.mkv
Формат : Matroska
Версия формата : Version 2
Размер файла : 1,36 Гбайт
Продолжительность : 26 м. 38 с.
Общий поток : 7298 Кбит/сек
Дата кодирования : UTC 2012-05-02 13:11:52
Программа кодирования : mkvmerge v5.5.0 ('Healer') built on Apr 6 2012 21:43:24
Библиотека кодирования : libebml v1.2.3 + libmatroska v1.3.0
Видео
Идентификатор : 1
Формат : AVC
Формат/Информация : Advanced Video Codec
Профиль формата : [email protected]
Настройки формата : CABAC / 4 Ref Frames
Параметр CABAC формата : Да
Параметр RefFrames формата : 4 кадра
Идентификатор кодека : V_MPEG4/ISO/AVC
Продолжительность : 26 м. 38 с.
Битрейт : 6961 Кбит/сек
Ширина : 1920 пикселей
Высота : 1080 пикселей
Соотношение сторон : 16:9
Режим частоты кадров : Постоянный
Частота кадров : 25,000 кадров/сек
Стандарт вещания : Component
Цветовое пространство : YUV
Субдискретизация насыщенности : 4:2:0
Битовая глубина : 8 бит
Тип развёртки : Чересстрочная
Метод сохранения типа развёртки : Раздельные поля
Порядок развёртки : Верхнее поле первое
Бит/(Пиксели*Кадры) : 0.134
Размер потока : 1,30 Гбайт (95%)
Default : Да
Forced : Нет
Цветовой диапазон : Limited
Основные цвета : BT.709
Характеристики трансфера : BT.709
Коэффициенты матрицы : BT.709
Аудио
Идентификатор : 2
Формат : MPEG Audio
Версия формата : Version 1
Профиль формата : Layer 2
Идентификатор кодека : A_MPEG/L2
Идентификатор кодека/Подсказка : MP2
Продолжительность : 26 м. 38 с.
Вид битрейта : Постоянный
Битрейт : 192 Кбит/сек
Каналы : 2 канала
Частота : 48,0 КГц
Метод сжатия : С потерями
Размер потока : 36,6 Мбайт (3%)
Язык : Russian
Default : Да
Forced : Нет

Содержание&#58;

Английская глубинка
Барселона и Коста-Браво
Бельгия
Европа эпохи возрождения
Флоренция
Лондон
Голландия и Амстердам
Копенгаген и Дания
Мадрид
Мюнхен и Бавария
Париж
Рим
Прованс
Города-крепости Тосканы и Умбрии
Скриншоты:
       

Clavik

Post 03-Oct-2019 00:12

[Quote]

Загадки тёмной материи / The Mystery of Dark Matter (2012) WEB-DL [H.264/1080p] - Производство: Франция, ARTE France, Scientifilms, CEA, CNRS Images
Жанр: Документальный, познавательный, научно-популярный
Режиссер: Сесиль Данжан
Описание:
Факты упрямая вещь: масса всех объектов во Вселенной, которые мы знаем и можем наблюдать, составляет лишь 5%. Все остальное - это неизвестный материал, материя, которую мы не видим и не можем найти. Её назвали "чёрная материя". Какова природа этого феномена и существует ли он? Если да, то это приведет к необходимости переписать все постулаты физики со времен Ньютона и Эйнштейна...

Релиз от: DaVinci (Science)
Продолжительность: 00:54:56
Качество видео: WEB-DL
Перевод: Одноголосый закадровый, профессиональный
Субтитры: Английские, Английские (SDH)
Видео: AVC/H.264, 1920x1080, ~7949 Kbps
Аудио#1: AC3, 2 ch, 192 Kbps | Русский (ГТРК "Культура")
Аудио#2: AC3, 2 ch, 192 Kbps | Украинский (Перший)
Аудио#3: AC3, 2 ch, 224 Kbps | Английский

Mediainfo&#58;

Общее
Уникальный идентификатор : 246805040714738674062985900478811705338 (0xB9ACEBFD4D2878BDB1BA1D0EECED8FFA)
Полное имя : F:\КИНО\The.Mystery.of.Dark.Matter.(2012).1080p.WEB-DL.Rus.Ukr.Eng-BLUEBIRD.mkv
Формат : Matroska
Версия формата : Version 4
Размер файла : 3,28 Гбайт
Продолжительность : 54 м. 55 с.
Режим общего битрейта : Переменный
Общий поток : 8560 Кбит/сек
Дата кодирования : UTC 2018-01-04 11:13:18
Программа кодирования : mkvmerge v8.0.0 ('Til The Day That I Die') 32bit
Библиотека кодирования : libebml v1.3.1 + libmatroska v1.4.2
Видео
Идентификатор : 1
Формат : AVC
Формат/Информация : Advanced Video Codec
Профиль формата : [email protected]
Настройки формата : CABAC / 4 Ref Frames
Параметр CABAC формата : Да
Параметр RefFrames формата : 4 кадра
Идентификатор кодека : V_MPEG4/ISO/AVC
Продолжительность : 54 м. 55 с.
Вид битрейта : Переменный
Битрейт : 7949 Кбит/сек
Максимальный битрейт : 15,0 Мбит/сек
Ширина : 1920 пикселей
Высота : 1080 пикселей
Соотношение сторон : 16:9
Режим частоты кадров : Постоянный
Частота кадров : 25,000 кадров/сек
Цветовое пространство : YUV
Субдискретизация насыщенности : 4:2:0
Битовая глубина : 8 бит
Тип развёртки : Прогрессивная
Бит/(Пиксели*Кадры) : 0.153
Размер потока : 3,05 Гбайт (93%)
Default : Да
Forced : Нет
Цветовой диапазон : Limited
Основные цвета : BT.709
Характеристики трансфера : BT.709
Коэффициенты матрицы : BT.709
Аудио #1
Идентификатор : 2
Формат : AC-3
Формат/Информация : Audio Coding 3
Коммерческое название : Dolby Digital
Идентификатор кодека : A_AC3
Продолжительность : 54 м. 55 с.
Вид битрейта : Постоянный
Битрейт : 192 Кбит/сек
Каналы : 2 канала
ChannelLayout : L R
Частота : 48,0 КГц
Частота кадров : 31,250 кадров/сек (1536 SPF)
Метод сжатия : С потерями
Размер потока : 75,4 Мбайт (2%)
Заголовок : rus 2.0
Язык : Russian
ServiceKind/String : Complete Main
Default : Да
Forced : Да
Аудио #2
Идентификатор : 3
Формат : AC-3
Формат/Информация : Audio Coding 3
Коммерческое название : Dolby Digital
Идентификатор кодека : A_AC3
Продолжительность : 54 м. 55 с.
Вид битрейта : Постоянный
Битрейт : 192 Кбит/сек
Каналы : 2 канала
ChannelLayout : L R
Частота : 48,0 КГц
Частота кадров : 31,250 кадров/сек (1536 SPF)
Метод сжатия : С потерями
Размер потока : 75,4 Мбайт (2%)
Заголовок : ukr 2.0
Язык : Ukrainian
ServiceKind/String : Complete Main
Default : Нет
Forced : Нет
Аудио #3
Идентификатор : 4
Формат : AC-3
Формат/Информация : Audio Coding 3
Коммерческое название : Dolby Digital
Идентификатор кодека : A_AC3
Продолжительность : 54 м. 55 с.
Вид битрейта : Постоянный
Битрейт : 224 Кбит/сек
Каналы : 2 канала
ChannelLayout : L R
Частота : 48,0 КГц
Частота кадров : 31,250 кадров/сек (1536 SPF)
Метод сжатия : С потерями
Размер потока : 88,0 Мбайт (3%)
Заголовок : eng 2.0
Язык : English
ServiceKind/String : Complete Main
Default : Нет
Forced : Нет
Текст #1
Идентификатор : 5
Формат : UTF-8
Идентификатор кодека : S_TEXT/UTF8
Идентификатор кодека/Информация : UTF-8 Plain Text
Продолжительность : 54 м. 9 с.
Битрейт : 83 бит/сек
ElementCount : 894
Размер потока : 33,2 Кбайт (0%)
Заголовок : SRT
Язык : English
Default : Нет
Forced : Нет
Текст #2
Идентификатор : 6
Формат : UTF-8
Идентификатор кодека : S_TEXT/UTF8
Идентификатор кодека/Информация : UTF-8 Plain Text
Продолжительность : 54 м. 26 с.
Битрейт : 86 бит/сек
ElementCount : 916
Размер потока : 34,5 Кбайт (0%)
Заголовок : SDH
Язык : English
Default : Нет
Forced : Нет
Скриншоты:
       

Clavik

Post 02-Oct-2019 19:58

[Quote]

Русская пятёрка / The Russian Five (2018) WEB-DL [H.264/1080p]- Производство: Канада, Россия, США / Lucky Hat Entertainment
Жанр: Документальный, спорт, история
Режиссер: Джошуа Риль
Актеры: Владимир Константинов, Вячеслав Фетисов, Игорь Ларионов, Сергей Федоров, Вячеслав Козлов, Джефф Дэниелс, Джим Девеллано, Уэйн Гретцки
Описание:
Документальный фильм о главном русском сочетании в истории «Детройта» и всей НХЛ. В нём — истории появления каждого из участников — Константинова, Фетисова, Ларионова, Федорова и Козлова — в команде и рассказ об их игре, которая привела «Ред Уингс» к победам в Кубке Стэнли.

Возраст: 12+ (зрителям, достигшим 12 лет)
Продолжительность: 01:38:47
Качество видео: WEB-DL
Перевод: Профессиональный многоголосый (iTunes)
Субтитры: Русские (Forced, full)
Видео: AVC/H.264, 1920x1080, ~9022 Kbps
Аудио #1: AC3, 6 ch, 384 Kbps - Русский
Аудио #2: E-AC3, 2 ch, 224 Kbps - Английский

MediaInfo&#58;

Общее
Уникальный идентификатор : 244958899373012644947055599609383778139 (0xB8495E319F1411058324C4116C64775B)
Полное имя : D:\NNM\Russian_Five\The.Russian.Five.2018.WEB-DL.1080p.mkv
Формат : Matroska
Версия формата : Version 4
Размер файла : 6,78 Гбайт
Продолжительность : 1 ч. 38 м.
Общий поток : 9825 Кбит/сек
Дата кодирования : UTC 2019-10-02 12:43:35
Программа кодирования : mkvmerge v6.9.1 ('Blue Panther') 32bit built on Apr 18 2014 18:15:44
Библиотека кодирования : libebml v1.3.0 + libmatroska v1.4.1
Видео
Идентификатор : 1
Формат : AVC
Формат/Информация : Advanced Video Codec
Профиль формата : [email protected]
Настройки формата : CABAC / 4 Ref Frames
Параметр CABAC формата : Да
Параметр RefFrames формата : 4 кадра
Идентификатор кодека : V_MPEG4/ISO/AVC
Продолжительность : 1 ч. 38 м.
Вид битрейта : Постоянный
Битрейт : 9022 Кбит/сек
Номинальный битрейт : 10000 Кбит/сек
Ширина : 1920 пикселей
Высота : 1080 пикселей
Соотношение сторон : 16:9
Режим частоты кадров : Постоянный
Частота кадров : 23,976 (24000/1001) кадра/сек
Цветовое пространство : YUV
Субдискретизация насыщенности : 4:2:0
Битовая глубина : 8 бит
Тип развёртки : Прогрессивная
Бит/(Пиксели*Кадры) : 0.181
Размер потока : 6,23 Гбайт (92%)
Default : Да
Forced : Нет
Цветовой диапазон : Limited
Основные цвета : BT.709
Характеристики трансфера : BT.709
Коэффициенты матрицы : BT.709
Аудио #1
Идентификатор : 2
Формат : AC-3
Формат/Информация : Audio Coding 3
Коммерческое название : Dolby Digital
Идентификатор кодека : A_AC3
Продолжительность : 1 ч. 38 м.
Вид битрейта : Постоянный
Битрейт : 384 Кбит/сек
Каналы : 6 каналов
ChannelLayout : L R C LFE Ls Rs
Частота : 48,0 КГц
Частота кадров : 31,250 кадров/сек (1536 SPF)
Битовая глубина : 16 бит
Метод сжатия : С потерями
Размер потока : 271 Мбайт (4%)
Заголовок : iTunes
Язык : Russian
ServiceKind/String : Complete Main
Default : Да
Forced : Нет
Аудио #2
Идентификатор : 3
Формат : E-AC-3
Формат/Информация : Enhanced AC-3
Коммерческое название : Dolby Digital Plus
Идентификатор кодека : A_EAC3
Продолжительность : 1 ч. 38 м.
Вид битрейта : Постоянный
Битрейт : 224 Кбит/сек
Каналы : 2 канала
ChannelLayout : L R
Частота : 48,0 КГц
Частота кадров : 31,250 кадров/сек (1536 SPF)
Метод сжатия : С потерями
Размер потока : 158 Мбайт (2%)
Язык : English
ServiceKind/String : Complete Main
Default : Нет
Forced : Нет
Текст #1
Идентификатор : 4
Формат : UTF-8
Идентификатор кодека : S_TEXT/UTF8
Идентификатор кодека/Информация : UTF-8 Plain Text
Заголовок : Forced
Язык : Russian
Default : Да
Forced : Да
Текст #2
Идентификатор : 5
Формат : UTF-8
Идентификатор кодека : S_TEXT/UTF8
Идентификатор кодека/Информация : UTF-8 Plain Text
Заголовок : Full
Язык : Russian
Default : Нет
Forced : Нет
Меню
00:00:00.000 : en:Глава 1
00:03:29.084 : en:Глава 2
00:09:44.084 : en:Глава 3
00:17:34.220 : en:Глава 4
00:28:02.223 : en:Глава 5
00:32:10.596 : en:Глава 6
00:35:56.863 : en:Глава 7
00:41:28.152 : en:Глава 8
00:50:47.044 : en:Глава 9
00:56:31.555 : en:Глава 10
01:05:38.393 : en:Глава 11
01:10:19.924 : en:Глава 12
01:17:39.780 : en:Глава 13
01:22:26.358 : en:Глава 14
01:27:51.433 : en:Глава 15
01:35:34.687 : en:Глава 16
Скриншоты:        

Clavik

Post 02-Oct-2019 19:44

[Quote]

Следы на Луне. 50 лет спустя / Footprints on the Moon. 50 years later (2019) WEB-DL [H.264/1080p-LQ] - Производство: США, Independent Film Channel (IFC)
Жанр: Документальный, история, космос
Режиссер: Алесь Кругляков
Участники: Нил Армстронг, Майкл Коллинз, Эдвин Олдрин, Джеймс Ловелл, Уильям Андерс, Фред Хейз
Описание:
Неизвестные страницы программы «Аполлон», уникальные интервью непосредственных участников лунной программы и тех, кто 20 июля 1969 года обеспечивал полет «Аполлона-11» в Центре пилотируемых космических полётов в Хьюстоне.
Продолжительность: 00:56:18
Качество видео: WEB-DL
Перевод: Одноголосый закадровый, профессиональный
Субтитры: отсутствуют
Видео: AVC/H.264, 1920x1080, ~7308 Kbps
Аудио: AAC, 2 ch, 192 Kbps

Mediainfo&#58;

Общее
Уникальный идентификатор : 92287019672970211935911670644169132550 (0x456DD55E11E4D0D03D216A7B87F64A06)
Полное имя : F:\КИНО\Следы на Луне. 50 лет спустя.mkv
Формат : Matroska
Версия формата : Version 4
Размер файла : 2,95 Гбайт
Продолжительность : 56 м. 18 с.
Общий поток : 7507 Кбит/сек
Дата кодирования : UTC 2019-07-20 17:09:05
Программа кодирования : mkvmerge v35.0.0 ('All The Love In The World') 64-bit
Библиотека кодирования : libebml v1.3.9 + libmatroska v1.5.2
Видео
Идентификатор : 1
Формат : AVC
Формат/Информация : Advanced Video Codec
Профиль формата : [url=mailto:[email protected]][email protected][/url]
Настройки формата : 2 Ref Frames
Параметр CABAC формата : Нет
Параметр RefFrames формата : 2 кадра
Параметр GOP формата : M=3, N=13
Идентификатор кодека : V_MPEG4/ISO/AVC
Продолжительность : 56 м. 18 с.
Битрейт : 7308 Кбит/сек
Ширина : 1920 пикселей
Высота : 1080 пикселей
Соотношение сторон : 16:9
Режим частоты кадров : Постоянный
Частота кадров : 25,000 кадров/сек
Цветовое пространство : YUV
Субдискретизация насыщенности : 4:2:0
Битовая глубина : 8 бит
Тип развёртки : Прогрессивная
Бит/(Пиксели*Кадры) : 0.141
Размер потока : 2,87 Гбайт (97%)
Default : Да
Forced : Нет
Основные цвета : BT.709
Характеристики трансфера : BT.709
Коэффициенты матрицы : BT.709
Аудио
Идентификатор : 2
Формат : AAC LC
Формат/Информация : Advanced Audio Codec Low Complexity
Идентификатор кодека : A_AAC-2
Продолжительность : 56 м. 18 с.
Битрейт : 192 Кбит/сек
Каналы : 2 канала
ChannelLayout : L R
Частота : 48,0 КГц
Частота кадров : 46,875 кадров/сек (1024 SPF)
Метод сжатия : С потерями
Размер потока : 78,8 Мбайт (3%)
Default : Да
Forced : Нет
Скриншоты:
       

Clavik

Post 02-Oct-2019 09:45

[Quote]

History Channel. Нацисты на наркотиках: Гитлер и блицкриг (Наркотический блицкриг Гитлера) / Nazis on Drugs: Hitler and the Blitzkrieg (2019) HDTVRip - Производство: США, A&E Television Networks, History Channel
Жанр: Документальный, война, история, исследования
Описание:
Несмотря на разговоры о расовой чистоте, о духовном и физическом совершенстве, нацисты не чурались наркотиков.
Этот фильм исследует происхождение, воздействие и долгосрочные последствия спонсируемого государством употребления наркотиков, которые способствовали возвышению, а потом и падению Третьего Рейха. Новые источники информации, в том числе подробный журнал, который вел личный врач Гитлера, показывают степень зависимости не только его, но и всей нацистской верхушки от наркотиков.

Релиз от: alf62
Продолжительность: 01:14:40
Качество видео: HDTVRip
Перевод: Документальный дубляж (голос рассказчика - полный дубляж, интервью - слышна оригинальная речь)
Видео: AVC/H.264, 1280х720, ~4000 Kbps
Аудио: AAC, 2 ch, 192 Kbps

MediaInfo&#58;

Общее
Уникальный идентификатор : 224090634735584176886174661893588502650 (0xA896494F81494CE09FEA627B5D3BC87A)
Полное имя : D:\Запись\Наркотический блицкриг Гитлера\HC.Нацисты.на.наркотиках.Гитлер.и.блицкриг.2019.HDTVRip.(720p).alf62.mkv
Формат : Matroska
Версия формата : Version 2
Размер файла : 2,18 Гбайт
Продолжительность : 1 ч. 14 м.
Общий поток : 4188 Кбит/сек
Дата кодирования : UTC 2019-09-30 08:40:50
Программа кодирования : mkvmerge v7.8.0 ('River Man') 32bit built on Apr 3 2015 12:11:22
Библиотека кодирования : libebml v1.3.1 + libmatroska v1.4.2
Видео
Идентификатор : 1
Формат : AVC
Формат/Информация : Advanced Video Codec
Профиль формата : [url=mailto:[email protected]][email protected][/url]
Параметр CABAC формата : Да
Параметр ReFrames формата : 8 кадров
Идентификатор кодека : V_MPEG4/ISO/AVC
Продолжительность : 1 ч. 14 м.
Номинальный битрейт : 4000 Кбит/сек
Ширина : 1280 пикселей
Высота : 720 пикселей
Соотношение сторон : 16:9
Режим частоты кадров : Постоянный
Частота кадров : 25,000 кадров/сек
Цветовое пространство : YUV
Субдискретизация насыщенности : 4:2:0
Битовая глубина : 8 бит
Тип развёртки : Прогрессивная
Бит/(Пиксели*Кадры) : 0.174
Библиотека кодирования : x264 core 146 r2538 121396c
Настройки программы : cabac=1 / ref=8 / deblock=1:-1:-2 / analyse=0x3:0x113 / me=umh / subme=10 / psy=1 / psy_rd=1.00:0.00 / mixed_ref=1 / me_range=32 / chroma_me=1 / trellis=2 / 8x8dct=1 / cqm=0 / deadzone=21,11 / fast_pskip=0 / chroma_qp_offset=-2 / threads=6 / lookahead_threads=1 / sliced_threads=0 / nr=0 / decimate=0 / interlaced=0 / bluray_compat=0 / constrained_intra=0 / bframes=9 / b_pyramid=2 / b_adapt=2 / b_bias=0 / direct=3 / weightb=1 / open_gop=0 / weightp=2 / keyint=250 / keyint_min=25 / scenecut=40 / intra_refresh=0 / rc_lookahead=40 / rc=2pass / mbtree=1 / bitrate=4000 / ratetol=1.0 / qcomp=0.60 / qpmin=10 / qpmax=51 / qpstep=4 / cplxblur=20.0 / qblur=0.5 / vbv_maxrate=14000 / vbv_bufsize=14000 / nal_hrd=none / filler=0 / ip_ratio=1.40 / aq=1:0.80
Default : Да
Forced : Нет
Аудио
Идентификатор : 2
Формат : AAC
Формат/Информация : Advanced Audio Codec
Профиль формата : LC
Идентификатор кодека : A_AAC
Продолжительность : 1 ч. 14 м.
Каналы : 2 канала
Расположение каналов : Front: L R
Частота : 48,0 КГц
Частота кадров : 46,875 кадров/сек (1024 spf)
Метод сжатия : С потерями
Default : Да
Forced : Нет
Скриншоты:
       

Дополнительные скриншоты&#58;

     

Clavik

Post 18-Sep-2019 19:44

[Quote]

Вторая мировая война: взгляд из космоса / World War II From Space (2012) BDRip - Производство: США, A&E Television Networks, History Channel
Жанр: Документальный, война, история
Режиссер: Саймон Джордж
Описание:
Такой эту войну еще не видел никто. В этом фильме используется всевидящий глаз CGI, который предлагает спутниковое представление о конфликте, позволяя вам воспринимать его так, чтобы ключевые события и переломные моменты рассматривались в глобальной перспективе. Воссоздавая важные моменты, которые никогда не могли быть запечатлены на камеру, и иллюстрируя важность одновременности и скрытых последствий критических инцидентов, фильм представляет монументальные моменты войны в ранее невиданном контексте.
Политические альянсы начинают масштабную борьбу за ресурсы, разворачивается военно-промышленный комплекс, который в будущем определит исход самого великого вооруженного конфликта.

Релиз от: alf62
Большое СПАСИБО nyctalus, за сведение русской звуковой дорожки!
Продолжительность: 01:32:04
Качество видео: BDRip
Перевод: Документальный дубляж (голос рассказчика - дубляж, интервью - одноголосый закадровый перевод)
Субтитры: Русские (на непереведенные фрагменты 2 х 30 сек)
Видео: AVC/H.264, 1280х720, ~5000 Kbps
Аудио: AC3, 2 ch, 192 Kbps
Аудио 1: AC3, 2 ch, 192 Kbps | Русский
Аудио 2: ААС, 2 ch, 192 Kbps | Английский

MediaInfo&#58;

Общее
Уникальный идентификатор : 235608263545295219434430037484777778501 (0xB1408040ED207AC09A68003DC9B02D45)
Полное имя : D:\Работа\WWII.From.Space.2012.1080p.BluRay.x264-BiQ[hotpena]\ВМВ.взгляд.из.космоса.2012.BDRip.(720p).alf62\ВМВ.взгляд.из.космоса.2012.BDRip.(720p).alf62.mkv
Формат : Matroska
Версия формата : Version 4 / Version 2
Размер файла : 3,45 Гбайт
Продолжительность : 1 ч. 32 м.
Общий поток : 5363 Кбит/сек
Дата кодирования : UTC 2019-09-17 20:29:28
Программа кодирования : mkvmerge v6.0.0 ('Coming Up For Air') built on Jan 20 2013 09:52:00
Библиотека кодирования : libebml v1.3.0 + libmatroska v1.4.0
Видео
Идентификатор : 1
Формат : AVC
Формат/Информация : Advanced Video Codec
Профиль формата : [url=mailto:[email protected]][email protected][/url]
Параметр CABAC формата : Да
Параметр ReFrames формата : 8 кадров
Идентификатор кодека : V_MPEG4/ISO/AVC
Продолжительность : 1 ч. 32 м.
Номинальный битрейт : 5000 Кбит/сек
Ширина : 1280 пикселей
Высота : 720 пикселей
Соотношение сторон : 16:9
Режим частоты кадров : Постоянный
Частота кадров : 23,976 (24000/1001) кадра/сек
Цветовое пространство : YUV
Субдискретизация насыщенности : 4:2:0
Битовая глубина : 8 бит
Тип развёртки : Прогрессивная
Бит/(Пиксели*Кадры) : 0.226
Библиотека кодирования : x264 core 146 r2538 121396c
Настройки программы : cabac=1 / ref=8 / deblock=1:-1:-2 / analyse=0x3:0x113 / me=umh / subme=10 / psy=1 / psy_rd=1.00:0.00 / mixed_ref=1 / me_range=32 / chroma_me=1 / trellis=2 / 8x8dct=1 / cqm=0 / deadzone=21,11 / fast_pskip=0 / chroma_qp_offset=-2 / threads=6 / lookahead_threads=1 / sliced_threads=0 / nr=0 / decimate=0 / interlaced=0 / bluray_compat=0 / constrained_intra=0 / bframes=9 / b_pyramid=2 / b_adapt=2 / b_bias=0 / direct=3 / weightb=1 / open_gop=0 / weightp=2 / keyint=250 / keyint_min=23 / scenecut=40 / intra_refresh=0 / rc_lookahead=40 / rc=2pass / mbtree=1 / bitrate=5000 / ratetol=1.0 / qcomp=0.60 / qpmin=10 / qpmax=51 / qpstep=4 / cplxblur=20.0 / qblur=0.5 / vbv_maxrate=14000 / vbv_bufsize=14000 / nal_hrd=none / filler=0 / ip_ratio=1.40 / aq=1:0.80
Default : Да
Forced : Нет
Аудио #1
Идентификатор : 2
Формат : AC-3
Формат/Информация : Audio Coding 3
Расширение режима : CM (complete main)
Параметр Endianness формата : Big
Идентификатор кодека : A_AC3
Продолжительность : 1 ч. 32 м.
Вид битрейта : Постоянный
Битрейт : 192 Кбит/сек
Каналы : 2 канала
Расположение каналов : Front: L R
Частота : 48,0 КГц
Частота кадров : 31,250 кадров/сек (1536 spf)
Метод сжатия : С потерями
Размер потока : 126 Мбайт (4%)
Default : Да
Forced : Да
Аудио #2
Идентификатор : 3
Формат : AAC
Формат/Информация : Advanced Audio Codec
Профиль формата : LC
Идентификатор кодека : A_AAC
Продолжительность : 1 ч. 32 м.
Каналы : 2 канала
Расположение каналов : Front: L R
Частота : 48,0 КГц
Частота кадров : 46,875 кадров/сек (1024 spf)
Метод сжатия : С потерями
Default : Нет
Forced : Нет
Скриншоты:
       

Дополнительные скриншоты&#58;

       
       

Clavik

Post 11-Sep-2019 17:25

[Quote]

Илон Маск: Настоящий железный человек / Elon Musk: The Real Life Iron Man (2018) WEB-DLRip - Производство: Великобритания, Premiere Picture, SEIS Reel
Жанр: Документальный, биография
Режиссер: Соня Андерсон
Участники: Илон Маск, Эмбер Хёрд, Талула Райли, Кэри Купер, Даниэла Альберс, Джули Андерсон Аскенбрандт, Ричард Брэнсон, Сара Круддас, Стив Фаулер, Дэвид Айк
Описание:
История жизни и достижений одного из самых ярких людей нынешнего столетия - изобретателя, предпринимателя, филантропа и безудержного мечтателя. Родившийся в Южной Африке в семье простого инженера и фотомодели, Илон Маск за свои 48 лет успел основать около десятка успешных инновационных компаний, с нуля заработать на своих идеях несколько десятков миллиардов долларов, трижды жениться, стать отцом пятерых детей... И он не сомневается, что его SpaceX совершит пилотируемый полет на Марс не позднее 2025 года.

Релиз от: iTunes
Продолжительность: 01:14:17
Качество видео: WEB-DLRip
Перевод: Многоголосый закадровый, профессиональный (Мосфильм-Мастер)
Субтитры: отсутствуют
Видео: XviD, 688x384, ~1896 Kbps
Аудио: AC3, 2 ch, 192 Kbps

Mediainfo&#58;

Общее
Полное имя : F:\КИНО\Илон Маск.Настоящий железный человек_2018_WEB-DLRip.avi
Формат : AVI
Формат/Информация : Audio Video Interleave
Размер файла : 1,09 Гбайт
Продолжительность : 1 ч. 14 м.
Общий поток : 2098 Кбит/сек
Название фильма : Илон Маск.Настоящий железный человек_2018_WEB-DLRip
Программа кодирования : VirtualDubMod 1.5.10.3 | www.virtualdub-fr.org || (build 2550/release)
Авторское право : порошков
Видео
Идентификатор : 0
Формат : MPEG-4 Visual
Профиль формата : Advanced [email protected]
Настройки формата : BVOP1 / Custom Matrix
Параметр BVOP формата : 1
Параметр QPel формата : Нет
Параметр GMC формата : Без точки перехода
Параметр матрицы формата : Выборочная
Идентификатор кодека : XVID
Идентификатор кодека/Подсказка : XviD
Продолжительность : 1 ч. 14 м.
Битрейт : 1897 Кбит/сек
Ширина : 688 пикселей
Высота : 384 пикселя
Соотношение сторон : 16:9
Частота кадров : 24,000 кадра/сек
Цветовое пространство : YUV
Субдискретизация насыщенности : 4:2:0
Битовая глубина : 8 бит
Тип развёртки : Прогрессивная
Метод сжатия : С потерями
Бит/(Пиксели*Кадры) : 0.299
Размер потока : 1008 Мбайт (90%)
Библиотека кодирования : XviD 73
Аудио
Идентификатор : 1
Формат : AC-3
Формат/Информация : Audio Coding 3
Коммерческое название : Dolby Digital
Идентификатор кодека : 2000
Продолжительность : 1 ч. 14 м.
Вид битрейта : Постоянный
Битрейт : 192 Кбит/сек
Каналы : 2 канала
ChannelLayout : L R
Частота : 48,0 КГц
Частота кадров : 31,250 кадров/сек (1536 SPF)
Битовая глубина : 16 бит
Метод сжатия : С потерями
Размер потока : 102 Мбайт (9%)
Выравнивание : Разделение по промежуткам
Продолжительность промежутка : 42 мс. (1,00 видеокадр)
Время предзагрузки промежутка : 500 мс.
ServiceKind/String : Complete Main
Скриншоты:
       

Адвокат FM 111

Post 29-May-2018 20:13

[Quote]

Сейчас такое время все куда-то бегут и мало времени у всех. Фильм показывает очень интересные взгляд на жизнь.

cfgkjhyhh

Post 08-Apr-2018 16:41

[Quote]

Здравствуйте!
Востановите, пожалуйста, закачку
https://dark-os.com/viewtopic.php?t=173034
Падение запада (Галина Царёва) [2013, Православно-познавательный, DVD5]
Желаю всем здоровья!
 

The time now is: Today 01:04

All times are GMT + 3 Hours