Today is a free download without charge Download

Search found 500 matches

Author Message

БАНДИТ

Post 30-Oct-2020 15:14

[Quote]

Человек по имени Конь / A Man Called Horse
Год выхода: 1970
Жанр: Драма, приключения, вестерн
Страна: Мексика, США
Студия: Cinema Center Films, Estudios Churubusco Azteca S.A., Sandy Howard Productions
Продолжительность: 01:55:18
Перевод:
• Авторский (одноголосый, закадровый) | Сергей Кузнецов
Режиссер: Эллиот Силверштейн
В ролях: Ричард Харрис, Джудит Андерсон, Жан Гаскон, Даб Тейлор, Джеймс Гэммон, Уильям Джордан, Эдди Литтл Скай, Лина Марин, Тамара Гарина, Терри Леонард, Айрон ангела Коуди, Мануэль Падилла мл., Ллойд Уан Стар, Сэмюэл Уайт Хорс, Джастин Тин Элк, Бен Блэк Беар, Брюс Бёрд, Филлип Кларк, Ли Шафф Гуардино, Эдвард Литтл, Сонни Скайхок
О фильме:
Дакота. 1820 год. Джон Морган, британский аристократ, попадает в плен к индейцам племени сиу. Племя подвергло чужака жестким испытаниям, которые должен пройти новый член племени. Джон становится одним из воинов сиу. Прожив несколько лет в племени, он принял уклад жизни индейцев и, заслужив уважение старейшин, впоследствии был выбран одним из вождей.
Его талант стратега позволил племени отбить нападения воинственных племен с других территорий и завоевать сердце самой красивой девушки сиу.
Благодаря бережному отношению режиссера к историческому материалу и сохранению диалогов на языке индейцев этот фильм стал одной из самых захватывающих кинолент о жизни и отношениях индейцев с белыми колонистами Америки.

Качество: BDRip
Исходник: A.Man.Called.Horse.1970.1080p.BluRay.REMUX.VC-1.DTS-HD.MA.5.1-EPSiLON
Формат: AVI
Кодек: XviD
Видео: 720x304 (2.35:1), 23,976 fps, XviD ~ 1611 Kbps avg, 0.307 bit/pixel
Аудио: AC3, 48 kHz, 2 ch, ~192.00 kbps avg | русский | Кузнецов
Субтитры: Отсутствуют

Скриншоты

БАНДИТ

Post 30-Oct-2020 15:07

[Quote]

Возвращение человека по имени Конь / The Return of a Man Called Horse
Год выхода: 1976
Жанр: Драма, вестерн
Страна: Мексика, США
Студия: Estudios Churubusco Azteca S.A., Sandy Howard Productions
Продолжительность: 02:05:41
Перевод:
• Профессиональный (многоголосый, закадровый) | НТВ+
Режиссер: Ирвин Кершнер
В ролях: Ричард Харрис, Гэйл Сондергаард, Джеффри Льюис, Уильям Лаккинг, Хорхе Луке, Хорхе Руссек, Клаудио Брук, Энрике Лусеро, Рехино Эррера, Педро Дамиан
О фильме:
Человек по прозвищу Конь возвращается из Англии, чтобы исправить зло, причиненное индейскому племени белыми людьми.

Качество: BDRip
Исходник: The.Return.of.a.Man.Called.Horse.1976.1080p.BluRay.REMUX.AVC.DTS-HD.MA.2.0-EPSiLON
Формат: AVI
Кодек: XviD
Видео: 720x304 (2.35:1), 23,976 fps, XviD ~ 1471 Kbps avg, 0.280 bit/pixel
Аудио: AC3, 48 kHz, 2 ch, ~192.00 kbps avg | русский | НТВ+
Субтитры: Отсутствуют

Скриншоты

SIRUS

Post 26-Aug-2020 20:07

[Quote]

Ворон / The Crow- Год выпуска: 1994
Страна: США
Производство: Miramax Films, Crowvision Inc.
Жанр: фэнтези, боевик, драма
Продолжительность: 01:41:52
Перевод (1): Профессиональный (полное дублирование) Хлопушка
Перевод (2): Профессиональный (двухголосый закадровый) НТВ
Субтитры: нет-Режиссер:
Алекс Пройас / Alex Proyas-В ролях:
Брэндон Ли (Eric), Рошелль Дэвис (Sarah), Эрни Хадсон (Albrecht), Майкл Уинкотт (Top Dollar), Бай Лин (Myca), София Шинас (Shelly), Анна Левайн (Darla), Дэвид Патрик Келли (T-Bird), Анхель Давид (Skank), Лоуренс Мэйсон (Tin Tin), Майкл Масси (Funboy), Тони Тодд (Grange)-
Это была мрачная и страшная ночь. Ночь жуткого праздника Хэллоуин. Банда насильников и убийц, ворвавшись в дом молодой пары, жестоко расправилась с рок-музыкантом Эриком и его невестой Шелли.
Спустя год Эрик Дрэйвен выбирается из могилы и отправляется на поиски убийц. Человек ли он? Или Ворон, жаждущий возмездия?-Качество: BDRip
Формат: AVI
Видео: 704x384 (1.83:1), 23.976 fps, XviD build 67 ~1653 kbps avg, 0.26 bit/pixel
Аудио #1: 48 kHz, AC3 Dolby Digital, 2/0 (L,R) ch, ~192.00 kbps avg (DUB)
Аудио #2: 48 kHz, AC3 Dolby Digital, 2/0 (L,R) ch, ~192.00 kbps avg (DVO)
-

Скриншоты

     

SIRUS

Post 31-Jul-2020 12:14

[Quote]

Информация о фильме
Название: Ворон
Оригинальное название: The Crow
Год выхода: 1994
Жанр: фэнтези, боевик, триллер, криминал
Режиссер: Алекс Пройас
В ролях: Брэндон Ли, Рошелль Дэвис, Эрни Хадсон, Майкл Уинкотт, Бай Лин, София Шинас, Анна Левайн-Томпсон, Дэвид Патрик Келли, Энджел Дэвид, Лоуренс Мэйсон
О фильме :
Праздник Хэллоуин жестокая банда насильников и убийц, решили поразвлечься. Их выбор пал на квартиру на чердаке бедного рок-музыканта Эрика и его милую невесту Шелли. Они умерли в сильных муках. Прошёл год и таинственные силы, в образе ворона, воскресили Эрика. Теперь он стал ни демон, ни человек. Существо жаждущее мести за то, что сотворили эти убийцы. Теперь правосудие в его руках и он совершит его так, как считает нужным и справедливым.
Выпущено: Dimension Films
Продолжительность: 01:41:38
Перевод: Профессиональный (многоголосый, закадровый) | лицензия
Файл
Формат: MKV
Качество: HDRip-AVC
Видео: 736х412 (16:9), 23.976 fps, x264, 947 kbps, 0.130 bit/pixel
Аудио: 48.0 kHz, AAC-LC, 2 ch, ~72 kbps avg

MI

Общее
Уникальный идентификатор : 238034495199078848762474302049496067038 (0xB313C6B5B484C472ABAEA14A501BEBDE)
Полное имя : C:UsersАлександрDesktopфильмThe.Crow.1994.ImperiaFilm.mkv
Формат : Matroska
Версия формата : Version 2
Размер файла : 742 Мбайт
Продолжительность : 1 ч. 41 м.
Общий поток : 1021 Кбит/сек
Дата кодирования : UTC 2017-07-11 11:04:27
Программа кодирования : mkvmerge v7.8.0 ('River Man') 32bit built on Apr 3 2015 12:11:22
Библиотека кодирования : libebml v1.3.1 + libmatroska v1.4.2
Видео
Идентификатор : 1
Формат : AVC
Формат/Информация : Advanced Video Codec
Профиль формата : [email protected]
Параметр CABAC формата : Да
Параметр ReFrames формата : 8 кадров
Идентификатор кодека : V_MPEG4/ISO/AVC
Продолжительность : 1 ч. 41 м.
Номинальный битрейт : 947 Кбит/сек
Ширина : 736 пикселей
Высота : 412 пикселей
Соотношение сторон : 16:9
Режим частоты кадров : Постоянный
Частота кадров : 23,976 (24000/1001) кадра/сек
Цветовое пространство : YUV
Субдискретизация насыщенности : 4:2:0
Битовая глубина : 8 бит
Тип развёртки : Прогрессивная
Бит/(Пиксели*Кадры) : 0.130
Библиотека кодирования : x264 core 146 r2538 121396c
Настройки программы : cabac=1 / ref=8 / deblock=1:-2:-2 / analyse=0x3:0x113 / me=umh / subme=11 / psy=1 / psy_rd=1.00:0.20 / mixed_ref=1 / me_range=32 / chroma_me=1 / trellis=2 / 8x8dct=1 / cqm=0 / deadzone=21,11 / fast_pskip=1 / chroma_qp_offset=-3 / threads=6 / lookahead_threads=1 / sliced_threads=0 / nr=0 / decimate=0 / interlaced=0 / bluray_compat=0 / constrained_intra=0 / bframes=10 / b_pyramid=2 / b_adapt=2 / b_bias=0 / direct=3 / weightb=1 / open_gop=0 / weightp=2 / keyint=240 / keyint_min=23 / scenecut=40 / intra_refresh=0 / rc_lookahead=40 / rc=2pass / mbtree=0 / bitrate=947 / ratetol=1.0 / qcomp=0.60 / qpmin=0 / qpmax=69 / qpstep=4 / cplxblur=20.0 / qblur=0.5 / vbv_maxrate=50000 / vbv_bufsize=62500 / nal_hrd=none / filler=0 / ip_ratio=1.40 / pb_ratio=1.30 / aq=1:1.00
Default : Да
Forced : Нет
Аудио
Идентификатор : 2
Формат : AAC
Формат/Информация : Advanced Audio Codec
Профиль формата : LC
Идентификатор кодека : A_AAC
Продолжительность : 1 ч. 41 м.
Каналы : 2 канала
Расположение каналов : Front: L R
Частота : 48,0 КГц
Частота кадров : 46,875 кадров/сек (1024 spf)
Метод сжатия : С потерями
Задержка видео : 9 мс.
Default : Да
Forced : Нет

Скриншоты

     

SIRUS

Post 04-Jul-2020 21:53

[Quote]

Беовульф / Beowulf --Информация о фильме
Название: Беовульф
Оригинальное название: Beowulf
Год выхода: 1999
Жанр: Фэнтези, фантастика, ужасы, боевик
Режиссер: Грэм Бейкер
В ролях: Кристофер Ламберт, Рона Митра, Оливер Коттон, Гёц Отто, Винсент Хэммонд, Чарльз Робинсон, Брент Джеффресон Лоу, Роджер Сломан, Лайла Робертс, Роберт Уиллокс
О фильме:
В далеком будущем наша планета переживает очередной катаклизм, после которого высокоразвитая цивилизация оказывается в мире, напоминающим темное Средневековье. У людей появляется несметное количество самых разнообразных врагов. Победить их очень непросто, единственный выход для беззащитных мирных жителей – строить надежные крепости и там прятаться от недругов.Но и это не спасает людей. Последнее защитное сооружение не может устоять перед натиском ужасных представителей Сил Тьмы. Единственный, кто может помочь человечеству – бесстрашный и таинственный Беовульф.

Страна: США, Великобритания
Студия: Capitol Films, European Motion Pictures Productions Ltd., Kushner-Locke Company
Продолжительность: 01:33:22
Перевод: Профессиональный (дублированный) Мосфильм-Мастер
Файл
Формат: MKV
Качество: WEB-DLRip-AVC
Видео: MPEG-4 AVC, 800x432, - 1040 Кбит/с
Аудио: AAC-HE, 2 ch, - 76 Кбит/с
Субтитры: Русские, английские

MI

Общее
Уникальный идентификатор : 301203886880234437499733738135083154782 (0xE299C22DC4512D8D5A2547F0BCD5FD5E)
Полное имя : D:MOVIESBeowulf.1999.WEB-DLRip-AVC..mkv
Формат : Matroska
Версия формата : Version 4 / Version 2
Размер файла : 746 Мбайт
Продолжительность : 1 ч. 33 м.
Общий поток : 1117 Кбит/сек
Дата кодирования : UTC 2019-05-19 05:14:27
Программа кодирования : mkvmerge v32.0.0 ('Astral Progressions') 64-bit
Библиотека кодирования : libebml v1.3.7 + libmatroska v1.5.0
Видео
Идентификатор : 1
Формат : AVC
Формат/Информация : Advanced Video Codec
Профиль формата : [email protected]
Параметр CABAC формата : Да
Параметр RefFrames формата : 12 кадров
Идентификатор кодека : V_MPEG4/ISO/AVC
Продолжительность : 1 ч. 33 м.
Битрейт : 1040 Кбит/сек
Ширина : 800 пикселей
Высота : 432 пикселя
Соотношение сторон : 1,85:1
Режим частоты кадров : Постоянный
Частота кадров : 23,976 (24000/1001) кадра/сек
Цветовое пространство : YUV
Субдискретизация насыщенности : 4:2:0
Битовая глубина : 8 бит
Тип развёртки : Прогрессивная
Бит/(Пиксели*Кадры) : 0.126
Размер потока : 694 Мбайт (93%)
Библиотека кодирования : x264 core 152 r2851kMod ba24899
Настройки программы : cabac=1 / ref=12 / deblock=1:-3:-3 / analyse=0x3:0x133 / me=umh / subme=10 / psy=1 / fade_compensate=0.00 / psy_rd=1.00:0.15 / mixed_ref=1 / me_range=32 / chroma_me=1 / trellis=2 / 8x8dct=1 / cqm=0 / deadzone=21,11 / fast_pskip=0 / chroma_qp_offset=-3 / threads=6 / lookahead_threads=1 / sliced_threads=0 / nr=0 / decimate=0 / interlaced=0 / bluray_compat=0 / constrained_intra=0 / bframes=12 / b_pyramid=2 / b_adapt=2 / b_bias=0 / direct=3 / weightb=1 / open_gop=0 / weightp=2 / keyint=240 / keyint_min=23 / scenecut=40 / intra_refresh=0 / rc_lookahead=40 / rc=2pass / mbtree=1 / bitrate=1040 / ratetol=1.0 / qcomp=0.60 / qpmin=0 / qpmax=69 / qpstep=4 / cplxblur=20.0 / qblur=0.5 / ip_ratio=1.40 / aq=3:1.00
Default : Да
Forced : Нет
Аудио
Идентификатор : 2
Формат : AAC
Формат/Информация : Advanced Audio Codec
Профиль формата : HE-AAC / LC
Идентификатор кодека : A_AAC
Продолжительность : 1 ч. 33 м.
Битрейт : 76,0 Кбит/сек
Каналы : 2 канала
Расположение каналов : Front: L R
Частота : 48,0 КГц / 24,0 КГц
Частота кадров : 23,438 кадра/сек (1024 SPF)
Метод сжатия : С потерями
Задержка видео : 31 мс.
Размер потока : 50,7 Мбайт (7%)
Язык : Russian
Default : Да
Forced : Нет
Текст #1
Идентификатор : 3
Формат : UTF-8
Идентификатор кодека : S_TEXT/UTF8
Идентификатор кодека/Информация : UTF-8 Plain Text
Продолжительность : 1 ч. 26 м.
Битрейт : 42 бит/сек
ElementCount : 647
Размер потока : 27,3 Кбайт (0%)
Язык : Russian
Default : Нет
Forced : Нет
Текст #2
Идентификатор : 4
Формат : UTF-8
Идентификатор кодека : S_TEXT/UTF8
Идентификатор кодека/Информация : UTF-8 Plain Text
Продолжительность : 1 ч. 32 м.
Битрейт : 34 бит/сек
ElementCount : 934
Размер потока : 23,4 Кбайт (0%)
Заголовок : SDH
Язык : English
Default : Нет
Forced : Нет

Скриншоты

     

Soldat_5

Post 26-Dec-2019 01:52

[Quote]

Дом длинных теней / House of the Long Shadows (1982) BDRip [H.264] - Производство: Великобритания / London-Cannon Films
Жанр: Ужасы, Комедия, Детектив
Режиссер: Пит Уолкер
Продюсер: Йорам Глобус, Менахем Голан, Дженни Крэвен
Актеры: Винсент Прайс, Кристофер Ли, Питер Кушинг, Дези Арназ мл., Джон Кэрредин, Шила Кит, Джули Писгуд, Ричард Тодд, Луиз Инглиш, Ричард Хантер
Описание:
Молодой писатель-неудачник по имени Кеннет Маги спорит со своим издателем на 20 тысяч долларов, что он может за 24 часа при надлежащем вдохновении и соответствующей обстановке написать целый роман. Кеннет говорит, что ему необходимо лишь спокойное и уютное местечко для написания романа. Издатель предлагает ему отправиться в старый замок в Уэльсе, который принадлежит его другу и в котором вот уже сорок лет никто не живет.
Прибыв в замок, Кеннет встречает странных пожилых людей - женщину и ее еле дышащего отца. Неожиданно там оказывается и молодая белокурая девушка Мэри, с которой Кеннет ранее столкнулся в гостинице в городе. Она объясняет ему, что прибыла по заданию издателя, чтобы помешать ему написать роман, а также информировать его о ходе работы писателя. Кеннет подивился тому, что замок оказался не таким уж необитаемым, но, тем не менее, начинает работать. Но тут замок после сорока лет запустения просто начинает наполняться непрошеными гостями…

Рейтинг MPAA: PG (рекомендуется присутствие родителей)
Релиз от: Охрана (NNMCLUB)
Продолжительность: 01:41:38
Качество видео: BDRip
Перевод: Двуголосый профессиональный, авторский
Субтитры: Отсутствуют
Видео: AVC/H.264, 1024x552, ~2950 Kbps
Аудио 1: AC3, 2 ch, 192 Kbps, 48.0 kHz – Русский DVO, НТВ+
Аудио 2: AC3, 2 ch, 192 Kbps, 48.0 kHz – Русский AVO, Л. Володарский
Аудио 3: AC3, 2 ch, 192 Kbps, 48.0 kHz – Английский

MediaInfo:

Общее
Уникальный идентификатор : 174580812376685361325593953905772050220 (0x83570A9AF897CADE90DDD7E02D13B72C)
Полное имя : B:\Downloads\Дом длинных теней. 1982. NNMCLUB.mkv
Формат : Matroska
Версия формата : Version 4 / Version 2
Размер файла : 2,50 Гбайт
Продолжительность : 1 ч. 41 м.
Общий поток : 3527 Кбит/сек
Дата кодирования : UTC 2019-12-24 22:15:36
Программа кодирования : mkvmerge v7.9.0 ('Birds') 64bit
Библиотека кодирования : libebml v1.3.1 + libmatroska v1.4.2
Видео
Идентификатор : 1
Формат : AVC
Формат/Информация : Advanced Video Codec
Профиль формата : [url=mailto:[email protected]][email protected][/url]
Настройки формата : CABAC / 12 Ref Frames
Параметр CABAC формата : Да
Параметр RefFrames формата : 12 кадров
Идентификатор кодека : V_MPEG4/ISO/AVC
Продолжительность : 1 ч. 41 м.
Битрейт : 2950 Кбит/сек
Ширина : 1024 пикселя
Высота : 552 пикселя
Соотношение сторон : 1,85:1
Режим частоты кадров : Постоянный
Частота кадров : 23,976 (24000/1001) кадра/сек
Цветовое пространство : YUV
Субдискретизация насыщенности : 4:2:0
Битовая глубина : 8 бит
Тип развёртки : Прогрессивная
Бит/(Пиксели*Кадры) : 0.218
Размер потока : 2,09 Гбайт (84%)
Заголовок : House of the Long Shadows
Библиотека кодирования : x264 core 146 r2538 121396c
Настройки программы : cabac=1 / ref=12 / deblock=1:-1:-1 / analyse=0x3:0x113 / me=umh / subme=10 / psy=1 / psy_rd=1.00:0.10 / mixed_ref=1 / me_range=32 / chroma_me=1 / trellis=2 / 8x8dct=1 / cqm=0 / deadzone=21,11 / fast_pskip=0 / chroma_qp_offset=-3 / threads=6 / lookahead_threads=1 / sliced_threads=0 / nr=0 / decimate=0 / interlaced=0 / bluray_compat=0 / constrained_intra=0 / bframes=7 / b_pyramid=2 / b_adapt=2 / b_bias=0 / direct=3 / weightb=1 / open_gop=0 / weightp=2 / keyint=250 / keyint_min=25 / scenecut=40 / intra_refresh=0 / rc_lookahead=60 / rc=2pass / mbtree=1 / bitrate=2950 / ratetol=1.0 / qcomp=0.60 / qpmin=0 / qpmax=69 / qpstep=4 / cplxblur=20.0 / qblur=0.5 / vbv_maxrate=14000 / vbv_bufsize=14000 / nal_hrd=none / filler=0 / ip_ratio=1.40 / aq=1:1.00
Язык : English
Default : Да
Forced : Нет
Аудио #1
Идентификатор : 2
Формат : AC-3
Формат/Информация : Audio Coding 3
Идентификатор кодека : A_AC3
Продолжительность : 1 ч. 41 м.
Вид битрейта : Постоянный
Битрейт : 192 Кбит/сек
Каналы : 2 канала
Расположение каналов : Front: L R
Частота : 48,0 КГц
Частота кадров : 31,250 кадров/сек (1536 SPF)
Битовая глубина : 16 бит
Метод сжатия : С потерями
Размер потока : 140 Мбайт (5%)
Заголовок : Двуголосый закадровый, НТВ+
Язык : Russian
ServiceKind/String : Complete Main
Default : Да
Forced : Нет
Аудио #2
Идентификатор : 3
Формат : AC-3
Формат/Информация : Audio Coding 3
Идентификатор кодека : A_AC3
Продолжительность : 1 ч. 41 м.
Вид битрейта : Постоянный
Битрейт : 192 Кбит/сек
Каналы : 2 канала
Расположение каналов : Front: L R
Частота : 48,0 КГц
Частота кадров : 31,250 кадров/сек (1536 SPF)
Битовая глубина : 16 бит
Метод сжатия : С потерями
Размер потока : 140 Мбайт (5%)
Заголовок : Авторский, Л. Володарский
Язык : Russian
ServiceKind/String : Complete Main
Default : Нет
Forced : Нет
Аудио #3
Идентификатор : 4
Формат : AC-3
Формат/Информация : Audio Coding 3
Идентификатор кодека : A_AC3
Продолжительность : 1 ч. 41 м.
Вид битрейта : Постоянный
Битрейт : 192 Кбит/сек
Каналы : 2 канала
Расположение каналов : Front: L R
Частота : 48,0 КГц
Частота кадров : 31,250 кадров/сек (1536 SPF)
Битовая глубина : 16 бит
Метод сжатия : С потерями
Размер потока : 140 Мбайт (5%)
Заголовок : Английский
Язык : English
ServiceKind/String : Complete Main
Default : Нет
Forced : Нет
Скриншоты:
       

Дополнительные скриншоты:

       

Soldat_5

Post 19-Dec-2019 18:17

[Quote]

Убийство в Белом доме / Murder at 1600 (1997) WEBRip [H.264/1080p-LQ]- Производство: США / Regency Enterprises, Warner Bros. Pictures Co.
Жанр: боевик, триллер, драма, криминал, детектив
Режиссер: Дуайт Х. Литтл
Продюсеры: Арнольд Копельсон, Арнон Милчен, Стивен Браун
Актеры: Уэсли Снайпс, Дайан Лэйн, Дэниэл Бензали, Деннис Миллер, Алан Алда, Ронни Кокс, Дайан Бэйкер, Тейт Донован, Харрис Юлин, Том Райт
Описание:
Захват американских заложников в Северной Корее вызвал бурю возмущения в Белом Доме. Президент Америки близок к тому, чтобы принять решение вмешаться и атаковать Корею. Тем временем в самом здании Белого Дома обнаружена убитая женщина, бывший секретарь.
Расследование поручено полицейскому детективу Харлану Реджису, до этого не связанному с правительственными и секретными службами. Именно с последними он натыкается на стену глухого молчания. В этом деле ему не разобраться без помощи очаровательной женщины — секретного агента Нины Ченс, потому что кому, как не ей лучше знать секретную службу изнутри.

Возраст: 16+ (зрителям, достигшим 16 лет)
Рейтинг MPAA: R (лицам до 17 лет обязательно присутствие взрослого)
Продолжительность: 01:46:41
Качество видео: WEBRip (Amazon)
Перевод: Дублированный (Варус-Видео)
Субтитры: английские (полные/SDH)
Видео: AVC/H.264, 1920x1080, ~8592 kbps
Аудио 1: AC3, 2 ch, 192 kbps - русский
Аудио 2: E-AC3, 6 ch, 640 kbps - английский

MediaInfo:


Код:
Общее
Уникальный идентификатор                 : 14498456227892815878728590850902275136 (0xAE84D14DE2DA37130E0A63152F93440)
Полное имя                               : Murder.at.1600.1997.AMZN.WEBRip.1080p.RUS.mkv
Формат                                   : Matroska
Версия формата                           : Version 4
Размер файла                             : 7,03 Гбайт
Продолжительность                        : 1 ч. 46 м.
Режим общего битрейта                    : Переменный
Общий поток                              : 9427 Кбит/сек
Дата кодирования                         : UTC 2019-12-18 11:03:42
Программа кодирования                    : mkvmerge v41.0.0 ('Smarra') 64-bit
Библиотека кодирования                   : libebml v1.3.9 + libmatroska v1.5.2
Видео
Идентификатор                            : 1
Формат                                   : AVC
Формат/Информация                        : Advanced Video Codec
Профиль формата                          : [email protected]
Настройки формата                        : CABAC / 4 Ref Frames
Параметр CABAC формата                   : Да
Параметр RefFrames формата               : 4 кадра
Идентификатор кодека                     : V_MPEG4/ISO/AVC
Продолжительность                        : 1 ч. 46 м.
Вид битрейта                             : Переменный
Битрейт                                  : 8592 Кбит/сек
Максимальный битрейт                     : 15,0 Мбит/сек
Ширина                                   : 1920 пикселей
Высота                                   : 1080 пикселей
Соотношение сторон                       : 16:9
Режим частоты кадров                     : Постоянный
Частота кадров                           : 23,976 (24000/1001) кадра/сек
Цветовое пространство                    : YUV
Субдискретизация насыщенности            : 4:2:0
Битовая глубина                          : 8 бит
Тип развёртки                            : Прогрессивная
Бит/(Пиксели*Кадры)                      : 0.173
Размер потока                            : 6,40 Гбайт (91%)
Заголовок                                : Murder at 1600 (1997) [Amazon]
Библиотека кодирования                   : x264 core 148 r2623 d5b2374
Настройки программы                      : cabac=1 / ref=4 / deblock=1:-1:-1 / analyse=0x3:0x133 / me=umh / subme=9 / psy=1 / psy_rd=1.00:0.15 / mixed_ref=1 / me_range=24 / chroma_me=1 / trellis=2 / 8x8dct=1 / cqm=0 / deadzone=21,11 / fast_pskip=1 / chroma_qp_offset=-3 / threads=34 / lookahead_threads=5 / sliced_threads=0 / nr=150 / decimate=1 / interlaced=0 / bluray_compat=0 / constrained_intra=0 / bframes=8 / b_pyramid=2 / b_adapt=2 / b_bias=0 / direct=3 / weightb=1 / open_gop=0 / weightp=2 / keyint=120 / keyint_min=61 / scenecut=0 / intra_refresh=0 / rc_lookahead=120 / rc=crf / mbtree=1 / crf=18.0 / qcomp=0.60 / qpmin=0 / qpmax=69 / qpstep=4 / vbv_maxrate=15000 / vbv_bufsize=31250 / crf_max=0.0 / nal_hrd=vbr / filler=0 / ip_ratio=1.40 / aq=3:1.00
Язык                                     : English
Default                                  : Да
Forced                                   : Нет
Цветовой диапазон                        : Limited
Основные цвета                           : BT.709
Характеристики трансфера                 : BT.709
Коэффициенты матрицы                     : BT.709
Аудио #1
Идентификатор                            : 2
Формат                                   : AC-3
Формат/Информация                        : Audio Coding 3
Коммерческое название                    : Dolby Digital
Идентификатор кодека                     : A_AC3
Продолжительность                        : 1 ч. 46 м.
Вид битрейта                             : Постоянный
Битрейт                                  : 192 Кбит/сек
Каналы                                   : 2 канала
ChannelLayout                            : L R
Частота                                  : 48,0 КГц
Частота кадров                           : 31,250 кадров/сек (1536 SPF)
Битовая глубина                          : 16 бит
Метод сжатия                             : С потерями
Размер потока                            : 147 Мбайт (2%)
Заголовок                                : [Varus Video][DUB][VHS]
Язык                                     : Russian
ServiceKind/String                       : Complete Main
Default                                  : Да
Forced                                   : Нет
Аудио #2
Идентификатор                            : 3
Формат                                   : E-AC-3
Формат/Информация                        : Enhanced AC-3
Коммерческое название                    : Dolby Digital Plus
Идентификатор кодека                     : A_EAC3
Продолжительность                        : 1 ч. 46 м.
Вид битрейта                             : Постоянный
Битрейт                                  : 640 Кбит/сек
Каналы                                   : 6 каналов
ChannelLayout                            : L R C LFE Ls Rs
Частота                                  : 48,0 КГц
Частота кадров                           : 31,250 кадров/сек (1536 SPF)
Метод сжатия                             : С потерями
Размер потока                            : 488 Мбайт (7%)
Язык                                     : English
ServiceKind/String                       : Complete Main
Default                                  : Нет
Forced                                   : Нет
Текст #1
Идентификатор                            : 4
Формат                                   : UTF-8
Идентификатор кодека                     : S_TEXT/UTF8
Идентификатор кодека/Информация          : UTF-8 Plain Text
Продолжительность                        : 1 ч. 46 м.
Битрейт                                  : 51 бит/сек
ElementCount                             : 1469
Размер потока                            : 40,2 Кбайт (0%)
Язык                                     : English
Default                                  : Нет
Forced                                   : Нет
Текст #2
Идентификатор                            : 5
Формат                                   : UTF-8
Идентификатор кодека                     : S_TEXT/UTF8
Идентификатор кодека/Информация          : UTF-8 Plain Text
Продолжительность                        : 1 ч. 46 м.
Битрейт                                  : 53 бит/сек
ElementCount                             : 1534
Размер потока                            : 41,4 Кбайт (0%)
Заголовок                                : SDH
Язык                                     : English
Default                                  : Нет
Forced                                   : Нет
Меню
00:00:00.000                             : en:Prologue... Handled
00:02:54.500                             : en:Bloody Discovery
00:06:42.485                             : en:Called to 1600
00:08:54.117                             : en:National Security
00:13:21.509                             : en:The Missing Name
00:16:18.561                             : en:Battle at Harlan's
00:19:36.717                             : en:A Suspect Emerges
00:25:55.095                             : en:Intruder Alert
00:30:06.430                             : en:Into Sharper Focus
00:32:22.065                             : en:An Eye on Kyle
00:38:24.886                             : en:An Eye on Harlan
00:40:14.996                             : en:The Ugly Truth
00:43:43.538                             : en:Nina Takes a Chance
00:46:29.829                             : en:Team Spirit
00:48:50.636                             : en:Hasty Exit
00:51:49.231                             : en:Duty-Bound
00:54:16.044                             : en:Make Us Disappear
00:56:17.499                             : en:Kyle Beyond Reach?
01:00:04.309                             : en:Others Present
01:03:45.321                             : en:Sharpshooting
01:05:57.954                             : en:Jordan's Advice
01:08:43.453                             : en:Doesn't Add Up
01:11:29.994                             : en:Trailer to Spikings
01:15:22.143                             : en:House of Targets
01:18:08.809                             : en:News for Naive
01:19:58.127                             : en:Tape's Secrets
01:21:55.327                             : en:President Choice
01:23:42.601                             : en:In Via the Way Out
01:25:12.232                             : en:Stengel Diversion
01:27:31.214                             : en:Underground
01:29:55.265                             : en:Ambush in the Dark
01:32:15.822                             : en:Two-Way Strategy
01:35:58.586                             : en:Janitor's Punch
01:37:55.161                             : en:Laying Down the Law
01:40:13.382                             : en:Casualties of War
01:41:23.494                             : en:Who You Know
01:43:07.431                             : en:End Credits
Скриншоты:
       

Soldat_5

Post 24-Nov-2019 14:59

[Quote]

Дикий пляж / Savage Beach (1989) BDRip [H.264] - Производство: США / Malibu Bay Films
Жанр: Боевик, Приключения, Эротика
Режиссер: Энди Сидарис
Продюсер: Арлин Сидарис
Актеры: Дона Спейр, Хоуп Мари Карлтон, Джон Эпри, Брюс Пенхалл, Родриго Обрегон, Майкл Микаса, Майкл Дж. Шэйн, Дэнн Секи, Аль Леонг, Эрик Чен
Описание:
Ещё одна история от Энди Сидариса про девушек из Управления по борьбе с наркотиками. Сюжет в целом присутствует: тут и федеральные агенты, и затонувшее японское судно с золотом времён 2-ой Мировой, и различные бандюки, пытающиеся это золото присвоить. Но основная цель господина Сидариса, разумеется - показать побольше сцен с полу- и полностью обнажёнными девушками на фоне красивейшей природы, да ещё и с оружием в руках, что смотрится очень даже превосходно...

Возраст: 18+ (зрителям, достигшим 18 лет. запрещено для детей)
Рейтинг MPAA: R (лицам до 17 лет обязательно присутствие взрослого)
Продолжительность: 01:34:39
Качество видео: BDRip
Перевод: Авторский, Вартан Дохалов
Субтитры: Английские (SDH)
Видео: AVC/H.264, 1024x576, ~2916 Kbps
Аудио 1: AC3, 2 ch, 192 Kbps, 48.0 kHz – Русский
Аудио 2: AC3, 2 ch, 192 Kbps, 48.0 kHz – Английский

MediaInfo:

Общее
Уникальный идентификатор : 183781998842890256690224483656560334297 (0x8A43201F8749C92F81FAE86654B0D5D9)
Полное имя : B:\Downloads\Дикий пляж. 1989. NNMCLUB.mkv
Формат : Matroska
Версия формата : Version 4 / Version 2
Размер файла : 2,18 Гбайт
Продолжительность : 1 ч. 34 м.
Общий поток : 3302 Кбит/сек
Дата кодирования : UTC 2019-10-06 00:04:28
Программа кодирования : mkvmerge v7.9.0 ('Birds') 64bit
Библиотека кодирования : libebml v1.3.1 + libmatroska v1.4.2
Видео
Идентификатор : 1
Формат : AVC
Формат/Информация : Advanced Video Codec
Профиль формата : [email protected]
Настройки формата : CABAC / 12 Ref Frames
Параметр CABAC формата : Да
Параметр RefFrames формата : 12 кадров
Идентификатор кодека : V_MPEG4/ISO/AVC
Продолжительность : 1 ч. 34 м.
Битрейт : 2916 Кбит/сек
Ширина : 1024 пикселя
Высота : 576 пикселей
Соотношение сторон : 16:9
Режим частоты кадров : Постоянный
Частота кадров : 23,976 (24000/1001) кадра/сек
Цветовое пространство : YUV
Субдискретизация насыщенности : 4:2:0
Битовая глубина : 8 бит
Тип развёртки : Прогрессивная
Бит/(Пиксели*Кадры) : 0.206
Размер потока : 1,93 Гбайт (88%)
Заголовок : Savage Beach
Библиотека кодирования : x264 core 146 r2538 121396c
Настройки программы : cabac=1 / ref=12 / deblock=1:-1:-1 / analyse=0x3:0x113 / me=umh / subme=10 / psy=1 / psy_rd=1.00:0.10 / mixed_ref=1 / me_range=32 / chroma_me=1 / trellis=2 / 8x8dct=1 / cqm=0 / deadzone=21,11 / fast_pskip=0 / chroma_qp_offset=-3 / threads=6 / lookahead_threads=1 / sliced_threads=0 / nr=0 / decimate=0 / interlaced=0 / bluray_compat=0 / constrained_intra=0 / bframes=7 / b_pyramid=2 / b_adapt=2 / b_bias=0 / direct=3 / weightb=1 / open_gop=0 / weightp=2 / keyint=250 / keyint_min=25 / scenecut=40 / intra_refresh=0 / rc_lookahead=60 / rc=2pass / mbtree=1 / bitrate=2916 / ratetol=1.0 / qcomp=0.60 / qpmin=0 / qpmax=69 / qpstep=4 / cplxblur=20.0 / qblur=0.5 / vbv_maxrate=14000 / vbv_bufsize=14000 / nal_hrd=none / filler=0 / ip_ratio=1.40 / aq=1:1.00
Язык : English
Default : Да
Forced : Нет
Аудио #1
Идентификатор : 2
Формат : AC-3
Формат/Информация : Audio Coding 3
Идентификатор кодека : A_AC3
Продолжительность : 1 ч. 34 м.
Вид битрейта : Постоянный
Битрейт : 192 Кбит/сек
Каналы : 2 канала
Расположение каналов : Front: L R
Частота : 48,0 КГц
Частота кадров : 31,250 кадров/сек (1536 SPF)
Битовая глубина : 16 бит
Метод сжатия : С потерями
Задержка видео : 4 с. 0 мс.
Размер потока : 130 Мбайт (6%)
Заголовок : AVO Вартан Дохалов
Язык : Russian
ServiceKind/String : Complete Main
Default : Да
Forced : Нет
Аудио #2
Идентификатор : 3
Формат : AC-3
Формат/Информация : Audio Coding 3
Идентификатор кодека : A_AC3
Продолжительность : 1 ч. 34 м.
Вид битрейта : Постоянный
Битрейт : 192 Кбит/сек
Каналы : 2 канала
Расположение каналов : Front: L R
Частота : 48,0 КГц
Частота кадров : 31,250 кадров/сек (1536 SPF)
Битовая глубина : 16 бит
Метод сжатия : С потерями
Размер потока : 130 Мбайт (6%)
Заголовок : Английский
Язык : English
ServiceKind/String : Complete Main
Default : Нет
Forced : Нет
Текст
Идентификатор : 4
Формат : UTF-8
Идентификатор кодека : S_TEXT/UTF8
Идентификатор кодека/Информация : UTF-8 Plain Text
Продолжительность : 1 ч. 33 м.
Битрейт : 45 бит/сек
ElementCount : 1073
Размер потока : 31,6 Кбайт (0%)
Заголовок : SDH
Язык : English
Default : Нет
Forced : Нет
Скриншоты:

Дополнительные скриншоты:

Clavik

Post 02-Sep-2019 10:17

[Quote]

Полет навигатора / Flight of the Navigator (1986) BDRip - Производство: США / Walt Disney Pictures, New Star Entertainment, Viking Films
Жанр: Фантастика, приключения, семейный
Режиссер: Рэндал Клайзер
Актеры: Джои Крамер, Пол Рубенс, Вероника Картрайт, Клифф Де Янг, Сара Джессика Паркер, Мэтт Адлер, Ховард Хессеман, Роберт Смолл, Элби Уайтакер
Описание:
Двенадцатилетний Дэвид пропадает без вести и самым таинственным образом возвращается восемь лет спустя, ничуть не повзрослевшим. Одновременно с его появлением в окрестностях обнаруживают НЛО. И не случайно! Все эти восемь лет Дэвид провёл в обществе инопланетян и из глубин вселенной принёс знания, ранее не известные человечеству. За это время Дэвид стал опытным пилотом, и на фантастическом летательном аппарате может улететь, куда только не пожелает! Навигатор отправляется в полный приключений полёт!

Возраст: 12+ (зрителям, достигшим 12 лет)
Рейтинг MPAA: PG (рекомендуется присутствие родителей)
Релиз от: k.e.n & MegaPeer
Продолжительность: 01:29:38
Качество видео: BDRip
Перевод: Дублированный, профессиональный многоголосый, aвторский, любительский одноголосый
Субтитры: русские, английские
Видео: AVC, 1280x692, 23.976 fps, 5832 kbps
Аудио #1: AC3, 48 kHz, 2 ch, 192 kbps (Русский - DUB Киностудия им. Горького)
Аудио #2: AC3, 48 kHz, 2 ch, 192 kbps (Русский - MVO СТС)
Аудио #3: AC3, 48 kHz, 2 ch, 192 kbps (Русский - AVO А.Алексеев)
Аудио #4: AC3, 48 kHz, 2 ch, 192 kbps (Русский - VO Ray)
Аудио #5: AC3, 48 kHz, 6 ch, 384 kbps (Английский)

MediaInfo:

Complete name                            : D:\ФИЛЬМЫ\Полет навигатора.1986 (Д.Крамер, П.Рубенс).k.e.n & MegaPeer.mkv
Format : Matroska
Format version : Version 2
File size : 4.37 GiB
Duration : 1 h 29 min
Overall bit rate : 6 985 kb/s
Encoded date : UTC 2019-09-02 04:57:14
Writing application : mkvmerge v5.3.0 ('I could have danced') built on Feb 9 2012 10:38:07
Writing library : libebml v1.2.3 + libmatroska v1.3.0
Cover : Yes
Attachments : cover.jpg
Video
ID : 1
Format : AVC
Format/Info : Advanced Video Codec
Format profile : [url=mailto:[email protected]][email protected][/url]
Format settings : CABAC / 9 Ref Frames
Format settings, CABAC : Yes
Format settings, ReFrames : 9 frames
Codec ID : V_MPEG4/ISO/AVC
Duration : 1 h 29 min
Bit rate : 5 832 kb/s
Width : 1 280 pixels
Height : 692 pixels
Display aspect ratio : 1.85:1
Frame rate mode : Constant
Frame rate : 23.976 (24000/1001) FPS
Color space : YUV
Chroma subsampling : 4:2:0
Bit depth : 8 bits
Scan type : Progressive
Bits/(Pixel*Frame) : 0.275
Stream size : 3.57 GiB (82%)
Writing library : x264 core 157 r2945 72db437
Encoding settings : cabac=1 / ref=9 / deblock=1:-3:-3 / analyse=0x3:0x133 / me=umh / subme=11 / psy=1 / psy_rd=1.00:0.00 / mixed_ref=1 / me_range=32 / chroma_me=1 / trellis=2 / 8x8dct=1 / cqm=0 / deadzone=21,11 / fast_pskip=0 / chroma_qp_offset=-2 / threads=12 / lookahead_threads=3 / sliced_threads=0 / nr=0 / decimate=0 / interlaced=0 / bluray_compat=0 / constrained_intra=0 / bframes=10 / b_pyramid=2 / b_adapt=2 / b_bias=0 / direct=3 / weightb=1 / open_gop=0 / weightp=2 / keyint=240 / keyint_min=23 / scenecut=40 / intra_refresh=0 / rc=2pass / mbtree=0 / bitrate=5832 / ratetol=1.0 / qcomp=0.70 / qpmin=0 / qpmax=69 / qpstep=4 / cplxblur=20.0 / qblur=0.5 / ip_ratio=1.20 / pb_ratio=1.30 / aq=3:0.80
Language : English
Default : Yes
Forced : No
Color range : Limited
Color primaries : BT.709
Transfer characteristics : BT.709
Matrix coefficients : BT.709
Audio #1
ID : 2
Format : AC-3
Format/Info : Audio Coding 3
Commercial name : Dolby Digital
Codec ID : A_AC3
Duration : 1 h 29 min
Bit rate mode : Constant
Bit rate : 192 kb/s
Channel(s) : 2 channels
Channel layout : L R
Sampling rate : 48.0 kHz
Frame rate : 31.250 FPS (1536 SPF)
Bit depth : 16 bits
Compression mode : Lossy
Stream size : 123 MiB (3%)
Title : Дубляж | Киностудия им. Горького
Language : Russian
Service kind : Complete Main
Default : Yes
Forced : No
Audio #2
ID : 3
Format : AC-3
Format/Info : Audio Coding 3
Commercial name : Dolby Digital
Codec ID : A_AC3
Duration : 1 h 29 min
Bit rate mode : Constant
Bit rate : 192 kb/s
Channel(s) : 2 channels
Channel layout : L R
Sampling rate : 48.0 kHz
Frame rate : 31.250 FPS (1536 SPF)
Bit depth : 16 bits
Compression mode : Lossy
Stream size : 123 MiB (3%)
Title : MVO | CTC
Language : Russian
Service kind : Complete Main
Default : No
Forced : No
Audio #3
ID : 4
Format : AC-3
Format/Info : Audio Coding 3
Commercial name : Dolby Digital
Codec ID : A_AC3
Duration : 1 h 29 min
Bit rate mode : Constant
Bit rate : 192 kb/s
Channel(s) : 2 channels
Channel layout : L R
Sampling rate : 48.0 kHz
Frame rate : 31.250 FPS (1536 SPF)
Bit depth : 16 bits
Compression mode : Lossy
Stream size : 123 MiB (3%)
Title : AVO | Антон Алексеев
Language : Russian
Service kind : Complete Main
Default : No
Forced : No
Audio #4
ID : 5
Format : AC-3
Format/Info : Audio Coding 3
Commercial name : Dolby Digital
Codec ID : A_AC3
Duration : 1 h 29 min
Bit rate mode : Constant
Bit rate : 192 kb/s
Channel(s) : 2 channels
Channel layout : L R
Sampling rate : 48.0 kHz
Frame rate : 31.250 FPS (1536 SPF)
Bit depth : 16 bits
Compression mode : Lossy
Stream size : 123 MiB (3%)
Title : VO | Ray
Language : Russian
Service kind : Complete Main
Default : No
Forced : No
Audio #5
ID : 6
Format : AC-3
Format/Info : Audio Coding 3
Commercial name : Dolby Digital
Codec ID : A_AC3
Duration : 1 h 29 min
Bit rate mode : Constant
Bit rate : 384 kb/s
Channel(s) : 6 channels
Channel layout : L R C LFE Ls Rs
Sampling rate : 48.0 kHz
Frame rate : 31.250 FPS (1536 SPF)
Bit depth : 16 bits
Compression mode : Lossy
Stream size : 246 MiB (5%)
Language : English
Service kind : Complete Main
Default : No
Forced : No
Text #1
ID : 7
Format : UTF-8
Codec ID : S_TEXT/UTF8
Codec ID/Info : UTF-8 Plain Text
Language : Russian
Default : No
Forced : No
Text #2
ID : 8
Format : UTF-8
Codec ID : S_TEXT/UTF8
Codec ID/Info : UTF-8 Plain Text
Language : English
Default : No
Forced : No
Text #3
ID : 9
Format : UTF-8
Codec ID : S_TEXT/UTF8
Codec ID/Info : UTF-8 Plain Text
Title : SDH
Language : English
Default : No
Forced : No
Menu
00:00:00.000 : en:Chapter 01
00:07:48.301 : en:Chapter 02
00:15:50.908 : en:Chapter 03
00:21:44.761 : en:Chapter 04
00:30:17.482 : en:Chapter 05
00:41:16.724 : en:Chapter 06
00:50:59.765 : en:Chapter 07
01:00:57.111 : en:Chapter 08
01:06:46.711 : en:Chapter 09
01:12:30.471 : en:Chapter 10
01:17:41.031 : en:Chapter 11
01:23:07.524 : en:Chapter 12
Скриншоты:
       

Clavik

Post 29-Aug-2019 22:29

[Quote]

Расплата / Payback (1999) BDRip - Производство: США / Icon Entertainment International, Icon Productions
Жанр: боевик, триллер, драма, криминал
Режиссер: Брайан Хелгеленд
Актеры: Мэл Гибсон, Грегг Генри, Мария Белло, Дэвид Пэймер, Билл Дьюк, Дебора Кара Ангер, Джон Гловер, Уильям Дивэйн, Люси Лиу, Джек Конли
Описание:
Член преступного могущественного синдиката должен заплатить своим боссам 130 тыс. долларов. Поэтому он приглашает Портера на дело. Вместе с ним и его женой они грабят автомобиль, в котором азиаты перевозят «грязные» деньги.
Но жене Портера подлый мафиози подсовывает фотографию мужа в объятиях проститутки, и супруга всаживает в благоверного пулю за пулей. Сочтя его мертвым, они забирают деньги и уезжают. Однако Портер не умер и через пять месяцев вернулся, чтобы расплатиться — вернуть свои деньги и отомстить.

Возраст: 18+ (зрителям, достигшим 18 лет. запрещено для детей)
Рейтинг MPAA: R (лицам до 17 лет обязательно присутствие взрослого)
Релиз от: HANNIBAL
Продолжительность: 01:41:19
Качество видео: BDRip
Перевод: Дублированный, авторский одноголосый
Субтитры: Русские, английские
Видео: HEVC/H.265, 1920x812, ~13.9 Mbps
Аудио 1: AC3, 6 ch, 384 Kbps - Русский, дублированный
Аудио 2: AC3, 6 ch, 448 Kbps - Русский, AVO (Д.Пучков)
Аудио 3: AC3, 6 ch, 448 Kbps - Английский

MediaInfo:

Общее
Уникальный идентификатор : 5667519234775353013464466927961092588 (0x4438645A9958B0D60E842817CBDB1EC)
Полное имя : F:\Payback (1999) 1080p [HEVC] 10bit.mkv
Формат : Matroska
Версия формата : Version 4 / Version 2
Размер файла : 10,7 Гбайт
Продолжительность : 1 ч. 41 м.
Общий поток : 15,2 Мбит/сек
Название фильма : Payback
Описание : Porter is bad, but his neighbours are worse. Street-wise and tough, an ex-marine, he is betrayed by a one-time partner, and shot in the back by his junkie wife. He survives and returns, looking to recover his share from the robbery of an Asian crime gang. The money has passed into the hands of "the Outfit", a slick gangster organisation that runs the city. He has to make his way through a world populated by heroin dealers, prostitutes, sado-masochists, gunmen and crooked cops, a place where torture is a way of life. His only friend is a former employer, a prostitute, and her loyalty is in question, given she now works for the Outfit. He makes good early progress, but then falls into the hands of Fairfax, the crime boss.
Дата кодирования : UTC 2019-04-23 17:12:30
Программа кодирования : mkvmerge v25.0.0 ('Prog Noir') 64-bit
Библиотека кодирования : libebml v1.3.6 + libmatroska v1.4.9 / Lavf57.71.100
Attachments : poster.jpg
ACTORS : Mel Gibson, Gregg Henry, Maria Bello, David Paymer
COUNTRY : USA
DATE : 1999
DIRECTOR : Brian Helgeland
ENCODING_INFO : MATROSKA,WEBM > MKV / VC1 > X265 CRF 17.0 Пользовательский 2
GENRE : Action, Crime, Drama, Thriller
HD_VIDEO : 1
IMDB_RATING : 7.1
ITUNEXTC : mpaa|R|400|
Язык : und
MEDIA_TYPE : 9
WRITER : Donald E. Westlake (novel), Brian Helgeland (screenplay), Terry Hayes (screenplay)
Видео
Идентификатор : 1
Формат : HEVC
Формат/Информация : High Efficiency Video Coding
Профиль формата : Main [url=mailto:[email protected]][email protected][/url]@High
Идентификатор кодека : V_MPEGH/ISO/HEVC
Продолжительность : 1 ч. 41 м.
Битрейт : 13,9 Мбит/сек
Ширина : 1920 пикселей
Высота : 812 пикселей
Соотношение сторон : 2,35:1
Режим частоты кадров : Постоянный
Частота кадров : 23,976 (24000/1001) кадра/сек
Цветовое пространство : YUV
Субдискретизация насыщенности : 4:2:0
Битовая глубина : 10 бит
Бит/(Пиксели*Кадры) : 0.372
Размер потока : 9,84 Гбайт (92%)
Заголовок : 1920x1080p (2.40:1), 23.976 fps, VC-1 ~17837 kbps
Библиотека кодирования : x265 2.9+9-f74003e88622:[Windows][GCC 8.2.0][64 bit] 10bit
Настройки программы : cpuid=1111039 / frame-threads=13 / numa-pools=12 / wpp / no-pmode / no-pme / no-psnr / no-ssim / log-level=3 / input-csp=1 / input-res=1920x812 / interlace=0 / total-frames=0 / level-idc=41 / high-tier=1 / uhd-bd=0 / ref=5 / allow-non-conformance / no-repeat-headers / annexb / no-aud / no-hrd / info / hash=0 / no-temporal-layers / open-gop / min-keyint=23 / keyint=240 / gop-lookahead=0 / bframes=8 / b-adapt=2 / b-pyramid / bframe-bias=0 / rc-lookahead=60 / lookahead-slices=4 / scenecut=40 / radl=0 / no-intra-refresh / ctu=64 / min-cu-size=8 / rect / amp / max-tu-size=32 / tu-inter-depth=4 / tu-intra-depth=4 / limit-tu=0 / rdoq-level=2 / dynamic-rd=0.00 / no-ssim-rd / signhide / no-tskip / nr-intra=0 / nr-inter=0 / no-constrained-intra / no-strong-intra-smoothing / max-merge=5 / limit-refs=2 / limit-modes / me=3 / subme=7 / merange=57 / temporal-mvp / weightp / weightb / no-analyze-src-pics / deblock=-3:-3 / no-sao / no-sao-non-deblock / rd=6 / no-early-skip / rskip / no-fast-intra / no-tskip-fast / no-cu-lossless / b-intra / no-splitrd-skip / rdpenalty=0 / psy-rd=2.00 / psy-rdoq=1.00 / no-rd-refine / no-lossless / cbqpoffs=0 / crqpoffs=0 / rc=crf / crf=17.0 / qcomp=0.70 / qpstep=4 / stats-write=0 / stats-read=0 / vbv-maxrate=50000 / vbv-bufsize=50000 / vbv-init=0.9 / crf-max=0.0 / crf-min=0.0 / ipratio=1.40 / pbratio=1.30 / aq-mode=2 / aq-strength=1.00 / no-cutree / zone-count=0 / no-strict-cbr / qg-size=32 / no-rc-grain / qpmax=69 / qpmin=0 / no-const-vbv / sar=1 / overscan=0 / videoformat=5 / range=0 / colorprim=1 / transfer=1 / colormatrix=1 / chromaloc=0 / display-window=0 / max-cll=0,0 / min-luma=0 / max-luma=1023 / log2-max-poc-lsb=8 / vui-timing-info / vui-hrd-info / slices=1 / no-opt-qp-pps / no-opt-ref-list-length-pps / no-multi-pass-opt-rps / scenecut-bias=0.05 / no-opt-cu-delta-qp / aq-motion / no-hdr / no-hdr-opt / no-dhdr10-opt / no-idr-recovery-sei / analysis-reuse-level=5 / scale-factor=0 / refine-intra=0 / refine-inter=0 / refine-mv=0 / no-limit-sao / ctu-info=0 / no-lowpass-dct / refine-mv-type=0 / copy-pic=1 / max-ausize-factor=1.0 / no-dynamic-refine / no-single-sei
Язык : English
Default : Да
Forced : Нет
Цветовой диапазон : Limited
Основные цвета : BT.709
Характеристики трансфера : BT.709
Коэффициенты матрицы : BT.709
Аудио #1
Идентификатор : 2
Формат : AC-3
Формат/Информация : Audio Coding 3
Идентификатор кодека : A_AC3
Продолжительность : 1 ч. 41 м.
Вид битрейта : Постоянный
Битрейт : 384 Кбит/сек
Каналы : 6 каналов
Расположение каналов : Front: L C R, Side: L R, LFE
Частота : 48,0 КГц
Частота кадров : 31,250 кадров/сек (1536 SPF)
Битовая глубина : 16 бит
Метод сжатия : С потерями
Размер потока : 278 Мбайт (3%)
Заголовок : Дублированный («Мосфильм»)
Язык : Russian
ServiceKind/String : Complete Main
Default : Да
Forced : Нет
Аудио #2
Идентификатор : 3
Формат : AC-3
Формат/Информация : Audio Coding 3
Идентификатор кодека : A_AC3
Продолжительность : 1 ч. 41 м.
Вид битрейта : Постоянный
Битрейт : 448 Кбит/сек
Каналы : 6 каналов
Расположение каналов : Front: L C R, Side: L R, LFE
Частота : 48,0 КГц
Частота кадров : 31,250 кадров/сек (1536 SPF)
Битовая глубина : 16 бит
Метод сжатия : С потерями
Размер потока : 325 Мбайт (3%)
Заголовок : Авторский Д.Пучков
Язык : Russian
ServiceKind/String : Complete Main
Default : Нет
Forced : Нет
Аудио #3
Идентификатор : 4
Формат : AC-3
Формат/Информация : Audio Coding 3
Идентификатор кодека : A_AC3
Продолжительность : 1 ч. 41 м.
Вид битрейта : Постоянный
Битрейт : 448 Кбит/сек
Каналы : 6 каналов
Расположение каналов : Front: L C R, Side: L R, LFE
Частота : 48,0 КГц
Частота кадров : 31,250 кадров/сек (1536 SPF)
Битовая глубина : 16 бит
Метод сжатия : С потерями
Размер потока : 325 Мбайт (3%)
Заголовок : Оригинал
Язык : English
ServiceKind/String : Complete Main
Default : Нет
Forced : Нет
Текст #1
Идентификатор : 5
Формат : UTF-8
Идентификатор кодека : S_TEXT/UTF8
Идентификатор кодека/Информация : UTF-8 Plain Text
Продолжительность : 1 ч. 39 м.
Битрейт : 60 бит/сек
ElementCount : 969
Размер потока : 44,3 Кбайт (0%)
Заголовок : full
Язык : Russian
Default : Нет
Forced : Нет
Текст #2
Идентификатор : 6
Формат : UTF-8
Идентификатор кодека : S_TEXT/UTF8
Идентификатор кодека/Информация : UTF-8 Plain Text
Продолжительность : 1 ч. 36 м.
Битрейт : 39 бит/сек
ElementCount : 972
Размер потока : 27,7 Кбайт (0%)
Заголовок : full
Язык : English
Default : Нет
Forced : Нет
Меню
00:00:00.000 : :Old habits
00:07:38.124 : :You're not dead
00:12:49.060 : :Not enough
00:20:16.590 : :Arthur Stegman
00:27:41.743 : :Can't you see I'm working?
00:34:28.190 : :Rosie
00:39:57.270 : :No hard feelings
00:43:30.650 : :Mr. Carter
00:48:52.429 : :New friends
00:56:15.831 : :What good are you?
01:02:10.101 : :Nobody has this number
01:05:43.481 : :Moving up in the world
01:13:50.593 : :Bury them first
01:16:30.628 : :Happy Birthday Johnny
01:19:49.118 : :Only seventy thousand?
01:25:44.890 : :This little piggy
01:32:57.030 : :24 Fielding
01:36:09.555 : :Aiming high

Внимание. H.265/HEVC:

H.265/HEVC (High Efficiency Video Coding) - это новый стандарт кодирования видео.
- Стандарт H.265/HEVC является логическим продолжением стандарта
H.264/AVC (Advanced Video Coding), и характеризуется более эффективными
алгоритмами сжатия, а также поддержкой высокого разрешения вплоть до 8K UHD
(8192x4320). Первая версия стандарта H.265 была опубликована в начале 2013 года.
- Рипы в фомате HEVC поддерживается не всеми аппаратными проигрывателями.
- Для корректного воспроизведения может потребоваться обновление ПО.
- Владельцам несовместимого железа просьба не беспокоить,
есть альтернативные релизы.
Скриншоты:
       

Clavik

Post 20-Aug-2019 19:10

[Quote]

Франкенштейн / Frankenstein (1994) BDRip - Производство: США, Япония, Великобритания / American Zoetrope, IndieProd Company Productions, Japan Satellite Broadcasting Inc. (JBS), TriStar Pictures
Жанр: Ужасы, фантастика, драма, мелодрама
Режиссер: Кеннет Брана
Актеры: Роберт Де Ниро, Кеннет Брана, Том Халс, Хелена Бонем Картер, Эйдан Куинн, Иэн Холм, Ричард Брирс, Джон Клиз, Роберт Харди, Шери Лунги
Описание:
Капитан Роберт Уолтон, исследователь, одержимый маниакальным стремлением во что бы то ни стало достичь Северного полюса, в арктической пустыне встречает доктора Виктора Франкенштейна, преследующего таинственное человекоподобное существо.
Узнав о цели капитана, Франкенштейн рассказывает ему свою печальную и жуткую историю. Еще в юности Виктор увлекся наукой. А после смерти матери твердо решил стать ученым и победить смерть. Его одержимость привела к ужасающе трагическим последствиям и для него самого, и для всех его близких…

Возраст: 16+ (зрителям, достигшим 16 лет)
Рейтинг MPAA: R (лицам до 17 лет обязательно присутствие взрослого)
Релиз от: k.e.n & MegaPeer
Продолжительность: 02:03:10
Качество видео: BDRip
Перевод: Дублированный, профессиональный многоголосый, авторский одноголосый
Субтитры: русские, английские
Видео: AVC, 1280x694, 23.976 fps, 5000 kbps
Аудио #1: AC3, 48 kHz, 6 ch, 448 kbps - (Русский - DUB)
Аудио #2: AC3, 48 kHz, 2 ch, 192 kbps - (Русский - MVO)
Аудио #3: AC3, 48 kHz, 6 ch, 448 kbps - (Русский - AVO, А.Гаврилов)
Аудио #4: AC3, 48 kHz, 2 ch, 192 kbps - (Русский - AVO, Ю.Сербин)
Аудио #5: AC3, 48 kHz, 2 ch, 192 kbps - (Русский - AVO, С.Визгунов)
Аудио #6: AC3, 48 kHz, 6 ch, 448 kbps - (Английский - оригинал)

MediaInfo:

Полное имя                               : D:\ФИЛЬМЫ\Франкенштейн Мэри Шелли.1994 (Р.Де Ниро).mkv
Формат : Matroska
Версия формата : Version 2
Размер файла : 5,95 Гбайт
Продолжительность : 2 ч. 3 м.
Общий поток : 6920 Кбит/сек
Дата кодирования : UTC 2019-08-20 08:51:34
Программа кодирования : mkvmerge v5.3.0 ('I could have danced') built on Feb 9 2012 10:38:07
Библиотека кодирования : libebml v1.2.3 + libmatroska v1.3.0
Attachments : poster.jpg
Видео
Идентификатор : 1
Формат : AVC
Формат/Информация : Advanced Video Codec
Профиль формата : [url=mailto:[email protected]][email protected][/url]
Настройки формата : CABAC / 9 Ref Frames
Параметр CABAC формата : Да
Параметр RefFrames формата : 9 кадров
Идентификатор кодека : V_MPEG4/ISO/AVC
Продолжительность : 2 ч. 3 м.
Битрейт : 5000 Кбит/сек
Ширина : 1280 пикселей
Высота : 694 пикселя
Соотношение сторон : 1,85:1
Режим частоты кадров : Постоянный
Частота кадров : 23,976 (24000/1001) кадра/сек
Цветовое пространство : YUV
Субдискретизация насыщенности : 4:2:0
Битовая глубина : 8 бит
Тип развёртки : Прогрессивная
Бит/(Пиксели*Кадры) : 0.235
Размер потока : 4,18 Гбайт (70%)
Библиотека кодирования : x264 core 157 r2945 72db437
Настройки программы : cabac=1 / ref=9 / deblock=1:-3:-3 / analyse=0x3:0x133 / me=umh / subme=11 / psy=1 / psy_rd=1.00:0.00 / mixed_ref=1 / me_range=32 / chroma_me=1 / trellis=2 / 8x8dct=1 / cqm=0 / deadzone=21,11 / fast_pskip=0 / chroma_qp_offset=-2 / threads=12 / lookahead_threads=3 / sliced_threads=0 / nr=0 / decimate=0 / interlaced=0 / bluray_compat=0 / constrained_intra=0 / bframes=10 / b_pyramid=2 / b_adapt=2 / b_bias=0 / direct=3 / weightb=1 / open_gop=0 / weightp=2 / keyint=240 / keyint_min=23 / scenecut=40 / intra_refresh=0 / rc=2pass / mbtree=0 / bitrate=5000 / ratetol=1.0 / qcomp=0.65 / qpmin=0 / qpmax=69 / qpstep=4 / cplxblur=20.0 / qblur=0.5 / ip_ratio=1.30 / pb_ratio=1.30 / aq=3:0.90
Язык : English
Default : Да
Forced : Нет
Цветовой диапазон : Limited
Основные цвета : BT.709
Характеристики трансфера : BT.709
Коэффициенты матрицы : BT.709
Аудио #1
Идентификатор : 2
Формат : AC-3
Формат/Информация : Audio Coding 3
Коммерческое название : Dolby Digital
Идентификатор кодека : A_AC3
Продолжительность : 2 ч. 3 м.
Вид битрейта : Постоянный
Битрейт : 448 Кбит/сек
Каналы : 6 каналов
ChannelLayout : L R C LFE Ls Rs
Частота : 48,0 КГц
Частота кадров : 31,250 кадров/сек (1536 SPF)
Битовая глубина : 16 бит
Метод сжатия : С потерями
Размер потока : 395 Мбайт (6%)
Заголовок : DUB
Язык : Russian
ServiceKind/String : Complete Main
Default : Да
Forced : Нет
Аудио #2
Идентификатор : 3
Формат : AC-3
Формат/Информация : Audio Coding 3
Коммерческое название : Dolby Digital
Идентификатор кодека : A_AC3
Продолжительность : 2 ч. 3 м.
Вид битрейта : Постоянный
Битрейт : 192 Кбит/сек
Каналы : 2 канала
ChannelLayout : L R
Частота : 48,0 КГц
Частота кадров : 31,250 кадров/сек (1536 SPF)
Битовая глубина : 16 бит
Метод сжатия : С потерями
Размер потока : 169 Мбайт (3%)
Заголовок : MVO
Язык : Russian
ServiceKind/String : Complete Main
Default : Нет
Forced : Нет
Аудио #3
Идентификатор : 4
Формат : AC-3
Формат/Информация : Audio Coding 3
Коммерческое название : Dolby Digital
Идентификатор кодека : A_AC3
Продолжительность : 2 ч. 3 м.
Вид битрейта : Постоянный
Битрейт : 448 Кбит/сек
Каналы : 6 каналов
ChannelLayout : L R C LFE Ls Rs
Частота : 48,0 КГц
Частота кадров : 31,250 кадров/сек (1536 SPF)
Битовая глубина : 16 бит
Метод сжатия : С потерями
Размер потока : 395 Мбайт (6%)
Заголовок : AVO А.Гаврилов
Язык : Russian
ServiceKind/String : Complete Main
Default : Нет
Forced : Нет
Аудио #4
Идентификатор : 5
Формат : AC-3
Формат/Информация : Audio Coding 3
Коммерческое название : Dolby Digital
Идентификатор кодека : A_AC3
Продолжительность : 2 ч. 3 м.
Вид битрейта : Постоянный
Битрейт : 192 Кбит/сек
Каналы : 2 канала
ChannelLayout : L R
Частота : 48,0 КГц
Частота кадров : 31,250 кадров/сек (1536 SPF)
Битовая глубина : 16 бит
Метод сжатия : С потерями
Размер потока : 169 Мбайт (3%)
Заголовок : AVO Ю.Сербин
Язык : Russian
ServiceKind/String : Complete Main
Default : Нет
Forced : Нет
Аудио #5
Идентификатор : 6
Формат : AC-3
Формат/Информация : Audio Coding 3
Коммерческое название : Dolby Digital
Идентификатор кодека : A_AC3
Продолжительность : 2 ч. 3 м.
Вид битрейта : Постоянный
Битрейт : 192 Кбит/сек
Каналы : 2 канала
ChannelLayout : L R
Частота : 48,0 КГц
Частота кадров : 31,250 кадров/сек (1536 SPF)
Битовая глубина : 16 бит
Метод сжатия : С потерями
Размер потока : 169 Мбайт (3%)
Заголовок : AVO С.Визгунов
Язык : Russian
ServiceKind/String : Complete Main
Default : Нет
Forced : Нет
Аудио #6
Идентификатор : 7
Формат : AC-3
Формат/Информация : Audio Coding 3
Коммерческое название : Dolby Digital
Идентификатор кодека : A_AC3
Продолжительность : 2 ч. 3 м.
Вид битрейта : Постоянный
Битрейт : 448 Кбит/сек
Каналы : 6 каналов
ChannelLayout : L R C LFE Ls Rs
Частота : 48,0 КГц
Частота кадров : 31,250 кадров/сек (1536 SPF)
Битовая глубина : 16 бит
Метод сжатия : С потерями
Размер потока : 395 Мбайт (6%)
Заголовок : Original
Язык : English
ServiceKind/String : Complete Main
Default : Нет
Forced : Нет
Текст #1
Идентификатор : 8
Формат : UTF-8
Идентификатор кодека : S_TEXT/UTF8
Идентификатор кодека/Информация : UTF-8 Plain Text
Заголовок : full
Язык : English
Default : Нет
Forced : Нет
Текст #2
Идентификатор : 9
Формат : UTF-8
Идентификатор кодека : S_TEXT/UTF8
Идентификатор кодека/Информация : UTF-8 Plain Text
Заголовок : full
Язык : Russian
Default : Нет
Forced : Нет
Меню
00:00:00.000 : :Chapter 1
00:07:31.784 : :Chapter 2
00:13:46.617 : :Chapter 3
00:20:19.051 : :Chapter 4
00:30:20.360 : :Chapter 5
00:35:45.101 : :Chapter 6
00:43:30.065 : :Chapter 7
00:50:27.232 : :Chapter 8
00:56:47.529 : :Chapter 9
01:03:01.152 : :Chapter 10
01:13:12.513 : :Chapter 11
01:21:36.808 : :Chapter 12
01:30:09.821 : :Chapter 13
01:37:28.968 : :Chapter 14
01:44:06.073 : :Chapter 15
01:52:59.981 : :Chapter 16
Скриншоты:
       

Varius

Post 19-May-2019 20:30

[Quote]

Водопой №3 / Waterhole #3 (1967) WEB-DLRip [H.264] - Производство: США / Geoffrey Productions Inc.
Жанр: Комедия, Вестерн
Режиссер: Уильям А. Грэм
Продюсер: Джозеф Т. Стэк, Оуэн Крамп, Кен Уэльс
Актеры: Джеймс Коберн, Кэррол О’Коннор, Маргарет Блай, Клод Экинс, Тимоти Кэри, Брюс Дерн, Джоан Блонделл, Джеймс Уитмор, Гарри ДэвисЯ, Рой Дженсон
Описание:
Три проходимца решили облегчить армию США на ящик золота. Все прошло гладко. Потом, для безопасности, они разбежались, договорившись, что встретятся и разделят золото позднее. Один из бандитов спрятал золото в укромном месте, о котором знал он один…

Продолжительность: 01:35:51
Качество видео: WEB-DLRip
Перевод: Многоголосый закадровый, одноголосый закадровый
Субтитры: Русские, английские
Видео: AVC/H.264, 1024x432, ~2875 Kbps
Аудио 1: AC3, 2 ch, 192 Kbps, 48.0 kHz – Русский MVO, Paramount Channel
Аудио 2: AC3, 2 ch, 192 Kbps, 48.0 kHz – Русский VO, 2 Stalk
Аудио 3: AC3, 2 ch, 192 Kbps, 48.0 kHz – Английский

Mediainfo:

Общее
Уникальный идентификатор : 186915784265478232747950331870811903897 (0x8C9EABAC6983DB4A8BC4D1D92245D799)
Полное имя : B:\Downloads\Водопой №3. 1967. NNMCLUB.mkv
Формат : Matroska
Версия формата : Version 4 / Version 2
Размер файла : 2,31 Гбайт
Продолжительность : 1 ч. 35 м.
Общий поток : 3451 Кбит/сек
Дата кодирования : UTC 2019-05-19 05:23:21
Программа кодирования : mkvmerge v7.9.0 ('Birds') 64bit
Библиотека кодирования : libebml v1.3.1 + libmatroska v1.4.2
Видео
Идентификатор : 1
Формат : AVC
Формат/Информация : Advanced Video Codec
Профиль формата : [url=mailto:[email protected]][email protected][/url]
Настройки формата : CABAC / 12 Ref Frames
Параметр CABAC формата : Да
Параметр RefFrames формата : 12 кадров
Идентификатор кодека : V_MPEG4/ISO/AVC
Продолжительность : 1 ч. 35 м.
Битрейт : 2875 Кбит/сек
Ширина : 1024 пикселя
Высота : 432 пикселя
Соотношение сторон : 2,40:1
Режим частоты кадров : Постоянный
Частота кадров : 23,976 (24000/1001) кадра/сек
Цветовое пространство : YUV
Субдискретизация насыщенности : 4:2:0
Битовая глубина : 8 бит
Тип развёртки : Прогрессивная
Бит/(Пиксели*Кадры) : 0.271
Размер потока : 1,93 Гбайт (83%)
Заголовок : Waterhole #3
Библиотека кодирования : x264 core 146 r2538 121396c
Настройки программы : cabac=1 / ref=12 / deblock=1:-1:-1 / analyse=0x3:0x113 / me=umh / subme=10 / psy=1 / psy_rd=1.00:0.10 / mixed_ref=1 / me_range=32 / chroma_me=1 / trellis=2 / 8x8dct=1 / cqm=0 / deadzone=21,11 / fast_pskip=0 / chroma_qp_offset=-3 / threads=6 / lookahead_threads=1 / sliced_threads=0 / nr=0 / decimate=0 / interlaced=0 / bluray_compat=0 / constrained_intra=0 / bframes=7 / b_pyramid=2 / b_adapt=2 / b_bias=0 / direct=3 / weightb=1 / open_gop=0 / weightp=2 / keyint=250 / keyint_min=25 / scenecut=40 / intra_refresh=0 / rc_lookahead=60 / rc=2pass / mbtree=1 / bitrate=2875 / ratetol=1.0 / qcomp=0.60 / qpmin=0 / qpmax=69 / qpstep=4 / cplxblur=20.0 / qblur=0.5 / vbv_maxrate=14000 / vbv_bufsize=14000 / nal_hrd=none / filler=0 / ip_ratio=1.40 / aq=1:1.00
Язык : English
Default : Да
Forced : Нет
Аудио #1
Идентификатор : 2
Формат : AC-3
Формат/Информация : Audio Coding 3
Идентификатор кодека : A_AC3
Продолжительность : 1 ч. 35 м.
Вид битрейта : Постоянный
Битрейт : 192 Кбит/сек
Каналы : 2 канала
Расположение каналов : Front: L R
Частота : 48,0 КГц
Частота кадров : 31,250 кадров/сек (1536 SPF)
Битовая глубина : 16 бит
Метод сжатия : С потерями
Размер потока : 131 Мбайт (6%)
Заголовок : Многоголосый закадровый, Paramount Channel
Язык : Russian
ServiceKind/String : Complete Main
Default : Да
Forced : Нет
Аудио #2
Идентификатор : 3
Формат : AC-3
Формат/Информация : Audio Coding 3
Идентификатор кодека : A_AC3
Продолжительность : 1 ч. 35 м.
Вид битрейта : Постоянный
Битрейт : 192 Кбит/сек
Каналы : 2 канала
Расположение каналов : Front: L R
Частота : 48,0 КГц
Частота кадров : 31,250 кадров/сек (1536 SPF)
Битовая глубина : 16 бит
Метод сжатия : С потерями
Размер потока : 131 Мбайт (6%)
Заголовок : Одноголосый закадровый, 2 Stalk
Язык : Russian
ServiceKind/String : Complete Main
Default : Нет
Forced : Нет
Аудио #3
Идентификатор : 4
Формат : AC-3
Формат/Информация : Audio Coding 3
Идентификатор кодека : A_AC3
Продолжительность : 1 ч. 35 м.
Вид битрейта : Постоянный
Битрейт : 192 Кбит/сек
Каналы : 2 канала
Расположение каналов : Front: L R
Частота : 48,0 КГц
Частота кадров : 31,250 кадров/сек (1536 SPF)
Битовая глубина : 16 бит
Метод сжатия : С потерями
Размер потока : 131 Мбайт (6%)
Заголовок : Английский
Язык : English
ServiceKind/String : Complete Main
Default : Нет
Forced : Нет
Текст #1
Идентификатор : 5
Формат : UTF-8
Идентификатор кодека : S_TEXT/UTF8
Идентификатор кодека/Информация : UTF-8 Plain Text
Продолжительность : 1 ч. 35 м.
Битрейт : 88 бит/сек
ElementCount : 980
Размер потока : 61,8 Кбайт (0%)
Заголовок : SRT
Язык : Russian
Default : Нет
Forced : Нет
Текст #2
Идентификатор : 6
Формат : UTF-8
Идентификатор кодека : S_TEXT/UTF8
Идентификатор кодека/Информация : UTF-8 Plain Text
Продолжительность : 1 ч. 35 м.
Битрейт : 55 бит/сек
ElementCount : 1321
Размер потока : 38,8 Кбайт (0%)
Заголовок : SDH
Язык : English
Default : Нет
Forced : Нет
Скриншоты:
       

Дополнительные скриншоты:

       

Theseus

Post 10-Sep-2017 23:44

[Quote]

Город тьмы / Темный город / Dark City
Режиссерская версия / Director's cut
Год выхода: 1998
Страна: Австралия, США
Жанр: фантастика, фэнтези, боевик, триллер
Продолжительность: 01:51:43
Перевод: Профессиональный (многоголосый закадровый) | Киномания
Субтитры: Русские (2 вида), Английские | Внешние
Режиссер: Алекс Пройас-В ролях: Руфус Сьюэлл, Уильям Хёрт, Кифер Сазерленд, Дженнифер Коннелли, Ричард О’Брайэн, Иэн Ричардсон, Брюс Спенс, Колин Фрилз, Джон Блузал, Митчел Бутел-О фильме: Убийцу, не помнящего своего имени и прошлого, преследует полицейский инспектор Фрэнк Бастед. Его ищет жена Эмма, за ним охотятся чужаки, а он по обрывкам воспоминаний пытается разобраться в том, что происходит.- -Качество: BDRip
Формат: AVI
Видео кодек: XviD
Аудио кодек: AC3
Видео: 720x304 (2.37:1), 23.976 fps, XviD build 50 ~1894 kbps avg, 0.36 bit/pixel
Аудио 1: Rus; 48 kHz, AC3 Dolby Digital, 3/2 (L,C,R,l,r) + LFE ch, ~448 kbps
Аудио 2: Eng; 48 kHz, AC3 Dolby Digital, 3/2 (L,C,R,l,r) + LFE ch, ~448 kbps-

Трейлер

-     - - -

bard0962

Post 07-Feb-2017 20:00

[Quote]

-Храм Шаолинь 3: Боевые искусства Шаолиня / Nan bei Shao Lin / Martial arts of Shaolin- Год выпуска: 1986
Страна: Гонконг, Китай
Жанр: боевик
Продолжительность: 01:29:47
Перевод: Любительский (одноголосый закадровый)
Режиссер: Чиа-Лянг Лиу сценарий Yang-Ping Shi

В ролях: Джет Ли, Квингфу Пан, Ху Джиан Кванг, Chau-Yin Wong, Cheng-Hui Yu, Хай Ю
Описание: Жи Минг, монах из северного Храма Шаолиня узнает, что жестокий правитель, который убил его родителей, устраивает празднество по случаю своего дня рождения. Планируя отомстить диктатору, монах находит еще двух помошников из южного Шаолиня.
Качество: DVDRip
Видео: XviD, 2128 Кбит/с, 720x320, 29,970 кадр/сек, 0.308Бит/(Пиксели*Кадры)
Аудио: AC3, 2 ch, 192 Кбит/с, 48,0 КГц

MI

General
Complete name : Hram Shaolinya III_Boevie.iskusstva.Shaolinya.DVDRip.avi
Format : AVI
Format/Info : Audio Video Interleave
File size : 1.46 GiB
Duration : 1h 29mn
Overall bit rate : 2 325 Kbps
Writing application : VirtualDubMod 1.5.4.1 (build 2178/release)
Writing library : VirtualDubMod build 2178/release
Video #0
ID : 0
Format : MPEG-4 Visual
Format profile : Advanced [email protected]
Format settings, BVOP : 1
Format settings, QPel : No
Format settings, GMC : No warppoints
Format settings, Matrix : Custom
Codec ID : XVID
Codec ID/Hint : XviD
Duration : 1h 29mn
Bit rate : 2 126 Kbps
Width : 720 pixels
Height : 320 pixels
Display aspect ratio : 2.25:1
Frame rate : 29.970 fps
Color space : YUV
Chroma subsampling : 4:2:0
Bit depth : 8 bits
Scan type : Progressive
Compression mode : Lossy
Bits/(Pixel*Frame) : 0.308
Stream size : 1.33 GiB (91%)
Writing library : XviD 1.2.0.dev47 (UTC 2006-11-01)
Audio #1
ID : 1
Format : AC-3
Format/Info : Audio Coding 3
Mode extension : CM (complete main)
Codec ID : 2000
Duration : 1h 29mn
Bit rate mode : Constant
Bit rate : 192 Kbps
Channel(s) : 2 channels
Channel positions : Front: L R
Sampling rate : 48.0 KHz
Bit depth : 16 bits
Compression mode : Lossy
Stream size : 123 MiB (8%)
Alignment : Split accross interleaves
Interleave, duration : 96 ms (2.88 video frames)
Interleave, preload duration : 96 ms
-        -

}{@R0N

Post 30-Jan-2017 20:51

[Quote]

Короткое замыкание / Short Circuit - Производство: США
Жанр: Фантастика, комедия, семейный
Режиссер: Джон Бэдэм
Актеры: Элли Шиди, Стив Гуттенберг, Фишер Стивенс, Остин Пендлтон, Брайан МакНамара, Тим Блэйни, Марвин Дж. МакИнтайр, Джон Гарбер, Пенни Сантон, Вернон Уиддл
Описание: Разряд молнии попадает в робота под номером 5, и он оживает наподобие создания Франкенштейна. Вся штука в том, что его создатель и те, кто замыслил использовать робота в военных целях, не подозревали даже, какой могучий заряд ч
[imdb][/imdb]

Возраст: 12+ (зрителям, достигшим 12 лет)
Рейтинг MPAA: PG (рекомендуется присутствие родителей)
Продолжительность: 01:38:34
Качество видео: HDRip (AVC)
Перевод: Дублированный, профессиональный многоголосый, авторский
Субтитры: Отсутствуют
Видео: AVC, 1232x512 (2.40:1), 29.970 fps, 2 926 Kbps (0.155 bit/pixel)
Аудио #1: AC-3, 48.0 KHz, 2 ch, 192 Kbps, CBR | Дублированный
Аудио #2: AC-3, 48.0 KHz, 2 ch, 192 Kbps, CBR | Многоголосый
Аудио #3: AC-3, 48.0 KHz, 2 ch, 192 Kbps, CBR | Авторский (Живов)
Аудио #4: AC-3, 48.0 KHz, 2 ch, 192 Kbps, CBR | Английский

MediaInfo:

Общее
Уникальный идентификатор : 179729844448992165334743880520911516859 (0x8736B57C98A1B85784B585AC3DDB74BB)
Полное имя : C:\NNM\Короткое замыкание\Korotkoe zamykanie 1986 HDRip.mkv
Формат : Matroska
Версия формата : Version 4 / Version 2
Размер файла : 2,59 Гбайт
Продолжительность : 1 ч. 38 м.
Общий поток : 3769 Кбит/сек
Дата кодирования : UTC 2017-01-30 16:52:45
Программа кодирования : mkvmerge v6.9.1 ('Blue Panther') 32bit built on Apr 18 2014 18:15:44
Библиотека кодирования : libebml v1.3.0 + libmatroska v1.4.1
Видео
Идентификатор : 1
Формат : AVC
Формат/Информация : Advanced Video Codec
Профиль формата : [email protected]
Параметр CABAC формата : Да
Параметр ReFrames формата : 9 кадров
Идентификатор кодека : V_MPEG4/ISO/AVC
Продолжительность : 1 ч. 38 м.
Битрейт : 2926 Кбит/сек
Ширина : 1232 пикселя
Высота : 512 пикселей
Соотношение сторон : 2,40:1
Режим частоты кадров : Постоянный
Частота кадров : 29,970 (30000/1001) кадров/сек
Цветовое пространство : YUV
Субдискретизация насыщенности : 4:2:0
Битовая глубина : 8 бит
Тип развёртки : Прогрессивная
Бит/(Пиксели*Кадры) : 0.155
Размер потока : 2,01 Гбайт (78%)
Заголовок : Короткой замыкание / Short Circuit [by Juicy_J] [x264, 1232x512 (2.406:1), 2876kbps, 29,970fps, 0,152b/px]
Библиотека кодирования : x264 core 68 r1183M f21daff
Настройки программы : cabac=1 / ref=9 / deblock=1:-2:-1 / analyse=0x3:0x113 / me=umh / subme=7 / psy_rd=1.3:0.5 / mixed_ref=1 / me_range=24 / chroma_me=1 / trellis=1 / 8x8dct=1 / cqm=0 / deadzone=21,11 / chroma_qp_offset=-4 / threads=3 / nr=0 / decimate=1 / mbaff=0 / bframes=6 / b_pyramid=1 / b_adapt=2 / b_bias=0 / direct=1 / wpredb=1 / keyint=250 / keyint_min=25 / scenecut=40 / rc=crf / crf=23.2 / qcomp=0.60 / qpmin=10 / qpmax=51 / qpstep=4 / ip_ratio=1.40 / pb_ratio=1.30 / aq=1:1.10
Язык : English
Default : Да
Forced : Нет
Аудио #1
Идентификатор : 2
Формат : AC-3
Формат/Информация : Audio Coding 3
Расширение режима : CM (complete main)
Параметр Endianness формата : Big
Идентификатор кодека : A_AC3
Продолжительность : 1 ч. 38 м.
Вид битрейта : Постоянный
Битрейт : 192 Кбит/сек
Каналы : 2 канала
Расположение каналов : Front: L R
Частота : 48,0 КГц
Частота кадров : 31,250 кадров/сек (1536 spf)
Битовая глубина : 16 бит
Метод сжатия : С потерями
Размер потока : 135 Мбайт (5%)
Заголовок : Rus DUB
Язык : Russian
Default : Да
Forced : Нет
Аудио #2
Идентификатор : 3
Формат : AC-3
Формат/Информация : Audio Coding 3
Расширение режима : CM (complete main)
Параметр Endianness формата : Big
Идентификатор кодека : A_AC3
Продолжительность : 1 ч. 38 м.
Вид битрейта : Постоянный
Битрейт : 192 Кбит/сек
Каналы : 2 канала
Расположение каналов : Front: L R
Частота : 48,0 КГц
Частота кадров : 31,250 кадров/сек (1536 spf)
Битовая глубина : 16 бит
Метод сжатия : С потерями
Размер потока : 135 Мбайт (5%)
Заголовок : Rus MVO
Язык : Russian
Default : Нет
Forced : Нет
Аудио #3
Идентификатор : 4
Формат : AC-3
Формат/Информация : Audio Coding 3
Расширение режима : CM (complete main)
Параметр Endianness формата : Big
Идентификатор кодека : A_AC3
Продолжительность : 1 ч. 38 м.
Вид битрейта : Постоянный
Битрейт : 192 Кбит/сек
Каналы : 2 канала
Расположение каналов : Front: L R
Частота : 48,0 КГц
Частота кадров : 31,250 кадров/сек (1536 spf)
Битовая глубина : 16 бит
Метод сжатия : С потерями
Размер потока : 135 Мбайт (5%)
Заголовок : AVO Zhivov
Язык : Russian
Default : Нет
Forced : Нет
Аудио #4
Идентификатор : 5
Формат : AC-3
Формат/Информация : Audio Coding 3
Расширение режима : CM (complete main)
Параметр Endianness формата : Big
Идентификатор кодека : A_AC3
Продолжительность : 1 ч. 38 м.
Вид битрейта : Постоянный
Битрейт : 192 Кбит/сек
Каналы : 2 канала
Расположение каналов : Front: L R
Частота : 48,0 КГц
Частота кадров : 31,250 кадров/сек (1536 spf)
Битовая глубина : 16 бит
Метод сжатия : С потерями
Размер потока : 135 Мбайт (5%)
Заголовок : Eng
Язык : English
Default : Нет
Forced : Нет
Текст
Идентификатор : 6
Формат : UTF-8
Идентификатор кодека : S_TEXT/UTF8
Идентификатор кодека/Информация : UTF-8 Plain Text
Заголовок : русские
Язык : Russian
Default : Нет
Forced : Нет
Скриншоты:        
 

The time now is: Today 09:02

All times are GMT + 3 Hours