Today is a free download without charge Download

Search found 500 matches

Author Message

Clavik

Post 20-Sep-2019 17:25

[Quote]

ガイコツ書店員本田さん | Gaikotsu Shotenin Honda-san
Skull-face Bookseller Honda-san | Скелет-книжник Хонда
- Тип: ТВ
Жанр: комедия, повседневность
Продолжительность: 12 эпизодов по ~15 мин.
Количество серий: 12 эп.
Дата выпуска: c 08.10.2018 по 24.12.2018
Производство: Япония, DLE
Режиссер: Тодороки Ору
Описание:В самом обычном японском книжном работает отнюдь не обычный продавец по имени Хонда. Чем же он так необычен? Да тем, что он — скелет! Он и его экстравагантные коллеги на личном примере покажут, как весело и вместе с тем тяжело бывает работать в книжном.© crunchyroll
Ссылки:
World-Art | AniDB
Язык озвучки: Японский
Субтитры: ass, внешние, русские
Перевод: crunchyroll
Качество видео: WEBRip [Erai-raws]
Видео: AVC/H.264, 1280x720, 29.970 fps, ~2 002 Kbps
Аудио: AAC LC, 44.1 kHz, 128 Kbps--Скриншоты:        

Дополнительные скриншоты:

       

Эпизоды:

1. The Handsome Guy Is First in Line / Yaoi Girls from Overseas!!!
2. Let Me Introduce My Crazy Colleagues in This Bookstore! / Books, Written Instructions, and Me / Go! Azarashi-san
3. Battle Without Honor and Humanity / Lost in Manga
4. The Reception Training of Hell / Mission: An Outside Work-ish Job
5. An Inquiry / It`s a Book Signing!! Everyone Gather Up / A Fascinating Erotic Story
6. The Man with a Secret Power / Our Fair-Day War
7. Tell Me! Wholesaler-san / A Networking Drinking Party for Booksellers
8. Bookstores Are So Wonderful! / The Shelves with and Without Restrictions
9. A Book About Life, Death, and Rebirth
10. An Outstanding Bookseller / Swapping Section Heads
11. The Alternate Skull-face Bookseller Honda-san / You Can Quit Your Job Whenever You Want
12. Merry Christmas, Mr. Bookstore / It`s Time to Close

MediaInfo:

Format                      : Matroska
Format version : Version 4 / Version 2
File size : 176 MiB
Duration : 11 min 32 s
Overall bit rate : 2 133 kb/s
Encoded date : UTC 2019-08-01 07:02:10
Writing application : mkvmerge v35.0.0 ('All The Love In The World') 64-bit
Writing library : libebml v1.3.9 + libmatroska v1.5.2
Video
ID : 1
Format : AVC
Format/Info : Advanced Video Codec
Format profile : [email protected]
Format settings : CABAC / 6 Ref Frames
Format settings, CABAC : Yes
Format settings, ReFrames : 6 frames
Codec ID : V_MPEG4/ISO/AVC
Duration : 11 min 32 s
Bit rate : 2 002 kb/s
Width : 1 280 pixels
Height : 720 pixels
Display aspect ratio : 16:9
Frame rate mode : Constant
Frame rate : 29.970 (30000/1001) FPS
Color space : YUV
Chroma subsampling : 4:2:0
Bit depth : 8 bits
Scan type : Progressive
Bits/(Pixel*Frame) : 0.072
Stream size : 165 MiB (94%)
Writing library : x264 core 142
Encoding settings : cabac=1 / ref=6 / deblock=1:1:1 / analyse=0x3:0x113 / me=umh / subme=8 / psy=1 / psy_rd=0.40:0.00 / mixed_ref=1 / me_range=16 / chroma_me=1 / trellis=1 / 8x8dct=1 / cqm=0 / deadzone=21,11 / fast_pskip=1 / chroma_qp_offset=-2 / threads=10 / lookahead_threads=1 / sliced_threads=0 / nr=0 / decimate=1 / interlaced=0 / bluray_compat=0 / constrained_intra=0 / bframes=3 / b_pyramid=2 / b_adapt=2 / b_bias=0 / direct=3 / weightb=1 / open_gop=0 / weightp=2 / keyint=60 / keyint_min=31 / scenecut=0 / intra_refresh=0 / rc_lookahead=50 / rc=crf / mbtree=1 / crf=15.0 / qcomp=0.60 / qpmin=0 / qpmax=69 / qpstep=4 / vbv_maxrate=4000 / vbv_bufsize=6000 / crf_max=0.0 / nal_hrd=none / filler=0 / ip_ratio=1.40 / aq=1:0.60
Default : Yes
Forced : No
Audio
ID : 2
Format : AAC LC
Format/Info : Advanced Audio Codec Low Complexity
Codec ID : A_AAC-2
Duration : 11 min 32 s
Bit rate : 128 kb/s
Channel(s) : 2 channels
Channel layout : L R
Sampling rate : 44.1 kHz
Frame rate : 43.066 FPS (1024 SPF)
Compression mode : Lossy
Delay relative to video : -66 ms
Stream size : 10.6 MiB (6%)
Language : Japanese
Default : Yes
Forced : No

Clavik

Post 11-Sep-2019 17:30

[Quote]

Big Order | Приказ свыше - Тип: TV
Жанр: Приключения, Мистика
Продолжительность: 10 эп. по 25 мин.
Количество серий: 10
Дата выпуска: c 16.04.2016 по 18.06.2016
Производство: Япония, asread
Режиссер: Каманака Нобухару
Ссылки: World-Art
Описание:
Главный герой, Хошимия Эйджи, на вид обычный японский школьник, нахальный и необщительный парень, которому совершенно плевать на учёбу. Но у него есть весьма интересный секрет: ещё будучи мальчишкой, он пожелал уничтожения всего мира. И его желание было исполнено! Страшный катаклизм прокатился по Земле, что обернулось огромными разрушениями и многочисленными смертями. Но помимо этого, многие люди также обрели силу, что позволяет им исполнить их желания. Этих людей называют Приказами, и с каждым днём их становится всё больше. Люди боятся их, и пытаются ограничить их, но это не так просто, ведь почти все Приказы – жестокие психи, использующие свои способности для того, чтобы творить хаос и беспредел. До сих пор Хошимия скрывал свою силу и жил относительно мирной жизнью, но в его школу переводится милая, но таинственная девушка, и тогда его жизнь лихо меняется. А точнее, превращается в сплошное безумие!
Язык озвучки: Японский и русский
Субтитры: Отсутствуют
Качество видео: BDRip
Видео: AVC, 1920x1080, ~5171 Kbps, 0.104 bpp
Аудио #1: AAC 2.0, 48.0 KHz, 192 Kbps
Аудио #2: FLAC 2.0, 48.0 KHz, 1370 KbpsСкриншоты:
       

Эпизоды:

01. Order! Awaken, Evil Powers!
02. Order! Run, Don't Hesitate!
03. Order! Execute Strategies!
04. Order! Amidst Resentment!
05. Order! Don't Forget Your Wish!
06. Order! Merge, Souls!
07. Order! Protect Your Beliefs!
08. Order! Hurry to the Battlefield!
09. Order! Uncover the Truth!
10. Order! Fight and Believe in Yourself!

MediaInfo:

Format                      : Matroska
Format version : Version 4
File size : 1.14 GiB
Duration : 24 min 13 s
Overall bit rate mode : Variable
Overall bit rate : 6 736 kb/s
Encoded date : UTC 2019-08-15 04:43:06
Writing application : mkvmerge v33.1.0 ('Primrose') 64-bit
Writing library : libebml v1.3.7 + libmatroska v1.5.0
Video
ID : 1
Format : AVC
Format/Info : Advanced Video Codec
Format profile : [email protected]
Format settings : CABAC / 5 Ref Frames
Format settings, CABAC : Yes
Format settings, ReFrames : 5 frames
Codec ID : V_MPEG4/ISO/AVC
Duration : 24 min 13 s
Bit rate : 5 171 kb/s
Width : 1 920 pixels
Height : 1 080 pixels
Display aspect ratio : 16:9
Frame rate mode : Constant
Frame rate : 23.976 (24000/1001) FPS
Color space : YUV
Chroma subsampling : 4:2:0
Bit depth : 8 bits
Scan type : Progressive
Bits/(Pixel*Frame) : 0.104
Stream size : 896 MiB (77%)
Writing library : x264 core 157 r2935 545de2f
Encoding settings : cabac=1 / ref=5 / deblock=1:1:1 / analyse=0x3:0x113 / me=umh / subme=9 / psy=1 / psy_rd=1.00:0.00 / mixed_ref=1 / me_range=32 / chroma_me=1 / trellis=1 / 8x8dct=1 / cqm=0 / deadzone=21,11 / fast_pskip=0 / chroma_qp_offset=-2 / threads=34 / lookahead_threads=2 / sliced_threads=0 / nr=0 / decimate=1 / interlaced=0 / bluray_compat=0 / stitchable=1 / constrained_intra=0 / bframes=3 / b_pyramid=2 / b_adapt=2 / b_bias=0 / direct=1 / weightb=1 / open_gop=0 / weightp=1 / keyint=240 / keyint_min=23 / scenecut=40 / intra_refresh=0 / rc_lookahead=40 / rc=crf / mbtree=1 / crf=16.0 / qcomp=0.60 / qpmin=0 / qpmax=69 / qpstep=4 / ip_ratio=1.40 / aq=1:1.00
Language : Japanese
Default : Yes
Forced : No
Audio #1
ID : 2
Format : AAC LC
Format/Info : Advanced Audio Codec Low Complexity
Codec ID : A_AAC-2
Duration : 24 min 13 s
Bit rate : 192 kb/s
Channel(s) : 2 channels
Channel layout : L R
Sampling rate : 48.0 kHz
Frame rate : 46.875 FPS (1024 SPF)
Compression mode : Lossy
Stream size : 33.3 MiB (3%)
Title : AniLibria
Language : Russian
Default : Yes
Forced : No
Audio #2
ID : 3
Format : FLAC
Format/Info : Free Lossless Audio Codec
Codec ID : A_FLAC
Duration : 24 min 13 s
Bit rate mode : Variable
Bit rate : 1 370 kb/s
Channel(s) : 2 channels
Channel layout : L R
Sampling rate : 48.0 kHz
Frame rate : 11.719 FPS (4096 SPF)
Bit depth : 24 bits
Compression mode : Lossless
Stream size : 237 MiB (20%)
Title : Original
Writing library : libFLAC 1.3.2 (UTC 2017-01-01)
Language : Japanese
Default : No
Forced : No

Clavik

Post 11-Sep-2019 17:30

[Quote]

Bungou Stray Dogs (2019) / Bungo Stray Dogs 3 / Великий из бродячих псов [ТВ-3]- Жанр: приключения, комедия, мистика
Тип: TV-сериал
Продолжительность: 12 эпизодов по 25 минут
Выпуск: c 12.04.2019 по 28.06.2019
Автор: Асагири Кафка
Снято по манге: Bungou Stray Dogs
Режиссер: Игараси Такуя
Производство: BONES-Информационные ссылки: AniDB || World Art || MAL || ANN-Релиз подготовлен студией Kansai
  • Тип озвучки: Многоголосая, закадровая
-Описание:
В суровом японском обществе проблемных сирот выбрасывают из приюта на улицу – живи как хочешь. Именно так юный Ацуси Накадзима отправился «в большую жизнь» без гроша в кармане. Умирающий с голода изгой решил ограбить первого встречного – а вместо того вытащил из реки какую-то подозрительную личность. Спасенный по имени Осаму Дадзай оказался хорошим парнем, суицидальным маньяком, ну а по совместительству - членом тайного «Агентства боевых детективов» со сверхъестественными способностями!
Да, в этом удивительном мире полно чудес, и люди, способные на них, часто не уважают закон. Как сражаться с мафиози, если они легко превращаются в неуязвимых монстров? Для этого и было создано «Агентство боевых детективов», каждый из которых и сам кое на что способен – от безупречной дедукции до силовых действий. В компании чудиков и оригиналов нашлось место и бродяге Ацуси – его способность тут пришлась ко двору, ведь милый и стеснительный юноша может с полным правом заявить – не будите во мне зверя!-Качество: WEB-DLRip | Энкод: HorribleSubs
Язык озвучки: Японский и Русский
Формат: MKV
Видео: x264, 1920x1080, ~4 579 kbps, 23.976 fps
Аудио: AAC, 128 kbps, 44.1 kHz, 2 ch
Аудио: AAC, 192 kbps, 48.0 kHz, 2 ch-

Список эпизодов:

01. Dazai, Chuuya, Fifteen Years Old
02. God of Fire
03. A Diamond is Only a Diamond
04. My Ill Deeds Are the Work of God
05. Slap the Stick and Addict
06. Herurisu / A Father`s Portrait
07. Fitzgerald Rising
08. The Masked Assassin
09. Cannibalism (Part 1)
10. Cannibalism (Part 2)
11. Cannibalism (Part 3)
12. Echo

Тех. параметры:

General
Unique ID : 94941755794344835647057912621166322690 (0x476D1DF6B50A2030CE781D5EB63D6402)
Complete name : Bungou Stray Dogs 3 [KANSAI]\[KANSAI] Bungou Stray Dogs 3 - 26 [1080p].mkv
Format : Matroska
Format version : Version 4
File size : 829 MiB
Duration : 23 min 40 s
Overall bit rate : 4 899 kb/s
Encoded date : UTC 2019-08-24 07:17:13
Writing application : mkvmerge v36.0.0 ('Is That Jazz?') 64-bit
Writing library : libebml v1.3.9 + libmatroska v1.5.2
Video
ID : 1
Format : AVC
Format/Info : Advanced Video Codec
Format profile : [email protected]
Format settings : CABAC / 4 Ref Frames
Format settings, CABAC : Yes
Format settings, Reference : 4 frames
Codec ID : V_MPEG4/ISO/AVC
Duration : 23 min 40 s
Bit rate : 4 579 kb/s
Width : 1 920 pixels
Height : 1 080 pixels
Display aspect ratio : 16:9
Frame rate mode : Constant
Frame rate : 23.976 (24000/1001) FPS
Color space : YUV
Chroma subsampling : 4:2:0
Bit depth : 8 bits
Scan type : Progressive
Bits/(Pixel*Frame) : 0.092
Stream size : 775 MiB (93%)
Writing library : x264 core 142
Encoding settings : cabac=1 / ref=4 / deblock=1:1:1 / analyse=0x3:0x113 / me=umh / subme=8 / psy=1 / psy_rd=0.40:0.00 / mixed_ref=1 / me_range=16 / chroma_me=1 / trellis=1 / 8x8dct=1 / cqm=0 / deadzone=21,11 / fast_pskip=1 / chroma_qp_offset=-2 / threads=12 / lookahead_threads=2 / sliced_threads=0 / nr=0 / decimate=1 / interlaced=0 / bluray_compat=0 / constrained_intra=0 / bframes=3 / b_pyramid=2 / b_adapt=2 / b_bias=0 / direct=3 / weightb=1 / open_gop=0 / weightp=2 / keyint=9999999 / keyint_min=5000000 / scenecut=0 / intra_refresh=0 / rc_lookahead=50 / rc=crf / mbtree=1 / crf=15.0 / qcomp=0.60 / qpmin=0 / qpmax=69 / qpstep=4 / vbv_maxrate=8000 / vbv_bufsize=12000 / crf_max=0.0 / nal_hrd=none / filler=0 / ip_ratio=1.40 / aq=1:0.60
Default : Yes
Forced : No
Audio #1
ID : 2
Format : AAC LC
Format/Info : Advanced Audio Codec Low Complexity
Codec ID : A_AAC-2
Duration : 23 min 40 s
Bit rate : 192 kb/s
Channel(s) : 2 channels
Channel layout : L R
Sampling rate : 48.0 kHz
Frame rate : 46.875 FPS (1024 SPF)
Compression mode : Lossy
Delay relative to video : -83 ms
Stream size : 32.1 MiB (4%)
Language : Russian
Default : Yes
Forced : No
Audio #2
ID : 3
Format : AAC LC
Format/Info : Advanced Audio Codec Low Complexity
Codec ID : A_AAC-2
Duration : 23 min 40 s
Bit rate : 128 kb/s
Channel(s) : 2 channels
Channel layout : L R
Sampling rate : 44.1 kHz
Frame rate : 43.066 FPS (1024 SPF)
Compression mode : Lossy
Delay relative to video : -83 ms
Stream size : 21.7 MiB (3%)
Language : Japanese
Default : No
Forced : No
-        -

Clavik

Post 11-Sep-2019 17:27

[Quote]

シャーマンキング | Shaman King | Шаман Кинг - Тип: TV
Жанр: Приключения, Комедия, Фэнтези
Продолжительность: 64 эпизода по 25 мин.
Количество серий: 64 эп.
Дата выпуска: c 04.07.2001 по 25.09.2002
Производство: Япония, Xebec
Режиссер: Мидзусима Сэйдзи
Ссылки: World-Art
Описание:
Каждые 500 лет Звезда Судьбы, Лаго, проносится по небу, оповещая всех шаманов мира о том, что Великий Турнир Шаманов начался. Лаго — звезда, несущая миру разрушение и хаос, но раз в 500 лет выбирается Шаман, достойный объединения с Королем Духов — духом всего сущего — чтобы спасти мир. Шаман — человек, способный видеть духов и сражаться вместе с ними как единое целое. Шаманы, в отличие от людей, хранят жизнь на Земле, берегут природу и понимают её. Цель Турнира заключается в том, что шаман, который прошёл все испытания и бои, становится Королём Шаманов, объединяется с Королём Духов — величайшим и сильнейшим духом в мире, — и становится настолько могущественным, что может управлять всей жизнью на Земле.
Язык озвучки: Японский
Субтитры: Русские, Английские [utsubyou]
Качество видео: WEBRip
Видео: AVC, 1440x1080, ~4483 Kbps, 0.120 bpp
Аудио: AAC 2.0, 48.0 kHz, 128 KbpsСкриншоты:
       

Эпизоды:

01. Мальчик танцующий с призраками
02. Ожидающий Самурай
03. Другой Шаман
04. Слияние 100%
05. Шаман, в полном рассвете сил
06. Мастер Кунг-фу
07. Пайлон, Кулак Ярости
08. Жизнь Шамана
09. Мальчик с севера
10. Судьба 600 лет
11. Дождь, который идёт весной
12. Звезда, символизирующая о начале
13. Воплощение духа
14. Битва шаманов
15. Костяные убийцы
16. Любовь Фауста
17. Путешествие двух людей к Заветному месту
18. Йо
19. Два больших Духа
20. Кладбище множества духов
21. Вера
22. Наши особые приёмы
23. Пробуждение жрицы
24. Непобедимый Тао Эн
25. Путешествие шаманов
26. Необъятная Америка
27. В поисках революции
28. Месть Лизерга
29. Супер мужество
30. Украденный Оракул-передатчик
31. Лес фей
32. Горький привкус дружбы
33. Тайны клана Асакура
34. Американские горячие источники
35. Легенда о вампире
36. Пушка ангела
37. Король приколов
38. Забытая песнь Семиноа
39. Цветочная группа
40. Тысячелетняя книга техник
41. Взрывное Воплощение духа
42. Дух меча
43. Битва Богов
44. Еще один удар
45. Великие Духи
46. Призрак семьи Тао
47. Чистая Душа
48. Мессия Дракона
49. Доктор из Докторов
50. Тьма в моём сердце
51. Охота на Шаманов
52. Тренировка?! Общий сбор
53. Пока-пока!
54. Восьмой Ангел
55. Дорога к Вавилону
56. Врата Вавилона
57. Битвам Шаманов, Конец?
58. Пылающие Ангелы
59. Священная Земля Звёзд
60. Друзья
61. Вечное Прощание
62. Борьба Со Смертью
63. Надежда Умирает Последней
64. Эпилог

Авторы русских субтитров:

(1-42) Переводчик/Тайм-код/Перевод песен: Dez, Переводчик/Редактор: Leila, Переводчик/Редактор: Sio, Редактор: Tassadar
(43-45) Переводчик/тайминг: Лось
(46,47,56-64) Переводчик/тайминг: Dez
(48-54) Переводчик/тайминг: Strelok
(55) Переводчик/тайминг: Fumo

MediaInfo:

Format                      : Matroska
Format version : Version 4
File size : 765 MiB
Duration : 23 min 8 s
Overall bit rate : 4 624 kb/s
Encoded date : UTC 2019-09-06 06:04:32
Writing application : mkvmerge v37.0.0 ('Leave It') 64-bit
Writing library : libebml v1.3.9 + libmatroska v1.5.2
Attachments : Overpass-SemiBold.ttf / Overpass-Black.ttf / trebucbi.ttf / TakaoPGothic.ttf / tahomabd.ttf / segoeuib.ttf / Fontin-Bold.otf / Overpass-SemiBoldItalic.ttf
Video
ID : 1
Format : AVC
Format/Info : Advanced Video Codec
Format profile : High [email protected]
Format settings : CABAC / 16 Ref Frames
Format settings, CABAC : Yes
Format settings, ReFrames : 16 frames
Codec ID : V_MPEG4/ISO/AVC
Duration : 23 min 7 s
Bit rate : 4 483 kb/s
Width : 1 440 pixels
Height : 1 080 pixels
Display aspect ratio : 4:3
Frame rate mode : Constant
Frame rate : 24.000 FPS
Color space : YUV
Chroma subsampling : 4:2:0
Bit depth : 10 bits
Scan type : Progressive
Bits/(Pixel*Frame) : 0.120
Stream size : 741 MiB (97%)
Title : Release by SnizZ
Writing library : x264 core 157 r2969 d4099dd
Encoding settings : cabac=1 / ref=16 / deblock=1:1:1 / analyse=0x3:0x133 / me=umh / subme=9 / psy=1 / psy_rd=0.40:0.00 / mixed_ref=1 / me_range=16 / chroma_me=1 / trellis=2 / 8x8dct=1 / cqm=0 / deadzone=21,11 / fast_pskip=1 / chroma_qp_offset=-2 / threads=6 / lookahead_threads=1 / sliced_threads=0 / nr=0 / decimate=1 / interlaced=0 / bluray_compat=0 / constrained_intra=0 / bframes=5 / b_pyramid=2 / b_adapt=2 / b_bias=0 / direct=3 / weightb=1 / open_gop=0 / weightp=2 / keyint=240 / keyint_min=24 / scenecut=40 / intra_refresh=0 / rc_lookahead=60 / rc=crf / mbtree=1 / crf=17.0 / qcomp=0.60 / qpmin=0 / qpmax=81 / qpstep=4 / ip_ratio=1.40 / aq=1:0.60
Default : Yes
Forced : No
Audio
ID : 2
Format : AAC LC
Format/Info : Advanced Audio Codec Low Complexity
Codec ID : A_AAC-2
Duration : 23 min 7 s
Bit rate : 128 kb/s
Channel(s) : 2 channels
Channel layout : L R
Sampling rate : 48.0 kHz
Frame rate : 46.875 FPS (1024 SPF)
Compression mode : Lossy
Delay relative to video : -109 ms
Stream size : 21.2 MiB (3%)
Language : Japanese
Default : Yes
Forced : No
Text #1
ID : 3
Format : ASS
Codec ID : S_TEXT/ASS
Codec ID/Info : Advanced Sub Station Alpha
Duration : 22 min 32 s
Bit rate : 235 b/s
Count of elements : 480
Compression mode : Lossless
Stream size : 38.9 KiB (0%)
Title : Russina
Language : Russian
Default : Yes
Forced : No
Text #2
ID : 4
Format : ASS
Codec ID : S_TEXT/ASS
Codec ID/Info : Advanced Sub Station Alpha
Duration : 23 min 6 s
Bit rate : 6 572 b/s
Count of elements : 4503
Compression mode : Lossless
Stream size : 1.09 MiB (0%)
Title : utsubyou
Language : English
Default : No
Forced : No
Menu
00:00:00.000 : :Opening
00:01:31.167 : :Episode
00:21:26.165 : :Ending
00:22:36.132 : :Preview

Clavik

Post 12-Aug-2019 11:22

[Quote]

Gunjou no Magmell / Magmel of the Sea Blue / Магмел синего моря- Жанр: приключения, фэнтези
Тип: TV-сериал
Продолжительность: 13 эпизодов по 25 минут
Выпуск: c 07.04.2019 по 30.06.2019
Автор: Дайнэнбё
Снято по манге: Gunjou no Magmel
Режиссер: Датэ Хаято
Производство: Studio Pierrot-Информационные ссылки: AniDB || World Art || MAL || ANN-Релиз подготовлен группой AniLibria
  • Тип озвучки: Двухголосая, закадровая
-Описание:
Действие разворачивается в мире, где в океане внезапно всплыл континент, получивший название Магмелл, что положило начало новой эпохе географических открытий. Отважные исследователи отправляются в глубь материка, где находят прежде не известные формы жизни и новые ресурсы, но и встречают невероятные опасности. В центре повествования загадочный юноша, который зарабатывает на жизнь как рабочий на подхвате у исследователей.-Качество: WEB-DLRip | Энкод: Erai-raws
Язык озвучки: Японский и Русский
Формат: MKV
Видео: x264, 1920x1080, ~7 500 kbps, 23.976 fps
Аудио: Е-AC3, 128 kbps, 48.0 kHz, 2 ch
Аудио: AAC, 192 kbps, 48.0 kHz, 2 ch

Список эпизодов:

01. Angler
02. Ruler of the 7th Ward
03. Seven Colored Pigeon
04. Bloody Maria
05. Father Den-Den and Magmell
06. Shuuin`s Pupil
07. Original Resident
08. The Old Man and Fields of Coffee
09. Zero`s Great Adventure
10. Monster Mania
11. Captured Zero
12. Despair
13. Someday Together...

Тех. параметры:

General
Unique ID : 175083535728602319076362687230762286319 (0x83B7DCC7BF1F2C413D0855BD9737FCEF)
Complete name : Gunjou no Magmel [AniLibria]\[AniLibria] Gunjou no Magmel - 01 [1080p].mkv
Format : Matroska
Format version : Version 4
File size : 1.29 GiB
Duration : 23 min 42 s
Overall bit rate mode : Variable
Overall bit rate : 7 805 kb/s
Encoded date : UTC 2019-04-20 05:26:09
Writing application : mkvmerge v33.1.0 ('Primrose') 64-bit
Writing library : libebml v1.3.7 + libmatroska v1.5.0
Video
ID : 1
Format : AVC
Format/Info : Advanced Video Codec
Format profile : [email protected]
Format settings : CABAC / 3 Ref Frames
Format settings, CABAC : Yes
Format settings, Reference : 3 frames
Codec ID : V_MPEG4/ISO/AVC
Duration : 23 min 42 s
Bit rate mode : Variable
Bit rate : 7 500 kb/s
Maximum bit rate : 11.2 Mb/s
Width : 1 920 pixels
Height : 1 080 pixels
Display aspect ratio : 16:9
Frame rate mode : Constant
Frame rate : 23.976 (24000/1001) FPS
Color space : YUV
Chroma subsampling : 4:2:0
Bit depth : 8 bits
Scan type : Progressive
Bits/(Pixel*Frame) : 0.151
Stream size : 1.24 GiB (96%)
Writing library : x264 core 148 r2715 7e75228
Encoding settings : cabac=1 / ref=3 / deblock=1:0:0 / analyse=0x1:0x111 / me=umh / subme=10 / psy=1 / psy_rd=1.00:0.00 / mixed_ref=1 / me_range=24 / chroma_me=1 / trellis=2 / 8x8dct=0 / cqm=0 / deadzone=21,11 / fast_pskip=1 / chroma_qp_offset=-2 / threads=8 / lookahead_threads=1 / sliced_threads=0 / nr=0 / decimate=1 / interlaced=0 / bluray_compat=0 / stitchable=1 / constrained_intra=0 / bframes=2 / b_pyramid=0 / b_adapt=2 / b_bias=0 / direct=3 / weightb=1 / open_gop=0 / weightp=2 / keyint=48 / keyint_min=25 / scenecut=0 / intra_refresh=0 / rc_lookahead=48 / rc=2pass / mbtree=1 / bitrate=7500 / ratetol=1.0 / qcomp=0.50 / qpmin=6 / qpmax=51 / qpstep=4 / cplxblur=20.0 / qblur=0.5 / vbv_maxrate=11250 / vbv_bufsize=15000 / nal_hrd=vbr / filler=0 / ip_ratio=1.40 / aq=1:1.00
Language : Japanese
Default : Yes
Forced : No
Audio #1
ID : 2
Format : AAC LC
Format/Info : Advanced Audio Codec Low Complexity
Codec ID : A_AAC-2
Duration : 23 min 42 s
Bit rate : 192 kb/s
Channel(s) : 2 channels
Channel layout : L R
Sampling rate : 48.0 kHz
Frame rate : 46.875 FPS (1024 SPF)
Compression mode : Lossy
Stream size : 32.6 MiB (2%)
Title : AniLibria
Language : Russian
Default : Yes
Forced : Yes
Audio #2
ID : 3
Format : E-AC-3
Format/Info : Enhanced AC-3
Commercial name : Dolby Digital Plus
Codec ID : A_EAC3
Duration : 23 min 42 s
Bit rate mode : Constant
Bit rate : 128 kb/s
Channel(s) : 2 channels
Channel layout : L R
Sampling rate : 48.0 kHz
Frame rate : 31.250 FPS (1536 SPF)
Compression mode : Lossy
Stream size : 21.7 MiB (2%)
Title : Оригинал
Language : Japanese
Service kind : Complete Main
Default : No
Forced : No
-        -

Clavik

Post 12-Aug-2019 11:19

[Quote]

Dororo / Дороро- Жанр: приключения, история, сверхъестественное
Тип: TV-сериал
Продолжительность: 24 эпизода по 25 минут
Выпуск: c 07.01.2019 по 24.06.2019
Автор: Тэдзука Осаму
Снято по манге: Dororo
Режиссер: Фурухаси Кадзухиро
Производство: MAPPA, Tezuka Productions-Информационные ссылки: AniDB || World Art || MAL || ANN-Релиз подготовлен студией Kansai
  • Тип озвучки: Многоголосая, закадровая
-Описание:
В стране царит смута, и один из генералов жаждет во что бы то ни стало одержать победу в решающей битве, которая ни много ни мало сулит ему трон всей страны. Для этого он решается на страшный грех и заключает сделку с двенадцатью демонами: те помогают ему выиграть бой, а он за это отдаёт каждому из них одну из частей тела своего новорожденного сына. Обречённый на гибель мальчик, тем не менее, выживает благодаря помощи доктора, создавшего для него протезы-оружие. Преданный собственным отцом, юноша ничего так не желает, как отомстить родителю, но для этого ему сперва необходимо убить каждого демона и вернуть отнятые части тела, по одной за раз. На своём пути охоты и истребления демонов молодой человек встречает сироту Дороро, который утверждает, что является величайшим вором Японии. Объединившись, они вместе отправляются в трудный путь, полный опасностей и приключений.-Качество: WEB-DLRip | Энкод: HorribleSubs
Язык озвучки: Японский и Русский
Формат: MKV
Видео: x264, 1920x1080, ~3 341 kbps, 23.976 fps
Аудио: AAC, 125 kbps, 48.0 kHz, 2 ch
Аудио: AAC, 192 kbps, 48.0 kHz, 2 ch-

Список эпизодов:

01. The Story of Daigo
02. The Story of Bandai
03. The Story of Jukai
04. The Story of the Cursed Sword
05. The Story of the Moriko Song, Part 1
06. The Story of the Moriko Song, Part 2
07. The Story of the Jorogumo Silk Spider
08. The Story of Saru
09. The Story of the Mercilessness
10. The Story of Tahomaru
11. The Story of Banmon, Part 1
12. The Story of Banmon, Part 2
13. The Story of the Blank-Faced Buddha
14. The Story of Sabame
15. The Story of the Scene from Hell
16. The Story of Shiranui
17. The Story of Questions and Answers
18. The Story of the Cape of Impermanence
19. The Story of the Amanojaku
20. The Story of the Nue
21. The Story of Breaking the Cycle of Suffering
22. The Story of Nui
23. The Story of the Demons
24. Dororo and Hyakkimaru

Тех. параметры:

General
Unique ID : 288284827649115653545319289411055618196 (0xD8E1A3619CBB7ED8B00F3C338B878894)
Complete name : Dororo [KANSAI]\Dororo - 01 [1080p].mkv
Format : Matroska
Format version : Version 4
File size : 628 MiB
Duration : 23 min 59 s
Overall bit rate : 3 658 kb/s
Encoded date : UTC 2019-02-10 17:40:48
Writing application : mkvmerge v31.0.0 ('Dolores In A Shoestand') 64-bit
Writing library : libebml v1.3.6 + libmatroska v1.4.9
Video
ID : 1
Format : AVC
Format/Info : Advanced Video Codec
Format profile : [email protected]
Format settings : CABAC / 4 Ref Frames
Format settings, CABAC : Yes
Format settings, ReFrames : 4 frames
Codec ID : V_MPEG4/ISO/AVC
Duration : 23 min 59 s
Bit rate : 3 341 kb/s
Width : 1 920 pixels
Height : 1 080 pixels
Display aspect ratio : 16:9
Frame rate mode : Constant
Frame rate : 23.976 (24000/1001) FPS
Color space : YUV
Chroma subsampling : 4:2:0
Bit depth : 8 bits
Scan type : Progressive
Bits/(Pixel*Frame) : 0.067
Stream size : 573 MiB (91%)
Default : Yes
Forced : No
Color range : Limited
Color primaries : BT.709
Transfer characteristics : BT.709
Matrix coefficients : BT.709
Audio #1
ID : 2
Format : AAC LC
Format/Info : Advanced Audio Codec Low Complexity
Codec ID : A_AAC-2
Duration : 23 min 59 s
Bit rate : 192 kb/s
Channel(s) : 2 channels
Channel layout : L R
Sampling rate : 48.0 kHz
Frame rate : 46.875 FPS (1024 SPF)
Compression mode : Lossy
Stream size : 32.5 MiB (5%)
Language : Russian
Default : Yes
Forced : No
Audio #2
ID : 3
Format : AAC LC
Format/Info : Advanced Audio Codec Low Complexity
Codec ID : A_AAC-2
Duration : 23 min 59 s
Bit rate : 125 kb/s
Channel(s) : 2 channels
Channel layout : L R
Sampling rate : 48.0 kHz
Frame rate : 46.875 FPS (1024 SPF)
Compression mode : Lossy
Stream size : 21.5 MiB (3%)
Language : Japanese
Default : No
Forced : No
-        -

Clavik

Post 12-Aug-2019 11:10

[Quote]

Toaru Hikuushi e no Tsuioku | The Princess and the Pilot
Воспоминания одного пилота | Принцесса и пилот
- Жанр: приключения, романтика
Тип: Movie
Продолжительность: 99 минут
Премьера: 01.10.2011
Студии: Madhouse Studios и TMS
Режиссер: Сисидо Дзюн
Сценарий: Инумура Короку
Ссылки: world-art-Описание:
История о молодом пилоте Шарле Карино, служащем наёмником в войсках княжества Левам. Однажды судьба предоставляет ему шанс показать себя на особо секретном задании. Цель его миссии заключается в сопровождении княжеской невесты, леди Фаны де Морал в столицу, на пути к которой ему придётся прорывать сквозь линию фронта. Войскам княжества Амацуками удалось перехватить детали задания. И теперь герою придётся сильно потрудиться, чтобы уйти от вражеского флота и доставить свою спутницу живой и невредимой до места назначения...-Качество видео: BDrip
Видео: h.264, 10 bit, 1280x720, ~23.976 fps, ~2000 kbps
Аудио 1: Russian, AAC, 2.0, 48 KHz, ~250kbps (3df Voice)
Аудио 2: Russian, AAC, 2.0, 48 KHz, ~192kbps (ARRU Workshop)
Аудио 3: Russian, AAC, 5.1, 48 KHz, ~448 kbps (ARRU Workshop)
Аудио 4: Japanesse, AAC, .1, 48 KHz, ~448 kbps
Озвучка: Русская (3df Voice; ARRU Workshop)
Субтитры: Русские от "ARRU Workshop" (в составе конейнера, полные и надписи)Скриншоты:
         

Комментарий от Xivilai с world-art

Как только несколько месяцев назад мне попался на глаза постер данного аниме, я решил: просмотру непременно быть. И стал с нетерпением ждать, лелея и взращивая свои надежды. Что за надежды, проистекающие от одного лишь вида постера? Ну, во-первых, беглого взгляда на это изображение хватило, чтобы в сознании моём зародились смелые мечтания о замечательной романтической истории. А во-вторых, я, после того как залюбовался необычайно красивой девушкой на фоне, просто не мог не уповать на то, что встречу в этом аниме ещё и прекрасный женский образ. И, если быть откровенным, Фана не просто оправдала мои надежды, а даже превзошла их. Сейчас я "дань уважения" этой вымышленной барышне-то и отдам, и одним лишь словом "няшка" дело не обойдётся.
Собственно, настолько пленяющей своим очарованием девушки в японских мультиках я не встречал уже давно. Фане идёт к лицу абсолютно всё, будь то удивление, страх, смущение, решительность, недовольство, безмятежность; но более всего - конечно же, улыбка. Ну а заслышав задорный смех подобных девушек, обычно сжимаешь кулаки и, заливаясь слезами счастья, благодаришь Небеса за то, что появился на свет. Содержание идеально соответствует форме: Фана не цундерит, не истерит, сияет всюду своей внутренней красотою, проявляя доброту, заботу и ласку. А уж насколько великолепен итог её перевязок - бантики смотрятся просто превосходно! И в то же время, что приятно удивило меня в её характере, в критические моменты Фана, вместо того чтобы визжать, топить пространство вокруг в слезах и проситься домой, способна взять себя в руки и проявить чудеса храбрости, решительности и отваги. Да у неё на роду написано быть боевой подругой, взор даже соколиный имеется! Поэтому, как бы ни старался, но я так и не смог найти у неё ни одного недостатка. Вывод - не девушка, а святое очарование.
А вот завидев спутника её, в первые минуты разочаровался. Неужто очередной ноги-об-меня-вытирайка-кун? Благо, нет, совсем нет. Думалось мне, будет Чарльз постарше, но он и так идеально вписался в историю и отлично отыграл свою роль. Благородство? Имеется. Смелость? В достатке. А за то, что в боевой обстановке приказал даме держать рот на замке, вечный почёт ему от меня. И даже на его пресмыкание перед высшими чинами можно посмотреть с пониманием. А Фана, кстати, невероятно очаровательна.
Итак, двое главных героев ничего, кроме довольства, не вызывали. Что тут имеется помимо них? Завораживающие виды, впечатляющие перестрелки в небе, задушевный разговор у костра, безрассудное хлестание пойла с горла, два аса, отдающих после дуэли честь друг другу, и небо в золотых снежинках - всё то, что сделало эту историю интересной и запоминающейся. Насколько хэппиэндов конец, каждый решит сам; но с большой долей вероятности, лёгкая досада будет задавлена улыбкой удовлетворения. А главная героиня, всё-таки, неимоверно очаровательна.
Итог: ожидания себя оправдали. Фильм этот, почему-то, не выходит у меня охарактеризовать одним метким, точным словом, но то, что он достоин внимания каждого - это просто не обсуждается. Я даже не знаю, кому картина эта может не понравиться. Ну разве что тем, кому не по душе интересно прописанные характеры, ни на секунду не отпускающий сюжет и до чарующего отменно прорисованные фоны, при виде которых про себя желаешь людям, создавшим всё это, долгих лет жизни и творческих успехов. А, кстати, я уже говорил, что главная героиня по имени Фана просто ангельски очаровательна?

Озвучка от ARRU Workshop

Перевод субтитров: Vaily | Sagi | siggit | Kasumi
Роли озвучивали: Sagi l Scrap l Sad_kit | Stef | Стефан | Sutangu | Kasumi l Jane | Henesy
Работа со звуком: Nikanor47

Media Info

General
Unique ID : 313552216053527223026420842366194685821 (0xEBE3F5CFD733ED14A944FF136400177D)
Complete name : Toaru Hikuushi e no Tsuioku (BDrip Hi10P 720p x264 AAC).mkv
Format : Matroska
Format version : Version 4
File size : 2.51 GiB
Duration : 1 h 39 min
Overall bit rate : 3 604 kb/s
Encoded date : UTC 2019-08-11 21:05:43
Writing application : mkvmerge v19.0.0 ('Brave Captain') 64-bit
Writing library : libebml v1.3.5 + libmatroska v1.4.8
Attachments : Adventure.ttf / AGAvantGardeCyr Book.ttf / Candara.ttf / Candarab.ttf / Candarai.ttf / Candaraz.ttf / Cassandra.ttf / Coronet.ttf
Video
ID : 1
Format : AVC
Format/Info : Advanced Video Codec
Format profile : High [url=mailto:[email protected]][email protected][/url]
Format settings : CABAC / 9 Ref Frames
Format settings, CABAC : Yes
Format settings, ReFrames : 9 frames
Codec ID : V_MPEG4/ISO/AVC
Duration : 1 h 39 min
Bit rate : 2 084 kb/s
Width : 1 280 pixels
Height : 720 pixels
Display aspect ratio : 16:9
Frame rate mode : Constant
Frame rate : 23.976 (24000/1001) FPS
Color space : YUV
Chroma subsampling : 4:2:0
Bit depth : 10 bits
Scan type : Progressive
Bits/(Pixel*Frame) : 0.094
Stream size : 1.45 GiB (58%)
Writing library : x264 core 120 r2164+649+26 fcfb618 tMod [[email protected] X86_64]
Encoding settings : cabac=1 / ref=9 / deblock=1:0:0 / analyse=0x3:0x113 / me=umh / subme=11 / psy=1 / fade_compensate=0.00 / psy_rd=1.00:0.00 / mixed_ref=1 / me_range=24 / chroma_me=1 / trellis=2 / 8x8dct=1 / cqm=0 / deadzone=21,11 / fast_pskip=0 / chroma_qp_offset=-2 / threads=9 / sliced_threads=0 / nr=0 / decimate=1 / interlaced=0 / bluray_compat=0 / constrained_intra=0 / fgo=0 / bframes=9 / b_pyramid=2 / b_adapt=2 / b_bias=0 / direct=3 / weightb=1 / open_gop=0 / weightp=2 / keyint=240 / keyint_min=24 / scenecut=40 / intra_refresh=0 / rc_lookahead=40 / rc=crf / mbtree=1 / crf=16.0000 / qcomp=0.60 / qpmin=0 / qpmax=68 / qpstep=4 / ip_ratio=1.40 / aq=3:1.00
Language : Japanese
Default : Yes
Forced : No
Color range : Limited
Color primaries : BT.709
Transfer characteristics : BT.709
Matrix coefficients : BT.709
Audio #1
ID : 2
Format : AAC LC
Format/Info : Advanced Audio Codec Low Complexity
Codec ID : A_AAC-2
Duration : 1 h 39 min
Bit rate : 302 kb/s
Channel(s) : 2 channels
Channel layout : L R
Sampling rate : 48.0 kHz
Frame rate : 46.875 FPS (1024 SPF)
Compression mode : Lossy
Stream size : 215 MiB (8%)
Title : 3df Voice [stereo]
Language : Russian
Default : Yes
Forced : No
Audio #2
ID : 3
Format : AAC LC
Format/Info : Advanced Audio Codec Low Complexity
Codec ID : A_AAC-2
Duration : 1 h 39 min
Bit rate : 178 kb/s
Channel(s) : 2 channels
Channel layout : L R
Sampling rate : 48.0 kHz
Frame rate : 46.875 FPS (1024 SPF)
Compression mode : Lossy
Stream size : 126 MiB (5%)
Title : ARRU Workshop [stereo]
Language : Russian
Default : No
Forced : No
Audio #3
ID : 4
Format : AAC LC
Format/Info : Advanced Audio Codec Low Complexity
Codec ID : A_AAC-2
Duration : 1 h 39 min
Bit rate : 443 kb/s
Channel(s) : 6 channels
Channel layout : C L R Ls Rs LFE
Sampling rate : 48.0 kHz
Frame rate : 46.875 FPS (1024 SPF)
Compression mode : Lossy
Stream size : 316 MiB (12%)
Title : ARRU Workshop [multichannel]
Language : Russian
Default : No
Forced : No
Audio #4
ID : 5
Format : AAC LC
Format/Info : Advanced Audio Codec Low Complexity
Codec ID : A_AAC-2
Duration : 1 h 39 min
Bit rate : 590 kb/s
Channel(s) : 6 channels
Channel layout : C L R Ls Rs LFE
Sampling rate : 48.0 kHz
Frame rate : 46.875 FPS (1024 SPF)
Compression mode : Lossy
Stream size : 421 MiB (16%)
Title : Original
Language : Japanese
Default : No
Forced : No
Text #1
ID : 6
Format : ASS
Codec ID : S_TEXT/ASS
Codec ID/Info : Advanced Sub Station Alpha
Duration : 1 h 38 min
Bit rate : 8 b/s
Count of elements : 54
Compression mode : Lossless
Stream size : 6.01 KiB (0%)
Title : ARRU Workshop [Vaily | Sagi | siggit | Carrier88 | Kasumi] [lable]
Language : Russian
Default : Yes
Forced : No
Text #2
ID : 7
Format : ASS
Codec ID : S_TEXT/ASS
Codec ID/Info : Advanced Sub Station Alpha
Duration : 1 h 38 min
Bit rate : 75 b/s
Count of elements : 817
Compression mode : Lossless
Stream size : 54.3 KiB (0%)
Title : ARRU Workshop [Vaily | Sagi | siggit | Carrier88 | Kasumi] [full]
Language : Russian
Default : No
Forced : No

ALexLeo117

Post 24-Apr-2017 12:12

[Quote]

Наруто + Наруто: Ураганные хроники. Без филлеров! Без повторов! / Naruto + Naruto Shippuuden- Год выпуска: 2002
Страна: Япония
Жанр: приключения, комедия, боевые искусства, сёнэн
Продолжительность: 10-20 мин. серия
Перевод: Субтитры
Режиссер: Датэ Хаято, Юки Эри
PG-13


В ролях: Узумаки Наруто, Учиха Саске, Харуно Сакура, Хатаке Какаши и др.
Описание: Наруто Узумаки - шумный и непоседливый ниндзя-подросток, который мечтает достичь всеобщего признания и стать Хокаге — главой своего селения и сильнейшим ниндзя. Чтобы добиться уважения окружающих, ему предстоит пройти через тысячи препятствий: экзамены ниндзя, различные миссии и сражения.
Знакомо ли вам чувство, когда при просмотре анимэ, вам постоянно приходится совершать лишние телодвижения и перематывать уже поднадоевший и постоянно появляющийся когда не нужно опенинг?
А если это анимэ в жанре сёнэн и в нём просто огромное количество повторов, которые просто страшно достаёт проматывать, и всё это неслабо портит впечатление от просмотра….
Всем любителям анимэ про реактивного желтоволосого парня по имени Наруто эта проблема знакома не понаслышке. Но теперь эта проблема решена. Данная раздача содержит полную версию Наруто + Naruto Shippuuden без филлеров, а также без ненужных повторов и назойливых опенингов и эндингов ( вырезаны не все, но подавляющее их большинство ). «Наруто» очищено от вредных примесей и готово к употреблению. Приятного просмотра!
Доп. информация:
Полностью отредактированная версия. Нет филлеров. Вырезаны ненужные повторы и повторяющиеся опенинги/эндинги
Качество: HDTVRip
Формат: MKV
Видео кодек: Другой MPEG4
Аудио кодек: AC3
Видео: V_MPEG4/ISO/AVC, 720*536, 23 fps, 852 kbps
Аудио: A_AAC, 48,0 KHz, 320 kbps, 2ch.

Скриншоты

         

Clavik

Post 29-Dec-2015 01:13

[Quote]

самое потрясное аниме этого месяца может даже этого года советую всем посмотреть не разочарует интересное и смешное тем кто не смотрит аниме тоже понравится

Clavik

Post 29-Dec-2015 01:10

[Quote]

One-Punch Man / Ванпанчмен- Жанр: приключения
Тип: TВ-сериал
Количество серий: 12 из 12
Продолжительность: 12 серий по 25 минут
Период выхода: с 05.10.2015 по 21.12.2015
Производство: Madhouse Studios
Автор оригинала: ONE
Режиссер: Нацумэ Синго
Ссылки: World-Art, Ani-DB, Официальный сайт, ANN, MAL, Сетка вещания
-Описание:

Вы устали от запоминания супер-атак и бесконечных доспехов, но душа просит адреналина и драк? Тогда эта новая экшен-комедия от студии Madhouse для вас!
Главный герой не размахивает мечом, не выкрикивает боевой клич и вообще не отличается ничем особенно героическим. Всё в этом молодом человеке по имени Сайтама так и вопит: «заурядный» — и его лысая голова, и его хилое телосложение. Однако у этого среднестатистического, по всем параметрам, парня совсем не среднестатистические проблемы... Потому что на самом деле он — супергерой, жаждущий битвы с суперкрутыми противниками. Загвоздка в том, что, отыскав наконец перспективного кандидата на роль главного врага, Сайтама выносит его с одного удара. Сможет ли Сайтама заиметь себе могучего злодея, который смог бы достойно противостоять ему? Следуйте за Ванпанчменом в его уморительных приключениях, пока среди многочисленных плохих парней он наконец попытается найти «своего»!
-Качество видео: HDTV
Битрейт видео: ~2.334 Mbps
Размер кадра: 1280x720
Аудио: ААС, 2ch, 48KHz, ~211 Kbps | Звук: Японский
Субтитры: Русские
Перевод от: Anku & mutagenb

Media Info на первую серию

Код:
General
Complete name               : [Ohys-Raws] One-Punch Man - 01 (TX 1280x720 x264 AAC).mp4
Format                      : MPEG-4
Format profile              : Base Media
Codec ID                    : isom
File size                   : 450 MiB
Duration                    : 24mn 40s
Overall bit rate mode       : Variable
Overall bit rate            : 2 549 Kbps
Encoded date                : UTC 2015-10-04 16:57:00
Tagged date                 : UTC 2015-10-04 16:57:00
Video
ID                          : 1
Format                      : AVC
Format/Info                 : Advanced Video Codec
Format profile              : [url=mailto:[email protected]][email protected][/url]
Format settings, CABAC      : Yes
Format settings, ReFrames   : 4 frames
Codec ID                    : avc1
Codec ID/Info               : Advanced Video Coding
Duration                    : 24mn 39s
Bit rate                    : 2 334 Kbps
Maximum bit rate            : 12.5 Mbps
Width                       : 1 280 pixels
Height                      : 720 pixels
Display aspect ratio        : 16:9
Frame rate mode             : Constant
Frame rate                  : 23.976 fps
Color space                 : YUV
Chroma subsampling          : 4:2:0
Bit depth                   : 8 bits
Scan type                   : Progressive
Bits/(Pixel*Frame)          : 0.106
Stream size                 : 412 MiB (92%)
Writing library             : x264 core 148 r2597 e86f3a1
Encoding settings           : cabac=1 / ref=3 / deblock=1:0:0 / analyse=0x1:0x111 / me=hex / subme=7 / psy=1 / psy_rd=1.00:0.00 / mixed_ref=1 / me_range=16 / chroma_me=1 / trellis=1 / 8x8dct=0 / cqm=0 / deadzone=21,11 / fast_pskip=1 / chroma_qp_offset=-2 / threads=12 / lookahead_threads=2 / sliced_threads=0 / nr=0 / decimate=1 / interlaced=0 / bluray_compat=0 / constrained_intra=0 / bframes=3 / b_pyramid=2 / b_adapt=1 / b_bias=0 / direct=1 / weightb=1 / open_gop=0 / weightp=2 / keyint=240 / keyint_min=1 / scenecut=40 / intra_refresh=0 / rc_lookahead=40 / rc=crf / mbtree=1 / crf=20.0 / qcomp=0.60 / qpmin=0 / qpmax=69 / qpstep=4 / ip_ratio=1.40 / aq=1:1.50
Encoded date                : UTC 2015-10-04 16:57:00
Tagged date                 : UTC 2015-10-04 16:57:03
Color range                 : Limited
Color primaries             : BT.709
Transfer characteristics    : BT.709
Matrix coefficients         : BT.709
Audio
ID                          : 2
Format                      : AAC
Format/Info                 : Advanced Audio Codec
Format profile              : LC
Codec ID                    : 40
Duration                    : 24mn 40s
Bit rate mode               : Variable
Bit rate                    : 211 Kbps
Maximum bit rate            : 249 Kbps
Channel(s)                  : 2 channels
Channel positions           : Front: L R
Sampling rate               : 48.0 KHz
Compression mode            : Lossy
Stream size                 : 37.3 MiB (8%)
Language                    : Japanese
Encoded date                : UTC 2015-10-04 16:45:49
Tagged date                 : UTC 2015-10-04 16:57:03

Эпизоды:

01. The Strongest Man
02. The Lone Cyborg
03. The Obsessive Scientist
04. The Modern Ninja
05. The Ultimate Master
06. The Terrifying City
07. The Ultimate Disciple
08. The Deep Sea King
09. Unyielding Justice
10. Unparalleled Peril
11. The Dominator of the Universe
12. The Strongest Hero
Скриншоты:
       
       

Clavik

Post 29-Dec-2015 01:08

[Quote]

Little Busters! Refrain / Маленькие проказники [ТВ-2]- Жанр: комедия, драма
Тип: TV-сериал
Продолжительность: 13 эпизодов и 8 спэшлов по 25 минут
Выпуск: c 05.10.2013 по 28.12.2013
Сценарий: Симада Митиру
Режиссер: Ямакава Ёсики
Производство: J.C. Staff-Информационные ссылки: AniDB || World Art || MAL || ANN-Перевод:
  • Русские субтитры от gorodoshnik & Nachtwandler [TV]
  • Русские субтитры от gorodoshnik [SP 1-5]
  • Русские субтитры от Sleepless Studios [SP 6-8]
-Описание:
Компания друзей детства, известная как «Маленькие проказники», живет и не тужит в старшей школе-интернате, постоянно придумывая новые забавы и приключения. Добрые дела не остаются безнаказанными, ряды «проказников» растут и пополняются незаурядными личностями. Не радует лишь, что заводила группы Кёсукэ Нацумэ на год старше остальных, а значит, неизбежно скорое расставание. Зная это, Нацумэ начал отдаляться от коллектива, оставив «на хозяйстве» Рики Наоэ – пусть не самого крепкого, зато умного и наблюдательного парня. И вот Наоэ, несмотря на пережитые с ребятами минуты счастья, смог заглянуть в себя и понял главное – с окружающим миром что-то не так. Все не так, как надо!
Могут ли счастливые дни течь тихо и безмятежно, будто неспешная река детства? Если да – откуда у нового лидера постоянные приступы дежа вю, страха и уверенности, что всё вокруг – зыбкая и неверная иллюзия? Таинственные силы, обещавшие Рики и его девушке Рин раскрыть секрет мира, не сдержали обещание, только больше все запутали. А причина проста – ответы не надо ждать на блюдечке, их надо выцарапывать у судьбы, получая синяки и шишки. Ничто не длится вечно, все имеет начало и конец, все могут ошибаться. Но при этом, что придумал один – обязательно поймет другой, а дружба и любовь помогут не только исправить ошибки, но и противостоять злому року. Что ни говори, а «Маленькие проказники» еще не сыграли свой лучший матч!© Hollow, World Art-Качество: BDRip | Энкод: Winter
Формат: MKV
Видео: x264 (10 bit) 1280x720, ~3000 Kbps, 23.976 fps
Аудио: Vorbis, 256 Kbps, 48.0 kHz, 2 ch
Аудио: AC-3, 192 Kbps, 48.0 kHz, 2 ch (внешними файлами)
Субтитры: ASS, Полные | Надписи (внешними файлами) -

Список озвучек:

  • двухголосая (муж./жен.) от Hell & Aska (SHIZA) [TV 1-13]
  • двухголосая (муж./жен.) от ProjectmaN & MezIdA (Anifilm) [TV 1-13 + SP 1-8]
  • трехголосая от Zendos & Eladiel & Lupin (Anilibria) [TV 1-13]

Список эпизодов:

01. It Struck Without Warning
02. It Was Raining Back Then, Too
03. I Wanted to Stay Here Forever
04. Riki and Rin
05. The Final Task
06. After the Escape
07. May 13
08. Proof of the Strongest
09. A Friend`s Tears
10. And Now, I Repeat It All
11. The End of the World
12. One Wish
13. The Little Busters
S1. Little Busters! EX 01: Secret Agent Tokido Saya
S2. Little Busters! EX 02: The Two in the Labyrinth
S3. Little Busters! EX 03: Darkness Executives
S4. Little Busters! EX 04: Sometime, Somewhere...
S5. Little Busters! EX 05: Sasami Turns into a Cat
S6. Little Busters! EX 06: A Small World Somebody Wished For
S7. Little Busters! EX 07: Kanata`s Secret
S8. Little Busters! EX 08: Our Bonds

Тех. параметры:

Код:
General
Unique ID                   : 173957189949338069271124654661497679582 (0x82DEEFA55488DA79B22D86EE20266EDE)
Complete name               : Little Busters! Refrain [BD] [720p]\[Winter] Little Busters! Refrain 01 [BDrip 1280x720 x264 Vorbis].mkv
Format                      : Matroska
Format version              : Version 2
File size                   : 568 MiB
Duration                    : 23mn 43s
Overall bit rate mode       : Variable
Overall bit rate            : 3 348 Kbps
Encoded date                : UTC 2014-04-10 17:18:37
Writing application         : mkvmerge v2.9.8 ('C'est le bon') built on Aug 13 2009 12:49:06
Writing library             : libebml v0.7.7 + libmatroska v0.8.1
Video
ID                          : 1
Format                      : AVC
Format/Info                 : Advanced Video Codec
Format profile              : High [url=mailto:[email protected]][email protected][/url]
Format settings, CABAC      : Yes
Format settings, ReFrames   : 9 frames
Codec ID                    : V_MPEG4/ISO/AVC
Duration                    : 23mn 43s
Bit rate                    : 3 026 Kbps
Width                       : 1 280 pixels
Height                      : 720 pixels
Display aspect ratio        : 16:9
Frame rate mode             : Constant
Frame rate                  : 23.976 (24000/1001) fps
Color space                 : YUV
Chroma subsampling          : 4:2:0
Bit depth                   : 10 bits
Scan type                   : Progressive
Bits/(Pixel*Frame)          : 0.137
Stream size                 : 513 MiB (90%)
Writing library             : x264 core 132 r2309 3b1f1f7
Encoding settings           : cabac=1 / ref=9 / deblock=1:-2:-2 / analyse=0x3:0x133 / me=umh / subme=9 / psy=1 / psy_rd=0.90:0.00 / mixed_ref=1 / me_range=24 / chroma_me=1 / trellis=2 / 8x8dct=1 / cqm=0 / deadzone=21,11 / fast_pskip=1 / chroma_qp_offset=-2 / threads=12 / lookahead_threads=2 / sliced_threads=0 / nr=0 / decimate=0 / interlaced=0 / bluray_compat=0 / constrained_intra=0 / bframes=8 / b_pyramid=2 / b_adapt=2 / b_bias=0 / direct=1 / weightb=1 / open_gop=0 / weightp=2 / keyint=250 / keyint_min=23 / scenecut=40 / intra_refresh=0 / rc=crf / mbtree=0 / crf=15.7 / qcomp=0.70 / qpmin=9 / qpmax=42 / qpstep=4 / ip_ratio=1.40 / pb_ratio=1.30 / aq=1:0.90
Default                     : No
Forced                      : No
Audio
ID                          : 2
Format                      : Vorbis
Format settings, Floor      : 1
Codec ID                    : A_VORBIS
Duration                    : 23mn 43s
Bit rate mode               : Variable
Bit rate                    : 256 Kbps
Channel(s)                  : 2 channels
Sampling rate               : 48.0 KHz
Detected bit depth          : 16 bits
Compression mode            : Lossy
Stream size                 : 43.4 MiB (8%)
Writing library             : libVorbis (Schaufenugget) (20101101 (Schaufenugget))
Language                    : Japanese
Default                     : Yes
Forced                      : No

Информация о релизе:

  • Выбор видео, перевода, озвучки, а также типа сборки материала осуществляется релизером и не подлежит обсуждению. Если вы считаете, что раздаваемый материал противоречит правилам раздела "Аниме", сообщите об этом одному из модераторов раздела.
  • В случае появления нового материала или же лучшего по качеству материала релизер оставляет за собой право обновить раздачу. В этом случае вам необходимо ознакомиться с изменениями (добавлениями) и перекачать торрент.
  • Данный релиз предназначен для просмотра на ПК. Воспроизведение на иных проигрывателях не гарантируется. Для просмотра рекомендуется Media Player Classic с установленным пакетом кодеков K-Lite.
  • Данный релиз содержит 10-битное видео (Hi10p). Для корректного воспроизведения обязательно используйте кодеки, поддерживающие 10-битное видео. .
  • Данный релиз предназначен для просмотра с внешними субтитрами и внешними звуковыми дорожками.
    • Для просмотра с внешней звуковой дорожкой нужно:
      перекинуть файлы .mka из папки "RUS Sound []" в одну папку с видео и переключить звуковую дорожку в плеере при просмотре.
    • Для просмотра с субтитрами нужно:
      перекинуть файлы .ass из папки "RUS Subtitles []" в одну папку с видео - плеер подгрузит их автоматически при открытии видео.
-            -

Clavik

Post 29-Dec-2015 01:06

[Quote]

山田くんと7人の魔女 (2015) / Yamada-kun to 7-nin no Majo (2015) / Ямада и семь ведьм- Жанр: комедия, романтика
Тип: TV-сериал
Продолжительность: 12 эпизодов по 25 минут
Выпуск: c 12.04.2015 по 28.06.2015
Автор: Ёсикава Мики
Снято по манге: Yamada-kun to 7-nin no Majo
Режиссер: Такуно Сэйки
Производство: Liden Films-Информационные ссылки: AniDB || World Art || MAL || ANN-Перевод:
  • Русские субтитры от Timecraft & GMC & OpenDub
    Переводчик/Оформление: atom4ik, Редакторы: Jarly, kievbear
-Описание:
Всем известный хулиган Рю Ямада как-то столкнулся на лестнице с «заучкой» Урарой Сирайси – и случилось странное: ребята поменялись телами. Когда шок прошел, оба поняли, что в обмене есть свои плюсы, к тому же ради него не нужно исполнять жуткие кульбиты – достаточно просто поцеловаться. И вот хулиган с мозгом гения начал исправлять оценки, пугая учителей, а красавица-отличница с душой рубахи-парня быстро улучшила отношения с одноклассниками. Сладкую парочку вычислил местный умник Миямура – но не стал их сдавать, а наоборот прикрыл, предложив вместе восстановить забытый клуб оккультизма!
Вот так главные герои познакомились с легендой о семи ведьмах – девушках со сверхъестественными способностями, что встречаются в каждом поколении учеников школы Судзаку. Кто-то из девушек, как Урара, прячет свои способности, кто-то использует к своей выгоде, не забывая, конечно, о маскировке. Ямада же – личность уникальная, ибо через поцелуй может копировать любую способность, а хозяйки дара не могут причинить ему вред. Вскоре из надежных источников пришла весть, что собрав вместе семерых ведьм, можно провести ритуал и получить в итоге нечто невероятное – а иначе зачем было клуб возрождать?!© Hollow, World Art-Качество: BDRip | Энкод: Winter
Формат: MKV
Видео: x264 (10 bit) 1280x720, ~3200 Kbps, 23.976 fps
Аудио: Vorbis, 256 Kbps, 48.0 kHz, 2 ch
Аудио: AC-3, 192 Kbps, 48.0 kHz, 2 ch (внешними файлами)
Субтитры: ASS, Полные | Надписи (внешними файлами) -

Список озвучек:

  • двухголосая (муж./жен.) от JAM & NikaLenina (Anidub)
  • многоголосая от SHIZA
    участники: Shuuma, Gomer, Aska, Ruri, NesTea

Список эпизодов:

01. I`ve Turned Into Her!
02. Kiss Me, Okay?
03. Will You Accept? Or Won`t You?
04. It Looks Like I`ve Fallen For Yamada!
05. You Mustn`t Kiss Her, Okay?
06. Respond!
07. Anything But Tempura!
08. You`re So Annoying
09. Be Sure to Change the Future
10. Please Go Out with Me!
11. What Did You Do with Shiraishi?!
12. I Love You, Shiraishi!

Тех. параметры:

Код:
General
Unique ID                   : 241800708041572975053686564275767543840 (0xB5E91F56DC302367806F783CABAD0820)
Complete name               : Yamada-kun to 7-nin no Majo [BD] [720p]\[W] Yamada-kun to 7-nin no Majo 01 [BDrip 1280x720 x264 Vorbis].mkv
Format                      : Matroska
Format version              : Version 2
File size                   : 610 MiB
Duration                    : 24mn 7s
Overall bit rate mode       : Variable
Overall bit rate            : 3 537 Kbps
Encoded date                : UTC 2015-11-28 17:45:50
Writing application         : mkvmerge v2.9.8 ('C'est le bon') built on Aug 13 2009 12:49:06
Writing library             : libebml v0.7.7 + libmatroska v0.8.1
Video
ID                          : 1
Format                      : AVC
Format/Info                 : Advanced Video Codec
Format profile              : High [url=mailto:[email protected]][email protected][/url]
Format settings, CABAC      : Yes
Format settings, ReFrames   : 9 frames
Codec ID                    : V_MPEG4/ISO/AVC
Duration                    : 24mn 7s
Bit rate                    : 3 211 Kbps
Width                       : 1 280 pixels
Height                      : 720 pixels
Display aspect ratio        : 16:9
Frame rate mode             : Constant
Frame rate                  : 23.976 (24000/1001) fps
Color space                 : YUV
Chroma subsampling          : 4:2:0
Bit depth                   : 10 bits
Scan type                   : Progressive
Bits/(Pixel*Frame)          : 0.145
Stream size                 : 554 MiB (91%)
Writing library             : x264 core 132 r2309 3b1f1f7
Encoding settings           : cabac=1 / ref=9 / deblock=1:-2:-2 / analyse=0x3:0x133 / me=umh / subme=9 / psy=1 / psy_rd=0.90:0.00 / mixed_ref=1 / me_range=24 / chroma_me=1 / trellis=2 / 8x8dct=1 / cqm=0 / deadzone=21,11 / fast_pskip=1 / chroma_qp_offset=-2 / threads=12 / lookahead_threads=2 / sliced_threads=0 / nr=0 / decimate=0 / interlaced=0 / bluray_compat=0 / constrained_intra=0 / bframes=8 / b_pyramid=2 / b_adapt=2 / b_bias=0 / direct=1 / weightb=1 / open_gop=0 / weightp=2 / keyint=250 / keyint_min=23 / scenecut=40 / intra_refresh=0 / rc=crf / mbtree=0 / crf=15.7 / qcomp=0.70 / qpmin=9 / qpmax=40 / qpstep=4 / ip_ratio=1.40 / pb_ratio=1.30 / aq=1:0.90
Default                     : No
Forced                      : No
Audio
ID                          : 2
Format                      : Vorbis
Format settings, Floor      : 1
Codec ID                    : A_VORBIS
Duration                    : 24mn 7s
Bit rate mode               : Variable
Bit rate                    : 256 Kbps
Channel(s)                  : 2 channels
Sampling rate               : 48.0 KHz
Detected bit depth          : 16 bits
Compression mode            : Lossy
Stream size                 : 44.2 MiB (7%)
Writing library             : libVorbis (Schaufenugget) (20101101 (Schaufenugget))
Language                    : Japanese
Default                     : Yes
Forced                      : No

Информация о релизе:

  • Выбор видео, перевода, озвучки, а также типа сборки материала осуществляется релизером и не подлежит обсуждению. Если вы считаете, что раздаваемый материал противоречит правилам раздела "Аниме", сообщите об этом одному из модераторов раздела.
  • В случае появления нового материала или же лучшего по качеству материала релизер оставляет за собой право обновить раздачу. В этом случае вам необходимо ознакомиться с изменениями (добавлениями) и перекачать торрент.
  • Данный релиз предназначен для просмотра на ПК. Воспроизведение на иных проигрывателях не гарантируется. Для просмотра рекомендуется Media Player Classic с установленным пакетом кодеков K-Lite.
  • Данный релиз содержит 10-битное видео (Hi10p). Для корректного воспроизведения обязательно используйте кодеки, поддерживающие 10-битное видео.
  • Данный релиз предназначен для просмотра с внешними субтитрами и внешними звуковыми дорожками.
    • Для просмотра с внешней звуковой дорожкой нужно:
      перекинуть файлы .mka из папки "RUS Sound []" в одну папку с видео и переключить звуковую дорожку в плеере при просмотре.
    • Для просмотра с субтитрами нужно:
      перекинуть файлы .ass из папки "RUS Subtitles []" в одну папку с видео - плеер подгрузит их автоматически при открытии видео.
    /spoiler]-            -

Clavik

Post 29-Dec-2015 01:04

[Quote]

うぽって!! / Upotte!! / Оружейная школа- Жанр: комедия, этти, школа
Тип: ONA
Продолжительность: 10 эпизодов и ова по 25 минут
Выпуск: c 07.04.2012 по 09.06.2012
Автор: Тэннодзи Кицунэ
Снято по манге: Upotte!!
Режиссер: Като Такао
Производство: Xebec-Информационные ссылки: AniDB || World Art || MAL || ANN-Перевод:
  • Русские субтитры от Uncle_Ho
-Описание:
Не думал, не гадал обычный учитель японского по имени Гэнкоку, что судьба пошлет его в академию Сэйсё, обитатели которой - настоящее одушевленное оружие! И это вовсе не оборот речи, а реальность, данная нам в ощущениях… ибо чистым разумом не поймешь, что у каждой ученицы цевье представляет грудь, приклад – то, что пониже спины, ударно-спусковой механизм – внутренние органы, а спусковой крючок… эй, там, взведите уже предохранитель! Классы сформированы по убойной силе: в старшей школе учатся автоматические винтовки, в средней – малокалиберные автоматы, а в младшей – пистолетики-пулеметики. Так что за вольности можно получить чем угодно – от пистолетной пули до классического натовского боеприпаса 7,62х51!
В центре сюжета – приключения симпатичной Функо и ее подружек из средней школы. Девчата прилежно учатся, занимаются боевой, огневой и общегражданской подготовкой, соперничают друг с другом, от души ссорятся и мирятся, а также снабжают зрителей морем разнообразной информации о мире стрелкового оружия. Впрочем, от нас никто не требует запоминать спецификации, плюсы и минусы каждой модели. Главное – понять: каждое оружие мечтает о «правильном» хозяине и хочет, чтобы его любили, а не ограничивались стрельбой и неполной разборкой!© Hollow, World Art-Качество: BDRip | Энкод: Winter
Формат: MKV
Видео: x264 (10 bit) 1280x720, ~4000 Kbps, 23.976 fps
Аудио: Vorbis, 256 Kbps, 48.0 kHz, 2 ch
Аудио: AC-3, 192 Kbps, 48.0 kHz, 2 ch (внешними файлами)
Субтитры: ASS, Полные | Надписи (внешними файлами) -

Список озвучек:

  • одноголосая (жен.) от Lizaveta (SHIZA) [ONA 1-10]

Список эпизодов:

01. Grip and Hold!
02. Go for It! Pass It!
03. Wash and Scrub!
04. Sing! Compete!
05. Graze It! Beat It!
06. Take It! Hurry!
07. Be Afraid! Visit!
08. Take a Look! Scold Someone!
09. Burn Up! Get Mad!
10. And Then, Upotte!!
OVA.

Тех. параметры:

Код:
General
Unique ID                   : 213187509332473486999923828870551952969 (0xA0626BB98051B919AEBFCB98027BDE49)
Complete name               : Upotte!! [BD] [720p]\[Winter] Upotte!! 01 [BDrip 1280x720 x264 Vorbis].mkv
Format                      : Matroska
Format version              : Version 2
File size                   : 728 MiB
Duration                    : 23mn 43s
Overall bit rate mode       : Variable
Overall bit rate            : 4 292 Kbps
Encoded date                : UTC 2012-09-11 15:34:59
Writing application         : mkvmerge v2.9.7 ('Tenderness') built on Jul  1 2009 18:43:35
Writing library             : libebml v0.7.7 + libmatroska v0.8.1
Video
ID                          : 1
Format                      : AVC
Format/Info                 : Advanced Video Codec
Format profile              : High [url=mailto:[email protected]][email protected][/url]
Format settings, CABAC      : Yes
Format settings, ReFrames   : 9 frames
Codec ID                    : V_MPEG4/ISO/AVC
Duration                    : 23mn 43s
Bit rate                    : 3 951 Kbps
Width                       : 1 280 pixels
Height                      : 720 pixels
Display aspect ratio        : 16:9
Frame rate mode             : Constant
Frame rate                  : 23.976 fps
Color space                 : YUV
Chroma subsampling          : 4:2:0
Bit depth                   : 10 bits
Scan type                   : Progressive
Bits/(Pixel*Frame)          : 0.179
Stream size                 : 670 MiB (92%)
Writing library             : x264 core 125 r2200 999b753
Encoding settings           : cabac=1 / ref=9 / deblock=1:-2:-2 / analyse=0x3:0x133 / me=umh / subme=9 / psy=1 / psy_rd=0.90:0.00 / mixed_ref=1 / me_range=24 / chroma_me=1 / trellis=2 / 8x8dct=1 / cqm=0 / deadzone=21,11 / fast_pskip=1 / chroma_qp_offset=-2 / threads=6 / lookahead_threads=1 / sliced_threads=0 / nr=0 / decimate=0 / interlaced=0 / bluray_compat=0 / constrained_intra=0 / bframes=8 / b_pyramid=2 / b_adapt=2 / b_bias=0 / direct=1 / weightb=1 / open_gop=0 / weightp=2 / keyint=250 / keyint_min=23 / scenecut=40 / intra_refresh=0 / rc=crf / mbtree=0 / crf=16.0 / qcomp=0.70 / qpmin=9 / qpmax=40 / qpstep=4 / ip_ratio=1.40 / pb_ratio=1.30 / aq=1:0.90
Default                     : Yes
Forced                      : No
Audio
ID                          : 2
Format                      : Vorbis
Format settings, Floor      : 1
Codec ID                    : A_VORBIS
Duration                    : 23mn 43s
Bit rate mode               : Variable
Bit rate                    : 256 Kbps
Channel(s)                  : 2 channels
Sampling rate               : 48.0 KHz
Compression mode            : Lossy
Stream size                 : 43.4 MiB (6%)
Writing library             : libVorbis (Schaufenugget) (20101101 (Schaufenugget))
Language                    : Japanese
Default                     : Yes
Forced                      : No

Информация о релизе:

  • Выбор видео, перевода, озвучки, а также типа сборки материала осуществляется релизером и не подлежит обсуждению. Если вы считаете, что раздаваемый материал противоречит правилам раздела "Аниме", сообщите об этом одному из модераторов раздела.
  • В случае появления нового материала или же лучшего по качеству материала релизер оставляет за собой право обновить раздачу. В этом случае вам необходимо ознакомиться с изменениями (добавлениями) и перекачать торрент.
  • Данный релиз предназначен для просмотра на ПК. Воспроизведение на иных проигрывателях не гарантируется. Для просмотра рекомендуется Media Player Classic с установленным пакетом кодеков K-Lite.
  • Данный релиз содержит 10-битное видео (Hi10p). Для корректного воспроизведения обязательно используйте кодеки, поддерживающие 10-битное видео.
  • Данный релиз предназначен для просмотра с внешними субтитрами и внешними звуковыми дорожками.
    • Для просмотра с внешней звуковой дорожкой нужно:
      перекинуть файлы .mka из папки "RUS Sound []" в одну папку с видео и переключить звуковую дорожку в плеере при просмотре.
    • Для просмотра с субтитрами нужно:
      перекинуть файлы .ass из папки "RUS Subtitles []" в одну папку с видео - плеер подгрузит их автоматически при открытии видео.
-            -

Clavik

Post 29-Dec-2015 01:03

[Quote]

Shinmai Maou no Testament Burst / По велению адской сестры - Тип: TV
Жанр: Приключения, Этти
Продолжительность: 12 серий по 25 минут
Количество серий: 10
Дата выпуска: c 10.10.2015
Производство: Япония, Production IMS
Автор оригинала: Уэсу Тэцуто
Режиссер: Сайто Хисаси-Ссылки: World-Art, AniDB, MAL-Описание:
Золгир повержен. Басара, Юки, Мио и Мария продолжают свою временно мирную жизнь.
Но тот, кто стоит за Золгиром все еще жив. И новый владыка тьмы Леонард обращает на них свое внимание.
Возвращаются мама Марии и Зэст.
Грядет новая битва...-Качество видео: WEBRip
Видео: AVC/H264, 1280x720, 1775 kbps, 23.976 fps
Аудио 1: AAC, ~181 kbps, 48 kHz, 2 ch | Звук: Soer & MezIdA
Аудио 2: AAC, ~128 kbps, 44.1 kHz, 2 ch | Звук: Оригинал
Субтитры 1: Надписи, отключаемые (Встроенные)
Субтитры 2: Полные, отключаемые (Встроенные) Скриншоты:
       
-

Эпизоды:

01. Чем могу быть полезен
02. Среди тайн и усугубляющихся подозрений
03. Мои заветные чувства к тебе
04. Среди переплетения заговоров
05. Среди ветра на поле битвы
06. Между реальностью и собственной истиной
07. Среди сплетения заговоров и желаний
08. Претендующие на будущее
09. За пределами бесконечной мечты
10. Значение того, что необходимо сделать

Mediainfo:

Код:
Общее
Уникальный идентификатор                 : 249060174829847070364354395062008070874 (0xBB5F3EAF884D109E9254698DBE14C2DA)
Полное имя                               : S:\Films\HDTV 720p\Shinmai Maou no Testament Burst [WEBRip 720p]\[01] Shinmai Maou no Testament Burst [Soer & MezIdA].mkv
Формат                                   : Matroska
Версия формата                           : Version 4 / Version 2
Размер файла                             : 353 Мбайт
Продолжительность                        : 23 м.
Общий поток                              : 2087 Кбит/сек
Дата кодирования                         : UTC 2015-10-13 16:15:33
Программа кодирования                    : mkvmerge v7.5.0 ('Glass Culture') 64bit built on Jan  4 2015 16:48:44
Библиотека кодирования                   : libebml v1.3.1 + libmatroska v1.4.2
Attachements                             : OpenSans-Semibold.ttf
DURATION                                 : 00:22:11.200000000
NUMBER_OF_FRAMES                         : 270
NUMBER_OF_BYTES                          : 18423
_STATISTICS_WRITING_APP                  : mkvmerge v7.5.0 ('Glass Culture') 64bit built on Jan  4 2015 16:48:44
_STATISTICS_WRITING_DATE_UTC             : 2015-10-13 16:15:33
_STATISTICS_TAGS                         : BPS DURATION NUMBER_OF_FRAMES NUMBER_OF_BYTES
Видео
Идентификатор                            : 1
Формат                                   : AVC
Формат/Информация                        : Advanced Video Codec
Профиль формата                          : [email protected]
Параметр CABAC формата                   : Да
Параметр ReFrames формата                : 6 кадров
Идентификатор кодека                     : V_MPEG4/ISO/AVC
Продолжительность                        : 23 м.
Номинальный битрейт                      : 1776 Кбит/сек
Ширина                                   : 1280 пикселей
Высота                                   : 720 пикселей
Соотношение сторон                       : 16:9
Режим частоты кадров                     : Постоянный
Частота кадров                           : 23,976 кадра/сек
Цветовое пространство                    : YUV
Субдискретизация насыщенности            : 4:2:0
Битовая глубина                          : 8 бит
Тип развёртки                            : Прогрессивная
Бит/(Пиксели*Кадры)                      : 0.080
Библиотека кодирования                   : x264 core 120 r2120 0c7dab9
Настройки программы                      : cabac=1 / ref=6 / deblock=1:1:1 / analyse=0x3:0x113 / me=umh / subme=8 / psy=1 / psy_rd=0.40:0.00 / mixed_ref=1 / me_range=16 / chroma_me=1 / trellis=1 / 8x8dct=1 / cqm=0 / deadzone=21,11 / fast_pskip=1 / chroma_qp_offset=-2 / threads=4 / sliced_threads=0 / nr=0 / decimate=1 / interlaced=0 / bluray_compat=0 / constrained_intra=0 / bframes=3 / b_pyramid=2 / b_adapt=2 / b_bias=0 / direct=3 / weightb=1 / open_gop=0 / weightp=2 / keyint=250 / keyint_min=23 / scenecut=40 / intra_refresh=0 / rc_lookahead=50 / rc=2pass / mbtree=1 / bitrate=1776 / ratetol=1.0 / qcomp=0.60 / qpmin=0 / qpmax=69 / qpstep=4 / cplxblur=20.0 / qblur=0.5 / vbv_maxrate=3552 / vbv_bufsize=8880 / nal_hrd=none / ip_ratio=1.40 / aq=1:0.60
Default                                  : Да
Forced                                   : Нет
_STATISTICS_WRITING_APP                  : mkvmerge v7.5.0 ('Glass Culture') 64bit built on Jan  4 2015 16:48:44
_STATISTICS_WRITING_DATE_UTC             : 2015-10-13 16:15:33
_STATISTICS_TAGS                         : BPS DURATION NUMBER_OF_FRAMES NUMBER_OF_BYTES
DURATION                                 : 00:23:40.045000000
NUMBER_OF_FRAMES                         : 34047
NUMBER_OF_BYTES                          : 315014137
Аудио #1
Идентификатор                            : 2
Формат                                   : AAC
Формат/Информация                        : Advanced Audio Codec
Профиль формата                          : LC
Идентификатор кодека                     : A_AAC
Продолжительность                        : 23 м.
Каналы                                   : 2 канала
Расположение каналов                     : Front: L R
Частота                                  : 48,0 КГц
Метод сжатия                             : С потерями
Задержка видео                           : 20 мс.
Заголовок                                : [Soer & MezIdA] [AniFilm]
Язык                                     : Russian
Default                                  : Нет
Forced                                   : Нет
_STATISTICS_WRITING_APP                  : mkvmerge v7.5.0 ('Glass Culture') 64bit built on Jan  4 2015 16:48:44
_STATISTICS_WRITING_DATE_UTC             : 2015-10-13 16:15:33
_STATISTICS_TAGS                         : BPS DURATION NUMBER_OF_FRAMES NUMBER_OF_BYTES
DURATION                                 : 00:23:40.109000000
NUMBER_OF_FRAMES                         : 61159
NUMBER_OF_BYTES                          : 22721747
Аудио #2
Идентификатор                            : 3
Формат                                   : AAC
Формат/Информация                        : Advanced Audio Codec
Профиль формата                          : LC
Идентификатор кодека                     : A_AAC
Продолжительность                        : 23 м.
Каналы                                   : 2 канала
Расположение каналов                     : Front: L R
Частота                                  : 44,1 КГц
Метод сжатия                             : С потерями
Заголовок                                : Original
Язык                                     : Japanese
Default                                  : Нет
Forced                                   : Нет
Текст #1
Идентификатор                            : 4
Формат                                   : ASS
Идентификатор кодека                     : S_TEXT/ASS
Идентификатор кодека/Информация          : Advanced Sub Station Alpha
Метод сжатия                             : Без потерь
Заголовок                                : Надписи
Язык                                     : Russian
Default                                  : Да
Forced                                   : Нет
Текст #2
Идентификатор                            : 5
Формат                                   : ASS
Идентификатор кодека                     : S_TEXT/ASS
Идентификатор кодека/Информация          : Advanced Sub Station Alpha
Метод сжатия                             : Без потерь
Заголовок                                : Полные субтитры
Язык                                     : Russian
Default                                  : Нет
Forced                                   : Нет
-

Clavik

Post 29-Dec-2015 01:01

[Quote]

Hoozuki no Reitetsu / Хладнокровный Ходзуки- Жанр: комедия, фэнтези
Тип: TV-сериал
Продолжительность: 13 эпизодов по 25 минут
Выпуск: c 10.01.2014 по 04.04.2014
Автор: Эгути Нацуми
Снято по манге: Hoozuki no Reitetsu
Режиссер: Кабураки Хиро
Производство: Wit Studio-Информационные ссылки: AniDB || World Art || MAL || ANN-Перевод:
  • Русские субтитры от Asca & Holydarkness & Kasandra & Stan WarHammer
-Описание:
Дальневосточный Ад, которым правит владыка Эмма-О, похож на гигантскую корпорацию с массой филиалов и подразделений. Как в любой подобной фирме, каждый день несет сюрпризы и неприятности – то дрова не завезли, то персонала не хватает, то сам европейский Сатана вдруг в гости пожалует. Да и клиент какой-то пошел беспокойный – всё права качает, нет, чтобы покорно страдать до следующего воплощения. Кто же решает бесконечные проблемы, не давая им раньше времени перерасти в Армагеддон? Конечно же, Хладнокровный Ходзуки, зам. главы по общим вопросам, красавец-демон в расцвете лет!
Буянят сказочные герои? Надо спасать Адские игры? Небесные смежники просят о помощи? Грешники упились и требуют свободы? Ходзуки тут как тут и всегда готов навести порядок добрым словом и верной железной дубиной. Выбить из колеи красавца в черном могут только встречи с Хакутаку, китайским всезнайкой, бабником и заклятым другом-соперником. После такого не грех подлечить нервы выращиванием золотых рыбок или посещением нашего мира. Да, адские работники любят у нас бывать – родину очень напоминает. Да и мы, как говорят, все там будем!© Hollow, World Art-Качество: BDRip | Энкод: Winter
Формат: MKV
Видео: x264 (10 bit) 1280x720, ~3900 Kbps, 23.976 fps
Аудио: Vorbis, 256 Kbps, 48.0 kHz, 2 ch
Аудио: AC-3, 192 Kbps, 48.0 kHz, 2 ch (внешними файлами)
Субтитры: ASS, Полные | Надписи (внешними файлами) -

Список озвучек:

  • двухголосая (муж./жен.) от Absurd & Eladiel (Onibaku)
  • двухголосая (муж./жен.) от Inspector Gadjet & Oriko (Anidub)

Список эпизодов:

01. Making or Breaking Hell / The Discovery of Hell`s Mysteries
02. Demons and Underwear and Crabs / The State of Hell, and This and That
03. Hakutaku / How Their Discord Came to Be
04. Pretty Boys Need Love Too / The Crackling Hell
05. The Instrumental Duo of the Mighty Rivals / Mental Sports Day
06. Hell Idol: Peach Maki / The Right Arm Blues
07. Man and Woman and Mortal Hell / Hell-Style Acupuncture and Moxibustion Techniques: How-To Use the Johari Mirror
08. The Trashy Battle / The 36 Views of Hell
09. The Ultimate Example of Ruin Through Wine and Women / Awash with Drunks Who Came Home
10. Dinner of the Ten Kings of the Afterlife / Diets Are Hell
11. The Samurai Who Was Once Inch-High / The Quagmire Sisters of the Mount
12. Lady Lilith and Her Husband / Why Monsters Are So Widely Spread Throughout Mundane China
13. Hell`s Bon Festival of Lights / Idle Chat with the Great King Enma

Тех. параметры:

Код:
General
Unique ID                   : 251625197447629228789059546247853143660 (0xBD4D40108F2A7B36A162247F51B2766C)
Complete name               : Hoozuki no Reitetsu [BD] [720p]\[W] Hoozuki no Reitetsu 01 [BDrip 1280x720 x264 Vorbis].mkv
Format                      : Matroska
Format version              : Version 2
File size                   : 747 MiB
Duration                    : 24mn 31s
Overall bit rate mode       : Variable
Overall bit rate            : 4 259 Kbps
Encoded date                : UTC 2014-09-14 12:39:46
Writing application         : mkvmerge v2.9.8 ('C'est le bon') built on Aug 13 2009 12:49:06
Writing library             : libebml v0.7.7 + libmatroska v0.8.1
Video
ID                          : 1
Format                      : AVC
Format/Info                 : Advanced Video Codec
Format profile              : High [url=mailto:[email protected]][email protected][/url]
Format settings, CABAC      : Yes
Format settings, ReFrames   : 9 frames
Codec ID                    : V_MPEG4/ISO/AVC
Duration                    : 24mn 31s
Bit rate                    : 3 918 Kbps
Width                       : 1 280 pixels
Height                      : 720 pixels
Display aspect ratio        : 16:9
Frame rate mode             : Constant
Frame rate                  : 23.976 (24000/1001) fps
Color space                 : YUV
Chroma subsampling          : 4:2:0
Bit depth                   : 10 bits
Scan type                   : Progressive
Bits/(Pixel*Frame)          : 0.177
Stream size                 : 687 MiB (92%)
Writing library             : x264 core 132 r2309 3b1f1f7
Encoding settings           : cabac=1 / ref=9 / deblock=1:-2:-2 / analyse=0x3:0x133 / me=umh / subme=9 / psy=1 / psy_rd=0.90:0.00 / mixed_ref=1 / me_range=24 / chroma_me=1 / trellis=2 / 8x8dct=1 / cqm=0 / deadzone=21,11 / fast_pskip=1 / chroma_qp_offset=-2 / threads=6 / lookahead_threads=1 / sliced_threads=0 / nr=0 / decimate=0 / interlaced=0 / bluray_compat=0 / constrained_intra=0 / bframes=8 / b_pyramid=2 / b_adapt=2 / b_bias=0 / direct=1 / weightb=1 / open_gop=0 / weightp=2 / keyint=250 / keyint_min=23 / scenecut=40 / intra_refresh=0 / rc=crf / mbtree=0 / crf=16.5 / qcomp=0.70 / qpmin=9 / qpmax=42 / qpstep=4 / ip_ratio=1.40 / pb_ratio=1.30 / aq=1:0.90
Default                     : No
Forced                      : No
Audio
ID                          : 2
Format                      : Vorbis
Format settings, Floor      : 1
Codec ID                    : A_VORBIS
Duration                    : 24mn 31s
Bit rate mode               : Variable
Bit rate                    : 256 Kbps
Channel(s)                  : 2 channels
Sampling rate               : 48.0 KHz
Detected bit depth          : 16 bits
Compression mode            : Lossy
Stream size                 : 44.9 MiB (6%)
Writing library             : libVorbis (Omnipresent) (20120203 (Omnipresent))
Language                    : Japanese
Default                     : Yes
Forced                      : No

Информация о релизе:

  • Выбор видео, перевода, озвучки, а также типа сборки материала осуществляется релизером и не подлежит обсуждению. Если вы считаете, что раздаваемый материал противоречит правилам раздела "Аниме", сообщите об этом одному из модераторов раздела.
  • В случае появления нового материала или же лучшего по качеству материала релизер оставляет за собой право обновить раздачу. В этом случае вам необходимо ознакомиться с изменениями (добавлениями) и перекачать торрент.
  • Данный релиз предназначен для просмотра на ПК. Воспроизведение на иных проигрывателях не гарантируется. Для просмотра рекомендуется Media Player Classic с установленным пакетом кодеков K-Lite.
  • Данный релиз содержит 10-битное видео (Hi10p). Для корректного воспроизведения обязательно используйте кодеки, поддерживающие 10-битное видео. ].
  • Данный релиз предназначен для просмотра с внешними субтитрами и внешними звуковыми дорожками.
    • Для просмотра с внешней звуковой дорожкой нужно:
      перекинуть файлы .mka из папки "RUS Sound []" в одну папку с видео и переключить звуковую дорожку в плеере при просмотре.
    • Для просмотра с субтитрами нужно:
      перекинуть файлы .ass из папки "RUS Subtitles []" в одну папку с видео - плеер подгрузит их автоматически при открытии видео.
-            -
 

The time now is: Today 19:28

All times are GMT + 3 Hours