Today is a free download without charge Download

Search found 500 matches

Author Message

Орлов Владимир

Post 13-Sep-2019 19:43

[Quote]

--Балабол / 3 сезон / 1-16 серия из 16 / (Владимир Мельник) [2019, Детектив, комедия, криминал, SATRip]-- Дата выхода: 2019
Страна: Россия
Жанр: Драма, криминал
Продолжительность: серия ~ 48 мин.--Режиссёр: Владимир Мельник--В ролях: Константин Юшкевич, Илья Шляга, Вадим Андреев, Инга Оболдина, Ирина Низина, Мария Пирогова, Иван Агапов, Гоша Куценко, Евгений Кушпель, Константин Тополага, Михаил Колядин, Юлия Дробот, Павел Маркин, Павел Комаров), Эдуард Сергиеня, Антон Шпиньков--Описание: В новом сезоне капитан Саня Балабин стал майором. Хотел бы ещё стать примерным семьянином - отцом и дедом. Но, судя по всему, семейная идиллия – не Санин удел. Он вновь разбегается с Леной и даже заводит роман на стороне. На работе тоже покой ему «только снится». В городе появляется хладнокровный убийца, который действует дерзко и жестоко, каждый раз опережая Саню буквально на один шаг. Но помимо поисков безжалостного убийцы, Балабину придётся накрыть чёрных риелторов, поймать убийцу юной девушки, разгромить в Геленджике банду наркоторговцев, а также найти крота в собственном отделе.-- --Качество: SATRip
Видео: XviD, 1500 Кбит/с, 720x400
Аудио: МР3, 2 ch, 192 Кбит/с--

Скриншоты

       

Орлов Владимир

Post 13-Sep-2019 18:46

[Quote]

--Форс-мажор / 1-10 серия из 10 / (Александр Жигалкин) [2019, Комедия, криминал, SATRip]-- Название: Форс-мажор
Год выпуска: 2019
Жанр: Комедия, криминал
Выпущено: Россия
Режиссер: Александр Жигалкин--В ролях: Павел Прилучный, Галина Петрова, Диана Пожарская, Илья Глинников, Александр Ильин, Сергей Лавыгин, Федор Добронравов, Владимир Сычев, Александр Ильин мл., Дмитрий Мальцев--Краткое содержание: Главный герой сериала — обычный медбрат Витя, который работает в клинике пластической хирургии. Скромный, безотказный молодой человек привык подчиняться всем, включая мать и друзей. Однажды в клинику, где он работает, обращается местный мафиози Терапевт. Глава криминального клана хочет сменить внешность, чтобы скрыться от полиции. Но во время операции авторитет умирает. Витя уверен, что в его смерти виноват он, и теперь ему грозит месть всего бандитского мира. На помощь приходит верный друг Артём. Он предлагает Вите неожиданный выход — стать Терапевтом — и втягивает молодого человека в авантюру, которая полностью перевернет его жизнь.-- --Качество: SATRip
Видео: XviD, 1450 Кбит/с, 720x400
Аудио: MP3, 2 ch, 192 Кбит/с
Продолжительность: ~ 00:48:00
Перевод: оригинал
--

Скриншоты

       

Clavik

Post 20-Aug-2019 20:40

[Quote]

Сладкая жизнь (2014-2016) WEB-DLRip [H.264] (сезон 1-3, серии 1-21 из 21) - Производство: Россия / ТНТ
Жанр: драма, комедия
Режиссер: Андрей Джунковский, Давид Кочаров
Актеры: Марта Носова, Никита Панфилов, Лукерья Ильяшенко, Анастасия Меськова, Мария Шумакова, Роман Маякин, Антон Денисенко, Эдуард Мацаберидзе, Анатолий Горячев, Сергей Юшкевич и др.
Описание:
В центре истории «Сладкой жизни» шестеро успешных тридцатилетних москвичей, чья жизнь меняется с появлением главной героини Саши — матери-одиночки из Перми, зарабатывающей на жизнь в ночном клубе танцами go-go. После неприятного инцидента на дне рождения местного мажора Саша отправляет ребенка к бабушке, а сама едет в гости к московской подруге Лере. Когда-то они вместе танцевали в кордебалете Большого театра. Действие сериала длится всего 8 дней, но за это время жизнь каждого из героев повернется на 180 градусов. И каждый из участников событий успеет показать себя с самой неожиданной стороны: в диапазоне от абсолютного свинства до настоящего благородства.

Возраст: 16+ (зрителям, достигшим 16 лет)
Релиз от: Vovan366
Продолжительность: ~00:44:00 серия
Качество видео: WEB-DLRip
Внимание!Присутствует ненормативная лексика!
Видео: AVC/H.264, 1024x576 (16:9), ~2000 Kbps
Аудио: AC3, 2 ch, 192 kbps - русский

MediaInfo:

General
Unique ID : 174816225587041309277290320078124858336 (0x8384615F6C3119A98E4E22257F1FBBE0)
Complete name : Сладкая жизнь.S01.E01.mkv
Format : Matroska
Format version : Version 2
File size : 734 MiB
Duration : 46 min 44 s
Overall bit rate : 2 194 kb/s
Encoded date : UTC 2015-05-28 17:55:47
Writing application : mkvmerge v6.1.0 ('Old Devil') built on Mar 4 2013 09:10:42
Writing library : libebml v1.3.0 + libmatroska v1.4.0
Video
ID : 1
Format : AVC
Format/Info : Advanced Video Codec
Format profile : [url=mailto:[email protected]][email protected][/url]
Format settings : CABAC / 6 Ref Frames
Format settings, CABAC : Yes
Format settings, Reference : 6 frames
Codec ID : V_MPEG4/ISO/AVC
Duration : 46 min 44 s
Bit rate : 2 000 kb/s
Width : 1 024 pixels
Height : 576 pixels
Display aspect ratio : 16:9
Frame rate mode : Constant
Frame rate : 25.000 FPS
Color space : YUV
Chroma subsampling : 4:2:0
Bit depth : 8 bits
Scan type : Progressive
Bits/(Pixel*Frame) : 0.136
Stream size : 655 MiB (89%)
Writing library : x264 core 130 r2273 b3065e6
Encoding settings : cabac=1 / ref=6 / deblock=1:-2:-2 / analyse=0x3:0x113 / me=umh / subme=9 / psy=1 / psy_rd=1.00:0.15 / mixed_ref=1 / me_range=32 / chroma_me=1 / trellis=2 / 8x8dct=1 / cqm=0 / deadzone=21,11 / fast_pskip=1 / chroma_qp_offset=-3 / threads=6 / lookahead_threads=1 / sliced_threads=0 / nr=0 / decimate=0 / interlaced=0 / bluray_compat=0 / constrained_intra=0 / bframes=6 / b_pyramid=2 / b_adapt=2 / b_bias=0 / direct=3 / weightb=1 / open_gop=0 / weightp=2 / keyint=250 / keyint_min=25 / scenecut=40 / intra_refresh=0 / rc=2pass / mbtree=0 / bitrate=2000 / ratetol=1.0 / qcomp=0.60 / qpmin=0 / qpmax=69 / qpstep=4 / cplxblur=20.0 / qblur=0.5 / ip_ratio=1.40 / pb_ratio=1.30 / aq=1:1.00
Default : Yes
Forced : No
Audio
ID : 2
Format : AC-3
Format/Info : Audio Coding 3
Commercial name : Dolby Digital
Codec ID : A_AC3
Duration : 46 min 44 s
Bit rate mode : Constant
Bit rate : 192 kb/s
Channel(s) : 2 channels
Channel layout : L R
Sampling rate : 44.1 kHz
Frame rate : 28.711 FPS (1536 SPF)
Bit depth : 16 bits
Compression mode : Lossy
Stream size : 64.2 MiB (9%)
Service kind : Complete Main
Default : Yes
Forced : No
Скриншоты:
       

Вольтер

Post 10-Apr-2019 21:01

[Quote]

Есть ли в раздаче английские субтитры?

Theseus

Post 28-Oct-2018 19:24

[Quote]

Операция «Сатана»- Год выпуска: 2018
Страна: Россия
Жанр: Детектив, криминал
Продолжительность: 8х ~00:50:00
Режиссер: Юрий Мороз-В ролях: Андрей Смоляков, Марина Александрова, Даниэла Стоянович, Владимир Юматов, Сергей Угрюмов, Луиза Мосендз, Яна Сексте, Владимир Ильин, Виктория Исакова, Александр Домогаров, Сергей Колтаков, Игорь Гордин, Александра Ребенок, Александр Голубев, Софья Евстигнеева, Лариса Удовиченко, Юрий Чурсин, Алексей Бардуков, Филипп Гуревич, Дмитрий Куличков, Юрий Тарасов-Описание: 1975 год — холодная война между СССР и США, гонка вооружений. Напряженно работают физики-ядерщики. В Советском Союзе становится очевидной утечка секретной информации о разработке ракеты «Сатана». Казалось бы, как может быть связан майор милиции с разведкой спецслужб? Однако именно он, Иван Петрович, уволенный из МУРа, трудящийся обычным участковым, оказывает неоценимую помощь КГБ в поимке американского шпиона.- -Качество: WEB-DL 1080p
Формат: MKV
Видео кодек: x.264
Аудио кодек: AC3
Видео: MPEG4 AVC, x.264, 1920x1080, 25 fps, ~4800 kbps
Аудио: AC-3, 48.0 KHz, 2 ch, 192 Kbps-

Трейлер

-    - - -

Theseus

Post 28-Oct-2018 19:23

[Quote]

Операция «Сатана»- Год выпуска: 2018
Страна: Россия
Жанр: Детектив, криминал
Продолжительность: 8х ~00:50:00
Режиссер: Юрий Мороз-В ролях: Андрей Смоляков, Марина Александрова, Даниэла Стоянович, Владимир Юматов, Сергей Угрюмов, Луиза Мосендз, Яна Сексте, Владимир Ильин, Виктория Исакова, Александр Домогаров, Сергей Колтаков, Игорь Гордин, Александра Ребенок, Александр Голубев, Софья Евстигнеева, Лариса Удовиченко, Юрий Чурсин, Алексей Бардуков, Филипп Гуревич, Дмитрий Куличков, Юрий Тарасов-Описание: 1975 год — холодная война между СССР и США, гонка вооружений. Напряженно работают физики-ядерщики. В Советском Союзе становится очевидной утечка секретной информации о разработке ракеты «Сатана». Казалось бы, как может быть связан майор милиции с разведкой спецслужб? Однако именно он, Иван Петрович, уволенный из МУРа, трудящийся обычным участковым, оказывает неоценимую помощь КГБ в поимке американского шпиона.- -Качество: WEB-DLRip
Формат: AVI
Видео кодек: XviD
Аудио кодек: AC3
Видео: MPEG4, XviD, 720x400 (16:9), 25.000 fps, 1 495 Kbps
Аудио: AC-3, 48.0 KHz, 2 ch, 192 Kbps-

Трейлер

-    - - -

Theseus

Post 28-Sep-2018 09:11

[Quote]

Замена раздачи на другой первоисточник , т.к прошлый закрылся ....

Theseus

Post 07-Sep-2018 21:26

[Quote]

-Домашний арест-
Год выпуска: 2018
Страна: Россия
Жанр: Комедия
Продолжительность серии: ~ 01:07:00
Перевод: Не требуется (русский)
Режиссер: Пётр Буслов
Cценарий Семен Слепаков, Максим Туханин-В ролях: Павел Деревянко, Александр Робак, Егор Клинаев, Юлия Сорокина, Анна Уколова, Тимофей Трибунцев, Марина Александрова, Сергей Бурунов, Илья Коврижных, Виктория Самилкина-Описание: Мэр небольшого города попался на взятке и в качестве меры пресечения ему назначен домашний арест по месту прописки. Коллизия в том, что, чтобы казаться скромнее, чиновник прописан не в своем особняке, а в коммунальной квартире, в которой когда-то родился и вырос. Так он попадает в коммунальный ад своей старой квартиры. Он больше не главный и сам в свою очередь оказывается во власти простых обитателей коммуналки.- -Качество: WEBRip 1080p
Формат: MKV
Видео кодек: x.264
Аудио кодек: AC3
Видео: MPEG4 AVC, 1920x1080, 25 fps, ~4800 kbps
Аудио: AC3, 48.0 kHz, 2/0 (L,R) ch, 192 kbps-
     
- -

Theseus

Post 28-Sep-2018 09:10

[Quote]

-Домашний арест-
Год выпуска: 2018
Страна: Россия
Жанр: Комедия
Продолжительность серии: ~ 01:07:00
Перевод: Не требуется (русский)
Режиссер: Пётр Буслов
Cценарий Семен Слепаков, Максим Туханин-В ролях: Павел Деревянко, Александр Робак, Егор Клинаев, Юлия Сорокина, Анна Уколова, Тимофей Трибунцев, Марина Александрова, Сергей Бурунов, Илья Коврижных, Виктория Самилкина-Описание: Мэр небольшого города попался на взятке и в качестве меры пресечения ему назначен домашний арест по месту прописки. Коллизия в том, что, чтобы казаться скромнее, чиновник прописан не в своем особняке, а в коммунальной квартире, в которой когда-то родился и вырос. Так он попадает в коммунальный ад своей старой квартиры. Он больше не главный и сам в свою очередь оказывается во власти простых обитателей коммуналки.- -Качество: WEBRip 720p
Формат: MKV
Видео кодек: x.264
Аудио кодек: AC3
Видео: MPEG-4 AVC, 1280x720, 25 fps, 2100 kbps
Аудио: AC3, 48.0 kHz, 2/0 (L,R) ch, 192 kbps-
     
- -

Theseus

Post 31-Aug-2018 15:28

[Quote]

-Домашний арест-
Год выпуска: 2018
Страна: Россия
Жанр: Комедия
Продолжительность серии: ~ 01:07:00
Перевод: Не требуется (русский)
Режиссер: Пётр Буслов
Cценарий Семен Слепаков, Максим Туханин-В ролях: Павел Деревянко, Александр Робак, Егор Клинаев, Юлия Сорокина, Анна Уколова, Тимофей Трибунцев, Марина Александрова, Сергей Бурунов, Илья Коврижных, Виктория Самилкина-Описание: Мэр небольшого города попался на взятке и в качестве меры пресечения ему назначен домашний арест по месту прописки. Коллизия в том, что, чтобы казаться скромнее, чиновник прописан не в своем особняке, а в коммунальной квартире, в которой когда-то родился и вырос. Так он попадает в коммунальный ад своей старой квартиры. Он больше не главный и сам в свою очередь оказывается во власти простых обитателей коммуналки.- -Качество: WEBRip-AVC
Формат: MKV
Видео кодек: x.264
Аудио кодек: AC3
Видео: AVC, 1024x576 (16:9), 25.000 fps, 1 600 Kbps
Аудио: AC-3, 44.1 KHz, 2 ch, 192 Kbps, CBR-
    
- -

Theseus

Post 31-Aug-2018 13:42

[Quote]

-Домашний арест-
Год выпуска: 2018
Страна: Россия
Жанр: Комедия
Продолжительность серии: ~ 01:07:00
Перевод: Не требуется (русский)
Режиссер: Пётр Буслов
Cценарий Семен Слепаков, Максим Туханин-В ролях: Павел Деревянко, Александр Робак, Егор Клинаев, Юлия Сорокина, Анна Уколова, Тимофей Трибунцев, Марина Александрова, Сергей Бурунов, Илья Коврижных, Виктория Самилкина-Описание: Мэр небольшого города попался на взятке и в качестве меры пресечения ему назначен домашний арест по месту прописки. Коллизия в том, что, чтобы казаться скромнее, чиновник прописан не в своем особняке, а в коммунальной квартире, в которой когда-то родился и вырос. Так он попадает в коммунальный ад своей старой квартиры. Он больше не главный и сам в свою очередь оказывается во власти простых обитателей коммуналки.- -Качество: WEBRip
Формат: AVI
Видео кодек: XviD
Аудио кодек: AC3
Видео: MPEG4, XviD, 720x400 (16:9), 25.000 fps, 1 494 Kbps (0.208 bit/pixel)
Аудио: AC-3, 48.0 KHz, 2 ch, 192 Kbps, CBR-
    
- -

}{@R0N

Post 05-Jul-2017 21:17

[Quote]

Город - Производство: Россия / Epic media
Жанр: драма
Режиссер: Юрий Трофимов, Дмитрий Константинов
Актеры: Пётр Фёдоров, Евгений Антропов, Владимир Юматов, Игорь Черневич, Владислав Абашин, Яна Гладких, Сергей Журавель, Надежда Михалкова, Федор Лавров, Светлана Колпакова и др.
Описание:
Июнь 1961 года. Небольшой городок Струнёво, сразу за 101-м километром. В отличие от соседних городов и посёлков, преступления здесь случаются не часто, а раскрываемость — одна из лучших в СССР. Но, расследуя смерть школьного учителя оперативник Родион Стоцкий обнаруживает, что Струнёво — это «дом, в котором не гадят», и хозяева в этом доме — блатные и воры в законе, которые после амнистии облюбовали этот небольшой городок. А большинство грабежей и разбойных нападений в соседних городах и посёлках — скорее всего, как раз дело рук жителей мирного Струнёво.

Возраст: 12+ (зрителям, достигшим 12 лет)
Дата российской премьеры: 3 июля 2017
Продолжительность: ~00:50:00 серия
Качество видео: SATRip
Видео: Xvid, 720x400 (16:9), ~1650 Kbps
Аудио: MP3, 2 ch, 192 Kbps

Mediainfo:

Общее
Полное имя : F:\Город (2017)\Серия 1.avi
Формат : AVI
Формат/Информация : Audio Video Interleave
Размер файла : 650 Мбайт
Продолжительность : 49 м. 4 с.
Общий поток : 1851 Кбит/сек
Программа кодирования : VirtualDubMod 1.5.10.3 | www.virtualdub-fr.org || (build 2550/release)
Библиотека кодирования : VirtualDubMod build 2550/release
Видео
Идентификатор : 0
Формат : MPEG-4 Visual
Профиль формата : Advanced [email protected]
Параметр BVOP формата : 1
Параметр QPel формата : Нет
Параметр GMC формата : Без точки перехода
Параметр матрицы формата : Default (MPEG)
Идентификатор кодека : XVID
Идентификатор кодека/Подсказка : XviD
Продолжительность : 49 м. 4 с.
Битрейт : 1650 Кбит/сек
Ширина : 720 пикселей
Высота : 400 пикселей
Соотношение сторон : 16:9
Частота кадров : 25,000 кадров/сек
Цветовое пространство : YUV
Субдискретизация насыщенности : 4:2:0
Битовая глубина : 8 бит
Тип развёртки : Прогрессивная
Метод сжатия : С потерями
Бит/(Пиксели*Кадры) : 0.229
Размер потока : 579 Мбайт (89%)
Библиотека кодирования : XviD 1.2.1 (UTC 2008-12-04)
Аудио
Идентификатор : 1
Формат : MPEG Audio
Версия формата : Version 1
Профиль формата : Layer 3
Режим : Joint stereo
Идентификатор кодека : 55
Идентификатор кодека/Подсказка : MP3
Продолжительность : 49 м. 4 с.
Вид битрейта : Постоянный
Битрейт : 192 Кбит/сек
Каналы : 2 канала
Частота : 48,0 КГц
Метод сжатия : С потерями
Размер потока : 67,4 Мбайт (10%)
Выравнивание : Соединение по промежуткам
Продолжительность промежутка : 40 мс. (1,00 видеокадр)
Время предзагрузки промежутка : 504 мс.
Библиотека кодирования : LAME3.99r
Настройки программы : -m j -V 4 -q 0 -lowpass 18.6 -b 192

Внимание! Раздача ведётся путём добавления новых серий

Внимание! Раздача ведётся путём добавления новых серий; при каждом добавлении создаётся новый торрент.
Чтобы начать докачку новой серии, пользователям необходимо сделать следующее:
1. Остановить скачивание;
2. Удалить старый торрент у себя из клиента (старые серии удалять не надо);
3. Скачать новый торрент и запустить его у себя в клиенте вместо старого, при этом указать клиенту путь в старую папку куда и должно происходить скачивание новых серий. Ваш клиент при этом должен произвести хеширование (проверку) старой папки и будет докачивать только те серии, которых у вас ещё нет. Старые серии при этом не удаляются, а продолжают раздаваться! Eсли вы уже удалили старые серии, то предотвратить повторную закачку старых серий можно, отжав галочку в соответствующих местах при запуске нового торрента.
Скриншоты:
       

}{@R0N

Post 19-May-2017 22:25

[Quote]

Власик. Тень Сталина - Производство: Россия / "Пиманов-фильм"
Жанр: биография, драма
Режиссер: Алексей Мурадов
Актеры: Константин Милованов, Леван Мсхиладзе, Ольга Погодина, Александр Нехороших, Диана Максимова, Александр Новик, Оксана Земляникова, Сергей Потапов, Дмитрий Янышевский, Егор Клинаев и др.
Описание:
Биографический сериал охватывает период с конца двадцатых по пятидесятые годы прошлого века. В центре внимания судьба начальника охраны Сталина — Николая Сидоровича Власика. Фильм рассказывает, прежде всего, о том, как беззаветно и преданно Власик служит Сталину, в течение фильма он словно становится его тенью, и даже и членом его семьи. Как и глава государства, Власик — личность спорная, но вызывающая уважение: не один раз он прикрывал собой вождя от покушений, решал все бытовые проблемы главы государства и его семьи.

Возраст: 16+ (зрителям, достигшим 16 лет)
Дата российской премьеры: 10 мая 2017
Продолжительность: ~00:51:00 серия
Качество видео: WEB-DL
Видео: AVC/H.264, 1280x720 (16:9), ~3200 Kbps
Аудио: AC3, 2 ch, 192 Kbps

Mediainfo:

Общее
Уникальный идентификатор : 190140668449274652935922078621762760498 (0x8F0BC2BD50C9266FBF30A77A98E2AF32)
Полное имя : D:\Власик. Тень Сталина (2017)\Серия 01.mkv
Формат : Matroska
Версия формата : Version 4 / Version 2
Размер файла : 1,25 Гбайт
Продолжительность : 53 м. 25 с.
Режим общего битрейта : Переменный
Общий поток : 3360 Кбит/сек
Дата кодирования : UTC 2017-05-10 17:01:39
Программа кодирования : mkvmerge v9.4.0 ('Knurl') 32bit
Библиотека кодирования : libebml v1.3.4 + libmatroska v1.4.5
Видео
Идентификатор : 1
Формат : AVC
Формат/Информация : Advanced Video Codec
Профиль формата : [url=mailto:[email protected]][email protected][/url]
Параметр CABAC формата : Да
Параметр ReFrames формата : 4 кадра
Идентификатор кодека : V_MPEG4/ISO/AVC
Продолжительность : 53 м. 25 с.
Вид битрейта : Переменный
Битрейт : 3200 Кбит/сек
Максимальный битрейт : 40,0 Мбит/сек
Ширина : 1280 пикселей
Высота : 720 пикселей
Соотношение сторон : 16:9
Режим частоты кадров : Постоянный
Частота кадров : 25,000 кадров/сек
Цветовое пространство : YUV
Субдискретизация насыщенности : 4:2:0
Битовая глубина : 8 бит
Тип развёртки : Прогрессивная
Бит/(Пиксели*Кадры) : 0.139
Размер потока : 1,18 Гбайт (94%)
Библиотека кодирования : x264 core 148
Настройки программы : cabac=1 / ref=2 / deblock=1:0:0 / analyse=0x3:0x113 / me=hex / subme=6 / psy=1 / psy_rd=1.00:0.00 / mixed_ref=1 / me_range=16 / chroma_me=1 / trellis=1 / 8x8dct=1 / cqm=0 / deadzone=21,11 / fast_pskip=1 / chroma_qp_offset=-2 / threads=1 / lookahead_threads=1 / sliced_threads=0 / nr=0 / decimate=1 / interlaced=0 / bluray_compat=0 / constrained_intra=0 / bframes=3 / b_pyramid=2 / b_adapt=1 / b_bias=0 / direct=1 / weightb=1 / open_gop=0 / weightp=1 / keyint=250 / keyint_min=25 / scenecut=0 / intra_refresh=0 / rc_lookahead=30 / rc=abr / mbtree=1 / bitrate=3200 / ratetol=1.0 / qcomp=0.60 / qpmin=0 / qpmax=69 / qpstep=4 / ip_ratio=1.40 / aq=1:1.0
Default : Да
Forced : Нет
Аудио
Идентификатор : 2
Формат : AC-3
Формат/Информация : Audio Coding 3
Параметр Endianness формата : Big
Идентификатор кодека : A_AC3
Продолжительность : 53 м. 25 с.
Вид битрейта : Постоянный
Битрейт : 192 Кбит/сек
Каналы : 2 канала
Расположение каналов : Front: L R
Частота : 48,0 КГц
Частота кадров : 31,250 кадров/сек (1536 spf)
Битовая глубина : 16 бит
Метод сжатия : С потерями
Размер потока : 73,4 Мбайт (6%)
Язык : Russian
ServiceKind/String : Complete Main
Default : Да
Forced : Нет
Скриншоты:
       

}{@R0N

Post 26-Jan-2017 21:38

[Quote]

Склифосовский / Склиф - Производство: Россия / Кинокомпания Русское
Жанр: драма, мелодрама
Режиссер: Андрей Селиванов
Актеры: Максим Аверин, Ольга Красько, Мария Кожевникова, Дмитрий Миллер, Лаура Кеосаян, Эммануил Виторган, Ольга Павловец, Марина Могилевская, Константин Юшкевич, Алена Яковлева, Владимир Жеребцов и др.
Описание:
После взрыва в финале предыдущего сезона жизнь Олега Брагина, талантливого хирурга, оказывается под угрозой. Однако коллегам удается спасти Брагина, правда, Олег перенес сложную операцию, после которой на некоторое время впал в кому. Он потихоньку восстанавливает свои сил. Вокруг все говорят, что Брагин — настоящий герой. Все, кроме одного человека: жены Олега Нарочинской, которая не может простить возлюбленному его поступок. Она бросает Брагина и намерена развестись с ним. Чтобы вернуть свою любовь, Олег должен кардинально поменять свой образ жизни, и тогда, возможно, у него появится возможность вернуть Марину.

Возраст: 16+ (зрителям, достигшим 16 лет)
Продолжительность: ~00:52:00 серия
Качество видео: SATRip
Видео: XviD, 720x400 (16:9), ~1797 Kbps
Аудио: MP3, 48.0 KHz, 2 ch, 128 Kbps, CBR

Mediainfo:

Общее
Полное имя : D:\[1]\Склифосовский\Склифосовский-5 (Склиф) (2017)\Склифосовский-5 (Склиф). Серия 01 (2017).avi
Формат : AVI
Формат/Информация : Audio Video Interleave
Размер файла : 734 Мбайт
Продолжительность : 53 м.
Общий поток : 1935 Кбит/сек
Программа кодирования : VirtualDubMod 1.5.10.3 | www.virtualdub-fr.org || (build 2550/release)
Библиотека кодирования : VirtualDub build 29808/release
Видео
Идентификатор : 0
Формат : MPEG-4 Visual
Профиль формата : Advanced [email protected]
Параметр BVOP формата : 2
Параметр QPel формата : Нет
Параметр GMC формата : Без точки перехода
Параметр матрицы формата : Default (H.263)
Идентификатор кодека : XVID
Идентификатор кодека/Подсказка : XviD
Продолжительность : 53 м.
Битрейт : 1797 Кбит/сек
Ширина : 720 пикселей
Высота : 400 пикселей
Соотношение сторон : 16:9
Частота кадров : 25,000 кадров/сек
Цветовое пространство : YUV
Субдискретизация насыщенности : 4:2:0
Битовая глубина : 8 бит
Тип развёртки : Прогрессивная
Метод сжатия : С потерями
Бит/(Пиксели*Кадры) : 0.250
Размер потока : 682 Мбайт (93%)
Библиотека кодирования : XviD 1.2.1 (UTC 2008-12-04)
Аудио
Идентификатор : 1
Формат : MPEG Audio
Версия формата : Version 1
Профиль формата : Layer 3
Режим : Joint stereo
Расширение режима : MS Stereo
Идентификатор кодека : 55
Идентификатор кодека/Подсказка : MP3
Продолжительность : 53 м.
Вид битрейта : Постоянный
Битрейт : 128 Кбит/сек
Каналы : 2 канала
Частота : 48,0 КГц
Метод сжатия : С потерями
Размер потока : 48,6 Мбайт (7%)
Выравнивание : Соединение по промежуткам
Продолжительность промежутка : 40 мс. (1,00 видеокадр)
Время предзагрузки промежутка : 504 мс.
Библиотека кодирования : LAME3.99r
Настройки программы : -m j -V 4 -q 2 -lowpass 17 -b 128
Скриншоты:
       

Omen

Post 16-Jan-2017 01:00

[Quote]

Принцесса с севера
- Год выпуска: 2015
Производство: «Киностудия Крылья»
Жанр: Мелодрама
Продолжительность: 00:44:00
Субтитры: нет-Режиссёр: Владимир Зайкин, Марина Сулейманова-В ролях: Полина Максимова, Алексей Нестеренко, Роман Курцын, Василий Шемякинский, Дмитрий Марьянов, Шухрат Иргашев, Павел Майков, Ольга Балашова, Юлия Юсупова, Ирина Лосева, Рустам Сагдуллаев, Амет Согиа, Мария Кудрявцева, Амаяк Чинарян, Константин Адаев, Владимир Носик, Аркадий Данилов (II), Александр Печенин, Марина Зубанова, Юрий Гумиров, Софья Цепкова-Описание: Вика обучается в самом престижном ВУЗе Москвы, она занимается изучением истории и культуры страны Аджахар. Для того чтобы узнать об этой стране больше, девушка отправляется туда в командировочный отпуск.-Релиз-группа: -Сэмпл-Качество: HDTVRip
Формат: AVI
Видео кодек: XviD
Аудио кодек: AC3
Видео: 720х400 (16:9), 25.000 fps, XviD, 1577 Kbps, 0.22 Bits/Pixel
Аудио: 48 kHz, AC3 Dolby Digital, 2 ch, 192 Kbps-Реклама: Нет-

MI

General
Complete name : Downloads\Princessa.s.severa.2016.HDTVRip.Files-x\01.Princessa.s.severa.2016.HDTVRip.Files-x.avi
Format : AVI
Format/Info : Audio Video Interleave
File size : 550 MiB
Duration : 43mn 16s
Overall bit rate : 1 778 Kbps
Writing application : VirtualDubMod 1.5.10.3 | www.virtualdub-fr.org || (build 2550/release)
Writing library : VirtualDubMod build 2550/release
Video #0
ID : 0
Format : MPEG-4 Visual
Format profile : Advanced [email protected]
Format settings, BVOP : 1
Format settings, QPel : No
Format settings, GMC : No warppoints
Format settings, Matrix : Custom
Codec ID : XVID
Codec ID/Hint : XviD
Duration : 43mn 16s
Bit rate : 1 577 Kbps
Width : 720 pixels
Height : 400 pixels
Display aspect ratio : 16:9
Frame rate : 25.000 fps
Color space : YUV
Chroma subsampling : 4:2:0
Bit depth : 8 bits
Scan type : Progressive
Compression mode : Lossy
Bits/(Pixel*Frame) : 0.219
Stream size : 488 MiB (89%)
Writing library : XviD 73
Audio #1
ID : 1
Format : AC-3
Format/Info : Audio Coding 3
Mode extension : CM (complete main)
Format settings, Endianness : Big
Codec ID : 2000
Duration : 43mn 16s
Bit rate mode : Constant
Bit rate : 192 Kbps
Channel(s) : 2 channels
Channel positions : Front: L R
Sampling rate : 48.0 KHz
Bit depth : 16 bits
Compression mode : Lossy
Stream size : 59.4 MiB (11%)
Alignment : Split accross interleaves
Interleave, duration : 40 ms (1.00 video frame)
Interleave, preload duration : 500 ms

Скриншоты

 

The time now is: Today 14:20

All times are GMT + 3 Hours