Today is a free download without charge Download

Search found 500 matches

Author Message

БАНДИТ

Post 20-Oct-2020 18:36

[Quote]

Пацаны / The Boys- Год выхода: 2019
Выпущено: США / Amazon Studios, Original Film
Жанр: фантастика, боевик, комедия, криминал
Продолжительность: 1 x ~ 01:00:00
Перевод: Профессиональный (двухголосый закадровый) Кубик в Кубе - Ненормативная лексика
Субтитры: Русские (полные), Английские (полные)
Оригинальная аудиодорожка: Английская
Навигация по главам: Есть (8 глав)-Режиссеры:
Филип Сгриккиа, Дэниэл Эттиэс, Эрик Крипке, Дженнифер Фанг, Стефан Шварц, Мэтт Шекман, Фред Туа, Дэн Трахтенберг, Себастьян Сильва-В ролях:
Карл Урбан (Billy Butcher), Джек Куэйд (Hughie Campbell), Энтони Старр (Homelander), Эрин Мориарти (Annie January), Доминик МакЭллигот (Queen Maeve), Джесси Ашер (A-Train), Лас Алонсо (Mother's Milk), Чейс Кроуфорд (The Deep), Томер Капон (Frenchie), Карен Фукухара (Kimiko), Нэйтан Митчелл (Black Noir), Элизабет Шу (Madelyn Stillwell)-Описание:
Действие сериала разворачивается в мире, где существуют супергерои. Именно они являются настоящими звездами. Их все знают и обожают. Но за идеальным фасадом скрывается гораздо более мрачный мир наркотиков и секса, а большинство героев — в жизни не самые приятные люди. Противостоит им отряд, неофициально известный как «Пацаны».-| | IMDB | КиноПоиск | Сэмпл | Рекламы нет!-Качество: BDRip-AVC [The.Boys.S01.COMPLETE.BLURAY-OCULAR]
Формат: MKV
Видео: 1120x476 (2,35:1), 23,976 fps, x264 ~2100 kbps avg, 0.165 bit/pixel
Аудио #1: 48 kHz, AC3 Dolby Digital, 3/2 (L,C,R,l,r) + LFE ch, ~448.00 kbps avg (RUS)
Аудио #2: 48 kHz, AC3 Dolby Digital, 3/2 (L,C,R,l,r) + LFE ch, ~448.00 kbps avg (ENG)
Формат субтитров: Softsub (.srt*)
-

Скриншоты

     

MediaInfo

Код:
Общее
Полное имя                               : F:\The_Boys_S01_E01_2019_BDRip-AVC_KvK_by_Dalemake.mkv
Формат                                   : Matroska
Версия формата                           : Version 4
Размер файла                             : 1,26 Гбайт
Продолжительность                        : 59 м. 58 с.
Общий поток                              : 3007 Кбит/сек
Название фильма                          : [The_Boys_S01_E01_2019_All Films_Rutracker]
Дата кодирования                         : UTC 2020-09-21 13:50:35
Программа кодирования                    : mkvmerge v44.0.0 ('Domino') 64-bit
Библиотека кодирования                   : libebml v1.3.10 + libmatroska v1.5.2
Видео
Идентификатор                            : 1
Формат                                   : AVC
Формат/Информация                        : Advanced Video Codec
Профиль формата                          : [email protected]
Настройки формата                        : CABAC / 10 Ref Frames
Параметр CABAC формата                   : Да
Параметр RefFrames формата               : 10 кадров
Идентификатор кодека                     : V_MPEG4/ISO/AVC
Продолжительность                        : 59 м. 58 с.
Битрейт                                  : 2110 Кбит/сек
Ширина                                   : 1120 пикселей
Высота                                   : 476 пикселей
Соотношение сторон                       : 2,35:1
Режим частоты кадров                     : Постоянный
Частота кадров                           : 23,976 (24000/1001) кадра/сек
Частота кадров в оригинале               : 23,976 (23976/1000) кадра/сек
Цветовое пространство                    : YUV
Субдискретизация насыщенности            : 4:2:0
Битовая глубина                          : 8 бит
Тип развёртки                            : Прогрессивная
Бит/(Пиксели*Кадры)                      : 0.165
Размер потока                            : 904 Мбайт (70%)
Заголовок                                : [The_Boys_S01_E01_2019_All Films_Rutracker]
Библиотека кодирования                   : x264 core 160 r3009 4c9b076
Настройки программы                      : cabac=1 / ref=10 / deblock=1:-2:-2 / analyse=0x3:0x133 / me=umh / subme=11 / psy=1 / psy_rd=1.00:0.10 / mixed_ref=1 / me_range=32 / chroma_me=1 / trellis=2 / 8x8dct=1 / cqm=0 / deadzone=21,11 / fast_pskip=0 / chroma_qp_offset=-3 / threads=6 / lookahead_threads=1 / sliced_threads=0 / nr=0 / decimate=1 / interlaced=0 / bluray_compat=0 / constrained_intra=0 / bframes=12 / b_pyramid=2 / b_adapt=2 / b_bias=0 / direct=3 / weightb=1 / open_gop=0 / weightp=2 / keyint=240 / keyint_min=23 / scenecut=40 / intra_refresh=0 / rc_lookahead=60 / rc=2pass / mbtree=0 / bitrate=2110 / ratetol=1.0 / qcomp=0.60 / qpmin=0 / qpmax=69 / qpstep=4 / cplxblur=20.0 / qblur=0.5 / vbv_maxrate=50000 / vbv_bufsize=62500 / nal_hrd=none / filler=0 / ip_ratio=1.40 / pb_ratio=1.30 / aq=1:1.00
Язык                                     : English
Default                                  : Да
Forced                                   : Нет
Аудио #1
Идентификатор                            : 2
Формат                                   : AC-3
Формат/Информация                        : Audio Coding 3
Коммерческое название                    : Dolby Digital
Идентификатор кодека                     : A_AC3
Продолжительность                        : 59 м. 56 с.
Вид битрейта                             : Постоянный
Битрейт                                  : 448 Кбит/сек
Каналы                                   : 6 каналов
ChannelLayout                            : L R C LFE Ls Rs
Частота                                  : 48,0 КГц
Частота кадров                           : 31,250 кадров/сек (1536 SPF)
Битовая глубина                          : 16 бит
Метод сжатия                             : С потерями
Размер потока                            : 192 Мбайт (15%)
Заголовок                                : DVO - Kubik v Kube
Язык                                     : Russian
ServiceKind/String                       : Complete Main
Default                                  : Да
Forced                                   : Нет
Аудио #2
Идентификатор                            : 3
Формат                                   : AC-3
Формат/Информация                        : Audio Coding 3
Коммерческое название                    : Dolby Digital
Идентификатор кодека                     : A_AC3
Продолжительность                        : 59 м. 58 с.
Вид битрейта                             : Постоянный
Битрейт                                  : 448 Кбит/сек
Каналы                                   : 6 каналов
ChannelLayout                            : L R C LFE Ls Rs
Частота                                  : 48,0 КГц
Частота кадров                           : 31,250 кадров/сек (1536 SPF)
Битовая глубина                          : 16 бит
Метод сжатия                             : С потерями
Размер потока                            : 192 Мбайт (15%)
Заголовок                                : Original
Язык                                     : English
ServiceKind/String                       : Complete Main
Default                                  : Нет
Forced                                   : Нет
Текст #1
Идентификатор                            : 4
Формат                                   : UTF-8
Идентификатор кодека                     : S_TEXT/UTF8
Идентификатор кодека/Информация          : UTF-8 Plain Text
Продолжительность                        : 57 м. 22 с.
Битрейт                                  : 111 бит/сек
ElementCount                             : 848
Размер потока                            : 46,8 Кбайт (0%)
Заголовок                                : Full
Язык                                     : Russian
Default                                  : Нет
Forced                                   : Нет
Текст #2
Идентификатор                            : 5
Формат                                   : UTF-8
Идентификатор кодека                     : S_TEXT/UTF8
Идентификатор кодека/Информация          : UTF-8 Plain Text
Продолжительность                        : 59 м. 20 с.
Битрейт                                  : 69 бит/сек
ElementCount                             : 1055
Размер потока                            : 30,1 Кбайт (0%)
Заголовок                                : Full
Язык                                     : English
Default                                  : Нет
Forced                                   : Нет
Меню
00:00:00.000                             : en:Chapter 01
00:00:13.722                             : en:Chapter 02
00:11:42.493                             : en:Chapter 03
00:19:53.651                             : en:Chapter 04
00:31:05.072                             : en:Chapter 05
00:41:12.970                             : en:Chapter 06
00:51:06.272                             : en:Chapter 07
00:57:56.723                             : en:Chapter 08

БАНДИТ

Post 20-Oct-2020 10:12

[Quote]

-Пацаны | The Boys
Сезон 2
-
Страна: США
Жанр: Фантастика, Боевик, Комедия, Криминал
Год выпуска: 2020
Продолжительность серии: ~60 минут
Перевод: Профессиональный (двухголосый закадровый) [Кубик в Кубе 18+]
Перевод: Профессиональный (многоголосый закадровый) [NewStudio]
Перевод: Профессиональный (многоголосый закадровый) [AlexFilm]
Перевод: Профессиональный (многоголосый закадровый) [Jaskier]
Перевод: Профессиональный (многоголосый закадровый) [TVShows]
Перевод: Профессиональный (многоголосый закадровый) [LostFilm]
Русские субтитры: есть (Amazon)-Режиссёр: Филип Сгриккиа, Дэниэл Эттиэс, Дженнифер Фанг
В ролях: Карл Урбан, Чейс Кроуфорд, Доминик МакЭллигот, Нэйтан Митчелл, Эрин Мориарти, Джек Куэйд, Элизабет Шу, Энтони Старр, Джесси Ашер, Лаз Алонсо
Описание: Действие сериала разворачивается в мире, где существуют супергерои. Именно они являются настоящими звездами. Их все знают и обожают. Но за идеальным фасадом скрывается гораздо более мрачный мир наркотиков и секса, а большинство героев — в жизни не самые приятные люди. Противостоит им отряд, неофициально известный как «Пацаны».- -Сэмпл: http://sendfile.su/1576234 (Серия 2)-Примечание: Релиз без рекламы. SDR версия.
В переводах Кубик в Кубе, AlexFilm, Jaskier и NewStudio имеется ненормативная лексика.
6-канальная аудиодорожка LostFilm была взята из раздачи на соседнем трекере. Работа со звуком: [email protected], раздача Keedof.
Рекламу из остальных аудио удалял сам.
Качество: WEBRip 2160p (The.Boys.S02.2160p.AMZN.WEBRip.DDP5.1.x265-NTb)
Формат: MKV
Видео: HEVC, 3840x1600, 23.976 fps, ~23 Mbps
Аудио 1: AC-3, 48.0 kHz, 6 ch, 448 kbps [DVO - Кубик в Кубе]
Аудио 2: AC-3, 48 kHz, 6 ch, 384 kbps [MVO - NewStudio]
Аудио 3: AC-3, 48 kHz, 6 ch, 384 kbps [MVO - AlexFilm]
Аудио 4: AC-3, 48 kHz, 6 ch, 384 kbps [MVO - Jaskier]
Аудио 5: AC-3, 48 kHz, 6 ch, 384 kbps [MVO - TVShows]
Аудио 6: AC-3, 48 kHz, 6 ch, 640 kbps [MVO - LostFIlm]
Аудио 7: E-AC3, 48.0 kHz, 6 ch, 640 kbps [Original]
Субтитры: русские (полные), английские (полные, SDH)-

MediaInfo

Код:
General
Complete name                            : T:\The.Boys.S02.2160p.SDR.AMZN.WEBRip.DDP5.1.x265-NTb\The.Boys.S02E02.Proper.Preparation.and.Planning.2160p.AMZN.WEBRip.DDP5.1.x265-NTb.mkv
Format                                   : Matroska
Format version                           : Version 4
File size                                : 10.9 GiB
Duration                                 : 59 min 25 s
Overall bit rate                         : 26.4 Mb/s
Encoded date                             : UTC 2020-09-12 14:20:21
Writing application                      : mkvmerge v48.0.0 ('Fortress Around Your Heart') 64-bit
Writing library                          : libebml v1.4.0 + libmatroska v1.6.0
Video
ID                                       : 1
Format                                   : HEVC
Format/Info                              : High Efficiency Video Coding
Format profile                           : Main [email protected]@High
Codec ID                                 : V_MPEGH/ISO/HEVC
Duration                                 : 59 min 25 s
Bit rate                                 : 23.1 Mb/s
Width                                    : 3 840 pixels
Height                                   : 1 600 pixels
Display aspect ratio                     : 2.40:1
Frame rate mode                          : Constant
Frame rate                               : 23.976 (24000/1001) FPS
Color space                              : YUV
Chroma subsampling                       : 4:2:0
Bit depth                                : 10 bits
Bits/(Pixel*Frame)                       : 0.157
Stream size                              : 9.59 GiB (88%)
Writing library                          : x265 3.0_Au+4-dcbec33bfb0f:[Windows][GCC 8.2.1][64 bit] 10bit
Encoding settings                        : cpuid=1111039 / frame-threads=4 / numa-pools=28 / wpp / no-pmode / no-pme / no-psnr / no-ssim / log-level=2 / input-csp=1 / input-res=3840x1600 / interlace=0 / total-frames=85489 / level-idc=51 / high-tier=1 / uhd-bd=0 / ref=5 / no-allow-non-conformance / repeat-headers / annexb / aud / hrd / info / hash=0 / no-temporal-layers / open-gop / min-keyint=23 / keyint=250 / gop-lookahead=0 / bframes=8 / b-adapt=2 / b-pyramid / bframe-bias=0 / rc-lookahead=40 / lookahead-slices=8 / scenecut=40 / radl=0 / no-splice / no-intra-refresh / ctu=64 / min-cu-size=8 / no-rect / no-amp / max-tu-size=32 / tu-inter-depth=4 / tu-intra-depth=4 / limit-tu=4 / rdoq-level=0 / dynamic-rd=0.00 / no-ssim-rd / signhide / no-tskip / nr-intra=0 / nr-inter=0 / no-constrained-intra / strong-intra-smoothing / max-merge=4 / limit-refs=3 / no-limit-modes / me=1 / subme=5 / merange=57 / temporal-mvp / weightp / weightb / no-analyze-src-pics / deblock=-3:-3 / no-sao / no-sao-non-deblock / rd=4 / no-early-skip / rskip / no-fast-intra / no-tskip-fast / no-cu-lossless / b-intra / no-splitrd-skip / rdpenalty=0 / psy-rd=2.00 / psy-rdoq=0.00 / no-rd-refine / no-lossless / cbqpoffs=0 / crqpoffs=0 / rc=crf / crf=19.0 / qcomp=0.60 / qpstep=4 / stats-write=0 / stats-read=0 / vbv-maxrate=160000 / vbv-bufsize=160000 / vbv-init=0.9 / crf-max=0.0 / crf-min=0.0 / ipratio=1.30 / pbratio=1.20 / aq-mode=1 / aq-strength=0.85 / no-cutree / zone-count=0 / no-strict-cbr / qg-size=32 / no-rc-grain / qpmax=69 / qpmin=0 / no-const-vbv / sar=1 / overscan=0 / videoformat=5 / range=0 / colorprim=1 / transfer=1 / colormatrix=1 / chromaloc=0 / display-window=0 / max-cll=0,0 / min-luma=0 / max-luma=1023 / log2-max-poc-lsb=8 / vui-timing-info / vui-hrd-info / slices=1 / no-opt-qp-pps / no-opt-ref-list-length-pps / no-multi-pass-opt-rps / scenecut-bias=0.05 / no-opt-cu-delta-qp / no-aq-motion / no-hdr / no-hdr-opt / no-dhdr10-opt / no-idr-recovery-sei / analysis-reuse-level=5 / scale-factor=0 / refine-intra=0 / refine-inter=0 / refine-mv=0 / refine-ctu-distortion=0 / no-limit-sao / ctu-info=0 / no-lowpass-dct / refine-analysis-type=0 / copy-pic=1 / max-ausize-factor=1.0 / no-dynamic-refine / no-single-sei / no-hevc-aq / qp-adaptation-range=1.00
Default                                  : Yes
Forced                                   : No
Color range                              : Limited
Color primaries                          : BT.709
Transfer characteristics                 : BT.709
Matrix coefficients                      : BT.709
Audio #1
ID                                       : 2
Format                                   : AC-3
Format/Info                              : Audio Coding 3
Commercial name                          : Dolby Digital
Codec ID                                 : A_AC3
Duration                                 : 59 min 25 s
Bit rate mode                            : Constant
Bit rate                                 : 448 kb/s
Channel(s)                               : 6 channels
Channel layout                           : L R C LFE Ls Rs
Sampling rate                            : 48.0 kHz
Frame rate                               : 31.250 FPS (1536 SPF)
Compression mode                         : Lossy
Stream size                              : 190 MiB (2%)
Title                                    : DVO - Кубик в Кубе
Language                                 : Russian
Service kind                             : Complete Main
Default                                  : Yes
Forced                                   : No
Audio #2
ID                                       : 3
Format                                   : AC-3
Format/Info                              : Audio Coding 3
Commercial name                          : Dolby Digital
Codec ID                                 : A_AC3
Duration                                 : 59 min 25 s
Bit rate mode                            : Constant
Bit rate                                 : 384 kb/s
Channel(s)                               : 6 channels
Channel layout                           : L R C LFE Ls Rs
Sampling rate                            : 48.0 kHz
Frame rate                               : 31.250 FPS (1536 SPF)
Compression mode                         : Lossy
Stream size                              : 163 MiB (1%)
Title                                    : MVO - NewStudio
Language                                 : Russian
Service kind                             : Complete Main
Default                                  : No
Forced                                   : No
Audio #3
ID                                       : 4
Format                                   : AC-3
Format/Info                              : Audio Coding 3
Commercial name                          : Dolby Digital
Codec ID                                 : A_AC3
Duration                                 : 59 min 25 s
Bit rate mode                            : Constant
Bit rate                                 : 384 kb/s
Channel(s)                               : 6 channels
Channel layout                           : L R C LFE Ls Rs
Sampling rate                            : 48.0 kHz
Frame rate                               : 31.250 FPS (1536 SPF)
Compression mode                         : Lossy
Stream size                              : 163 MiB (1%)
Title                                    : MVO - AlexFilm
Language                                 : Russian
Service kind                             : Complete Main
Default                                  : No
Forced                                   : No
Audio #4
ID                                       : 5
Format                                   : AC-3
Format/Info                              : Audio Coding 3
Commercial name                          : Dolby Digital
Codec ID                                 : A_AC3
Duration                                 : 59 min 25 s
Bit rate mode                            : Constant
Bit rate                                 : 384 kb/s
Channel(s)                               : 6 channels
Channel layout                           : L R C LFE Ls Rs
Sampling rate                            : 48.0 kHz
Frame rate                               : 31.250 FPS (1536 SPF)
Compression mode                         : Lossy
Stream size                              : 163 MiB (1%)
Title                                    : MVO - Jaskier
Language                                 : Russian
Service kind                             : Complete Main
Default                                  : No
Forced                                   : No
Audio #5
ID                                       : 6
Format                                   : AC-3
Format/Info                              : Audio Coding 3
Commercial name                          : Dolby Digital
Codec ID                                 : A_AC3
Duration                                 : 59 min 25 s
Bit rate mode                            : Constant
Bit rate                                 : 384 kb/s
Channel(s)                               : 6 channels
Channel layout                           : L R C LFE Ls Rs
Sampling rate                            : 48.0 kHz
Frame rate                               : 31.250 FPS (1536 SPF)
Compression mode                         : Lossy
Stream size                              : 163 MiB (1%)
Title                                    : MVO - TVShows
Language                                 : Russian
Service kind                             : Complete Main
Default                                  : No
Forced                                   : No
Audio #6
ID                                       : 7
Format                                   : AC-3
Format/Info                              : Audio Coding 3
Commercial name                          : Dolby Digital
Codec ID                                 : A_AC3
Duration                                 : 59 min 25 s
Bit rate mode                            : Constant
Bit rate                                 : 640 kb/s
Channel(s)                               : 6 channels
Channel layout                           : L R C LFE Ls Rs
Sampling rate                            : 48.0 kHz
Frame rate                               : 31.250 FPS (1536 SPF)
Compression mode                         : Lossy
Stream size                              : 272 MiB (2%)
Title                                    : MVO - LostFilm
Language                                 : Russian
Service kind                             : Complete Main
Default                                  : No
Forced                                   : No
Audio #7
ID                                       : 8
Format                                   : E-AC-3
Format/Info                              : Enhanced AC-3
Commercial name                          : Dolby Digital Plus
Codec ID                                 : A_EAC3
Duration                                 : 59 min 25 s
Bit rate mode                            : Constant
Bit rate                                 : 640 kb/s
Channel(s)                               : 6 channels
Channel layout                           : L R C LFE Ls Rs
Sampling rate                            : 48.0 kHz
Frame rate                               : 31.250 FPS (1536 SPF)
Compression mode                         : Lossy
Stream size                              : 272 MiB (2%)
Language                                 : English
Service kind                             : Complete Main
Default                                  : No
Forced                                   : No
Text #1
ID                                       : 9
Format                                   : UTF-8
Codec ID                                 : S_TEXT/UTF8
Codec ID/Info                            : UTF-8 Plain Text
Duration                                 : 58 min 36 s
Bit rate                                 : 90 b/s
Count of elements                        : 669
Stream size                              : 39.1 KiB (0%)
Language                                 : Russian
Default                                  : Yes
Forced                                   : No
Text #2
ID                                       : 10
Format                                   : UTF-8
Codec ID                                 : S_TEXT/UTF8
Codec ID/Info                            : UTF-8 Plain Text
Duration                                 : 58 min 17 s
Bit rate                                 : 63 b/s
Count of elements                        : 979
Stream size                              : 27.1 KiB (0%)
Title                                    : English
Language                                 : English
Default                                  : No
Forced                                   : No
Text #3
ID                                       : 11
Format                                   : UTF-8
Codec ID                                 : S_TEXT/UTF8
Codec ID/Info                            : UTF-8 Plain Text
Duration                                 : 58 min 17 s
Bit rate                                 : 63 b/s
Count of elements                        : 989
Stream size                              : 27.2 KiB (0%)
Title                                    : English  SDH
Language                                 : English
Default                                  : No
Forced                                   : No
Menu
00:00:00.000                             : en:Amazon Original
00:00:05.000                             : en:Ratings
00:00:15.000                             : en:Butcher thinks back
00:01:41.000                             : en:Title Sequence
00:01:44.000                             : en:Writing what he can remember
00:02:46.000                             : en:No explanations
00:04:48.000                             : en:Full of potential
00:06:56.000                             : en:A work in progress
00:08:44.000                             : en:Girl power
00:10:27.000                             : en:In memory of Raynor
00:13:03.000                             : en:Accepting yourself
00:15:01.000                             : en:Visiting a friend
00:16:47.000                             : en:A full day of interviews
00:19:01.000                             : en:A tense after party
00:20:55.000                             : en:A new helper
00:22:20.000                             : en:The road to acceptance
00:25:17.000                             : en:Testing loyalties
00:27:48.000                             : en:Becca is distressed
00:30:20.000                             : en:Maeve opens up
00:32:30.000                             : en:Father son bonding
00:36:53.000                             : en:Hunting a terrorist
00:41:08.000                             : en:Drop the mask
00:43:18.000                             : en:Butcher tells the truth
00:46:43.000                             : en:Reunited
00:48:55.000                             : en:A-Train confronts Starlight
00:52:06.000                             : en:Relationships change
00:57:25.000                             : en:End Credits

Скриншоты

     

БАНДИТ

Post 20-Oct-2020 10:06

[Quote]

-Пацаны | The Boys
Сезон 2
-
Страна: США
Жанр: Фантастика, Боевик, Комедия, Криминал
Год выпуска: 2020
Продолжительность серии: ~60 минут
Перевод: Профессиональный (двухголосый закадровый) [Кубик в Кубе 18+]
Перевод: Профессиональный (многоголосый закадровый) [NewStudio]
Перевод: Профессиональный (многоголосый закадровый) [AlexFilm]
Перевод: Профессиональный (многоголосый закадровый) [Jaskier]
Перевод: Профессиональный (многоголосый закадровый) [TVShows]
Перевод: Профессиональный (многоголосый закадровый) [LostFilm]
Русские субтитры: есть (Amazon)-Режиссёр: Филип Сгриккиа, Дэниэл Эттиэс, Дженнифер Фанг
В ролях: Карл Урбан, Чейс Кроуфорд, Доминик МакЭллигот, Нэйтан Митчелл, Эрин Мориарти, Джек Куэйд, Элизабет Шу, Энтони Старр, Джесси Ашер, Лаз Алонсо
Описание: Действие сериала разворачивается в мире, где существуют супергерои. Именно они являются настоящими звездами. Их все знают и обожают. Но за идеальным фасадом скрывается гораздо более мрачный мир наркотиков и секса, а большинство героев — в жизни не самые приятные люди. Противостоит им отряд, неофициально известный как «Пацаны».- -Сэмпл: http://sendfile.su/1576529 (Серия 1) | http://sendfile.su/1580021 (Серия 5)-Примечание:
Релиз без рекламы. HDR версия.
Релиз C4K переделывал Littlebigdunc. Его раздачу и взял за основу серий 5 - 8. Проблем с HDR на нём не обнаружил. При появлении серий от BLUTONiUM, заменю их в раздаче.
В переводах Кубик в Кубе, AlexFilm, Jaskier и NewStudio имеется ненормативная лексика.
6-канальная аудиодорожка LostFilm была взята из раздачи на соседнем трекере. Работа со звуком: [email protected], раздача Keedof.
Рекламу из остальных аудио удалял сам.
Качество: WEBRip 2160p (The.Boys.S02.2160p.AMZN.WEBRip.DDP5.1.HDR.x265 (BLUTONiUM | C4K))
Формат: MKV
Видео: HEVC, 3840x1600, 23.976 fps, ~25 Mbps (Серии 1 - 4)
Видео: HEVC, 3840x2160, 23.976 fps, ~15 Mbps (Серии 5 - 8)
Аудио 1: AC-3, 48.0 kHz, 6 ch, 448 kbps [DVO - Кубик в Кубе]
Аудио 2: AC-3, 48 kHz, 6 ch, 384 kbps [MVO - NewStudio]
Аудио 3: AC-3, 48 kHz, 6 ch, 384 kbps [MVO - AlexFilm]
Аудио 4: AC-3, 48 kHz, 6 ch, 384 kbps [MVO - Jaskier]
Аудио 5: AC-3, 48 kHz, 6 ch, 384 kbps [MVO - TVShows]
Аудио 6: AC-3, 48 kHz, 6 ch, 640 kbps [MVO - LostFIlm]
Аудио 7: E-AC3, 48.0 kHz, 6 ch, 640 kbps [Original]
Субтитры: русские (полные), английские (полные, SDH)-

MediaInfo

Серия 1

Код:
General
Complete name                            : T:\The.Boys.S02E01.The.Big.Ride.2160p.AMZN.WEBRip.DDP5.1.HDR.x265-BLUTONiUM.mkv
Format                                   : Matroska
Format version                           : Version 4
File size                                : 13.0 GiB
Duration                                 : 1 h 2 min
Overall bit rate                         : 29.7 Mb/s
Movie name                               : The Boys - S02E01 - The Big Ride
Encoded date                             : UTC 2020-09-14 17:47:32
Writing application                      : mkvmerge v48.0.0 ('Fortress Around Your Heart') 64-bit
Writing library                          : libebml v1.4.0 + libmatroska v1.6.0
Video
ID                                       : 1
Format                                   : HEVC
Format/Info                              : High Efficiency Video Coding
Format profile                           : Main [email protected]@High
HDR format                               : SMPTE ST 2094 App 4, Version 1, HDR10+ Profile B compatible
Codec ID                                 : V_MPEGH/ISO/HEVC
Duration                                 : 1 h 2 min
Bit rate                                 : 26.4 Mb/s
Width                                    : 3 840 pixels
Height                                   : 1 600 pixels
Display aspect ratio                     : 2.40:1
Frame rate mode                          : Constant
Frame rate                               : 23.976 (24000/1001) FPS
Color space                              : YUV
Chroma subsampling                       : 4:2:0
Bit depth                                : 10 bits
Bits/(Pixel*Frame)                       : 0.179
Stream size                              : 11.6 GiB (89%)
Writing library                          : x265 3.4+12-geff904199:[Windows][MSVC 1900][64 bit] 10bit
Encoding settings                        : cpuid=1111039 / frame-threads=2 / numa-pools=6 / wpp / no-pmode / no-pme / no-psnr / no-ssim / log-level=2 / input-csp=1 / input-res=3840x1600 / interlace=0 / total-frames=90564 / level-idc=50 / high-tier=1 / uhd-bd=0 / ref=6 / no-allow-non-conformance / repeat-headers / annexb / no-aud / no-hrd / info / hash=0 / no-temporal-layers / no-open-gop / min-keyint=23 / keyint=250 / gop-lookahead=0 / bframes=16 / b-adapt=2 / b-pyramid / bframe-bias=0 / rc-lookahead=60 / lookahead-slices=0 / scenecut=40 / hist-scenecut=0 / radl=0 / no-splice / no-intra-refresh / ctu=64 / min-cu-size=8 / no-rect / no-amp / max-tu-size=32 / tu-inter-depth=4 / tu-intra-depth=4 / limit-tu=4 / rdoq-level=2 / dynamic-rd=0.00 / no-ssim-rd / signhide / no-tskip / nr-intra=0 / nr-inter=0 / no-constrained-intra / strong-intra-smoothing / max-merge=4 / limit-refs=1 / limit-modes / me=3 / subme=5 / merange=57 / temporal-mvp / no-frame-dup / no-hme / weightp / weightb / no-analyze-src-pics / deblock=-3:-3 / no-sao / no-sao-non-deblock / rd=4 / selective-sao=0 / no-early-skip / no-rskip / no-fast-intra / no-tskip-fast / no-cu-lossless / b-intra / no-splitrd-skip / rdpenalty=0 / psy-rd=1.30 / psy-rdoq=1.00 / no-rd-refine / no-lossless / cbqpoffs=0 / crqpoffs=0 / rc=crf / crf=16.0 / qcomp=0.65 / qpstep=4 / stats-write=0 / stats-read=0 / vbv-maxrate=100000 / vbv-bufsize=100000 / vbv-init=0.9 / crf-max=0.0 / crf-min=0.0 / ipratio=1.30 / pbratio=1.20 / aq-mode=3 / aq-strength=0.85 / no-cutree / zone-count=0 / no-strict-cbr / qg-size=16 / no-rc-grain / qpmax=69 / qpmin=0 / no-const-vbv / sar=0 / overscan=0 / videoformat=5 / range=0 / colorprim=9 / transfer=16 / colormatrix=9 / chromaloc=0 / display-window=0 / master-display=G(13250,34500)B(7500,3000)R(34000,16000)WP(15635,16450)L(10000000,1) / cll=999,200 / min-luma=0 / max-luma=1023 / log2-max-poc-lsb=8 / vui-timing-info / vui-hrd-info / slices=1 / no-opt-qp-pps / no-opt-ref-list-length-pps / no-multi-pass-opt-rps / scenecut-bias=0.05 / hist-threshold=0.03 / no-opt-cu-delta-qp / no-aq-motion / hdr10 / hdr10-opt / dhdr10-opt / no-idr-recovery-sei / analysis-reuse-level=0 / analysis-save-reuse-level=0 / analysis-load-reuse-level=0 / scale-factor=0 / refine-intra=0 / refine-inter=0 / refine-mv=1 / refine-ctu-distortion=0 / no-limit-sao / ctu-info=0 / no-lowpass-dct / refine-analysis-type=0 / copy-pic=1 / max-ausize-factor=1.0 / no-dynamic-refine / no-single-sei / no-hevc-aq / no-svt / no-field / qp-adaptation-range=1.00 / no-scenecut-aware-qpconformance-window-offsets / right=0 / bottom=0 / decoder-max-rate=0
Language                                 : English
Default                                  : Yes
Forced                                   : No
Color range                              : Limited
Color primaries                          : BT.2020
Transfer characteristics                 : PQ
Matrix coefficients                      : BT.2020 non-constant
Mastering display color primaries        : Display P3
Mastering display luminance              : min: 0.0001 cd/m2, max: 1000 cd/m2
Maximum Content Light Level              : 999 cd/m2
Maximum Frame-Average Light Level        : 200 cd/m2
Audio #1
ID                                       : 2
Format                                   : AC-3
Format/Info                              : Audio Coding 3
Commercial name                          : Dolby Digital
Codec ID                                 : A_AC3
Duration                                 : 1 h 2 min
Bit rate mode                            : Constant
Bit rate                                 : 448 kb/s
Channel(s)                               : 6 channels
Channel layout                           : L R C LFE Ls Rs
Sampling rate                            : 48.0 kHz
Frame rate                               : 31.250 FPS (1536 SPF)
Compression mode                         : Lossy
Stream size                              : 202 MiB (2%)
Title                                    : DVO - Кубик в Кубе
Language                                 : Russian
Service kind                             : Complete Main
Default                                  : Yes
Forced                                   : No
Audio #2
ID                                       : 3
Format                                   : AC-3
Format/Info                              : Audio Coding 3
Commercial name                          : Dolby Digital
Codec ID                                 : A_AC3
Duration                                 : 1 h 2 min
Bit rate mode                            : Constant
Bit rate                                 : 384 kb/s
Channel(s)                               : 6 channels
Channel layout                           : L R C LFE Ls Rs
Sampling rate                            : 48.0 kHz
Frame rate                               : 31.250 FPS (1536 SPF)
Compression mode                         : Lossy
Stream size                              : 173 MiB (1%)
Title                                    : MVO - NewStudio
Language                                 : Russian
Service kind                             : Complete Main
Default                                  : No
Forced                                   : No
Audio #3
ID                                       : 4
Format                                   : AC-3
Format/Info                              : Audio Coding 3
Commercial name                          : Dolby Digital
Codec ID                                 : A_AC3
Duration                                 : 1 h 2 min
Bit rate mode                            : Constant
Bit rate                                 : 384 kb/s
Channel(s)                               : 6 channels
Channel layout                           : L R C LFE Ls Rs
Sampling rate                            : 48.0 kHz
Frame rate                               : 31.250 FPS (1536 SPF)
Compression mode                         : Lossy
Stream size                              : 173 MiB (1%)
Title                                    : MVO - AlexFilm
Language                                 : Russian
Service kind                             : Complete Main
Default                                  : No
Forced                                   : No
Audio #4
ID                                       : 5
Format                                   : AC-3
Format/Info                              : Audio Coding 3
Commercial name                          : Dolby Digital
Codec ID                                 : A_AC3
Duration                                 : 1 h 2 min
Bit rate mode                            : Constant
Bit rate                                 : 384 kb/s
Channel(s)                               : 6 channels
Channel layout                           : L R C LFE Ls Rs
Sampling rate                            : 48.0 kHz
Frame rate                               : 31.250 FPS (1536 SPF)
Compression mode                         : Lossy
Stream size                              : 173 MiB (1%)
Title                                    : MVO - Jaskier
Language                                 : Russian
Service kind                             : Complete Main
Default                                  : No
Forced                                   : No
Audio #5
ID                                       : 6
Format                                   : AC-3
Format/Info                              : Audio Coding 3
Commercial name                          : Dolby Digital
Codec ID                                 : A_AC3
Duration                                 : 1 h 2 min
Bit rate mode                            : Constant
Bit rate                                 : 384 kb/s
Channel(s)                               : 6 channels
Channel layout                           : L R C LFE Ls Rs
Sampling rate                            : 48.0 kHz
Frame rate                               : 31.250 FPS (1536 SPF)
Compression mode                         : Lossy
Stream size                              : 173 MiB (1%)
Title                                    : MVO - TVShows
Language                                 : Russian
Service kind                             : Complete Main
Default                                  : No
Forced                                   : No
Audio #6
ID                                       : 7
Format                                   : AC-3
Format/Info                              : Audio Coding 3
Commercial name                          : Dolby Digital
Codec ID                                 : A_AC3
Duration                                 : 1 h 2 min
Bit rate mode                            : Constant
Bit rate                                 : 640 kb/s
Channel(s)                               : 6 channels
Channel layout                           : L R C LFE Ls Rs
Sampling rate                            : 48.0 kHz
Frame rate                               : 31.250 FPS (1536 SPF)
Compression mode                         : Lossy
Stream size                              : 288 MiB (2%)
Title                                    : MVO - LostFilm
Language                                 : Russian
Service kind                             : Complete Main
Default                                  : No
Forced                                   : No
Audio #7
ID                                       : 8
Format                                   : E-AC-3
Format/Info                              : Enhanced AC-3
Commercial name                          : Dolby Digital Plus
Codec ID                                 : A_EAC3
Duration                                 : 1 h 2 min
Bit rate mode                            : Constant
Bit rate                                 : 640 kb/s
Channel(s)                               : 6 channels
Channel layout                           : L R C LFE Ls Rs
Sampling rate                            : 48.0 kHz
Frame rate                               : 31.250 FPS (1536 SPF)
Compression mode                         : Lossy
Stream size                              : 288 MiB (2%)
Language                                 : English
Service kind                             : Complete Main
Default                                  : No
Forced                                   : No
Text #1
ID                                       : 9
Format                                   : UTF-8
Codec ID                                 : S_TEXT/UTF8
Codec ID/Info                            : UTF-8 Plain Text
Duration                                 : 1 h 2 min
Bit rate                                 : 106 b/s
Count of elements                        : 903
Stream size                              : 48.7 KiB (0%)
Language                                 : Russian
Default                                  : Yes
Forced                                   : No
Text #2
ID                                       : 10
Format                                   : UTF-8
Codec ID                                 : S_TEXT/UTF8
Codec ID/Info                            : UTF-8 Plain Text
Duration                                 : 1 h 2 min
Bit rate                                 : 72 b/s
Count of elements                        : 1148
Stream size                              : 33.1 KiB (0%)
Title                                    : English
Language                                 : English
Default                                  : No
Forced                                   : No
Text #3
ID                                       : 11
Format                                   : UTF-8
Codec ID                                 : S_TEXT/UTF8
Codec ID/Info                            : UTF-8 Plain Text
Duration                                 : 1 h 2 min
Bit rate                                 : 72 b/s
Count of elements                        : 1164
Stream size                              : 33.2 KiB (0%)
Title                                    : English  SDH
Language                                 : English
Default                                  : No
Forced                                   : No
Menu
00:00:00.000                             : en:Amazon Original
00:00:05.000                             : en:Ratings
00:00:15.000                             : en:Previously On
00:02:58.000                             : en:Collateral damage negotiations
00:06:11.000                             : en:A memorial service
00:09:42.000                             : en:Post-funeral interview
00:11:30.000                             : en:Title Sequence | Hughie in bed
00:11:37.000                             : en:Getting ready
00:14:30.000                             : en:Secret meetings
00:17:17.000                             : en:The Deep has a meltdown
00:18:42.000                             : en:Watching TV
00:19:48.000                             : en:Team arguments
00:21:20.000                             : en:Homelander is in power
00:27:03.000                             : en:Making money
00:30:02.000                             : en:A new patient
00:31:37.000                             : en:Watching the tapes
00:33:43.000                             : en:Focus groups
00:35:08.000                             : en:A safe space
00:38:19.000                             : en:What to do next
00:43:05.000                             : en:Black mail
00:46:40.000                             : en:New kid on the block
00:48:50.000                             : en:CIA meeting
00:51:23.000                             : en:Homelander confronts Stan
00:56:07.000                             : en:An unexpected visit
00:56:40.000                             : en:Lies and deceit
01:00:56.000                             : en:End Credits

Серия 5

Код:
General
Complete name                            : T:\The.Boys.S02.2160p.HDR.AMZN.WEBRip.DDP5.1.x265-BLUTONiUM\The.Boys.S02E05.We.Gotta.Go.Now.2160p.AMZN.WEBRip.DDP5.1.HDR.x265-C4K.mkv
Format                                   : Matroska
Format version                           : Version 4
File size                                : 7.75 GiB
Duration                                 : 1 h 0 min
Overall bit rate                         : 18.3 Mb/s
Encoded date                             : UTC 2020-10-11 11:26:08
Writing application                      : mkvmerge v48.0.0 ('Fortress Around Your Heart') 64-bit
Writing library                          : libebml v1.4.0 + libmatroska v1.6.0
Video
ID                                       : 1
Format                                   : HEVC
Format/Info                              : High Efficiency Video Coding
Format profile                           : Main [email protected]@Main
HDR format                               : SMPTE ST 2086, HDR10 compatible
Codec ID                                 : V_MPEGH/ISO/HEVC
Duration                                 : 1 h 0 min
Bit rate                                 : 15.0 Mb/s
Width                                    : 3 840 pixels
Height                                   : 2 160 pixels
Display aspect ratio                     : 16:9
Frame rate mode                          : Constant
Frame rate                               : 23.976 (24000/1001) FPS
Color space                              : YUV
Chroma subsampling                       : 4:2:0
Bit depth                                : 10 bits
Bits/(Pixel*Frame)                       : 0.075
Stream size                              : 6.37 GiB (82%)
Writing library                          : x265 3.4+22-ga988fbbac:[Windows][GCC 10.2.0][64 bit] 10bit
Encoding settings                        : cpuid=1111039 / frame-threads=4 / numa-pools=24 / wpp / no-pmode / no-pme / no-psnr / no-ssim / log-level=2 / input-csp=1 / input-res=3840x2160 / interlace=0 / total-frames=87331 / level-idc=50 / high-tier=1 / uhd-bd=0 / ref=4 / no-allow-non-conformance / repeat-headers / annexb / no-aud / no-hrd / info / hash=0 / no-temporal-layers / open-gop / min-keyint=24 / keyint=240 / gop-lookahead=0 / bframes=4 / b-adapt=2 / b-pyramid / bframe-bias=0 / rc-lookahead=25 / lookahead-slices=4 / scenecut=40 / hist-scenecut=0 / radl=0 / no-splice / no-intra-refresh / ctu=64 / min-cu-size=8 / rect / no-amp / max-tu-size=32 / tu-inter-depth=1 / tu-intra-depth=1 / limit-tu=0 / rdoq-level=2 / dynamic-rd=0.00 / no-ssim-rd / signhide / no-tskip / nr-intra=0 / nr-inter=0 / no-constrained-intra / strong-intra-smoothing / max-merge=3 / limit-refs=3 / limit-modes / me=3 / subme=3 / merange=57 / temporal-mvp / no-frame-dup / no-hme / weightp / no-weightb / no-analyze-src-pics / deblock=0:0 / sao / no-sao-non-deblock / rd=4 / selective-sao=4 / no-early-skip / rskip / no-fast-intra / no-tskip-fast / no-cu-lossless / no-b-intra / no-splitrd-skip / rdpenalty=0 / psy-rd=2.00 / psy-rdoq=1.00 / no-rd-refine / no-lossless / cbqpoffs=0 / crqpoffs=0 / rc=abr / bitrate=15000 / qcomp=0.60 / qpstep=4 / stats-write=0 / stats-read=2 / cplxblur=20.0 / qblur=0.5 / ipratio=1.40 / pbratio=1.30 / aq-mode=2 / aq-strength=1.00 / cutree / zone-count=0 / no-strict-cbr / qg-size=32 / no-rc-grain / qpmax=69 / qpmin=0 / no-const-vbv / sar=1 / overscan=0 / videoformat=5 / range=0 / colorprim=9 / transfer=16 / colormatrix=9 / chromaloc=0 / display-window=0 / master-display=G(13250,34500)B(7500,3000)R(34000,16000)WP(15635,16450)L(10000000,50) / cll=0,0 / min-luma=0 / max-luma=1023 / log2-max-poc-lsb=8 / vui-timing-info / vui-hrd-info / slices=1 / no-opt-qp-pps / no-opt-ref-list-length-pps / no-multi-pass-opt-rps / scenecut-bias=0.05 / hist-threshold=0.03 / no-opt-cu-delta-qp / no-aq-motion / hdr10 / no-hdr10-opt / no-dhdr10-opt / no-idr-recovery-sei / analysis-reuse-level=0 / analysis-save-reuse-level=0 / analysis-load-reuse-level=0 / scale-factor=0 / refine-intra=0 / refine-inter=0 / refine-mv=1 / refine-ctu-distortion=0 / no-limit-sao / ctu-info=0 / no-lowpass-dct / refine-analysis-type=0 / copy-pic=1 / max-ausize-factor=1.0 / no-dynamic-refine / no-single-sei / no-hevc-aq / no-svt / no-field / qp-adaptation-range=1.00 / no-scenecut-aware-qpconformance-window-offsets / right=0 / bottom=0 / decoder-max-rate=0
Default                                  : Yes
Forced                                   : No
Color range                              : Limited
Color primaries                          : BT.2020
Transfer characteristics                 : PQ
Matrix coefficients                      : BT.2020 non-constant
Mastering display color primaries        : Display P3
Mastering display luminance              : min: 0.0050 cd/m2, max: 1000 cd/m2
Audio #1
ID                                       : 2
Format                                   : AC-3
Format/Info                              : Audio Coding 3
Commercial name                          : Dolby Digital
Codec ID                                 : A_AC3
Duration                                 : 1 h 0 min
Bit rate mode                            : Constant
Bit rate                                 : 448 kb/s
Channel(s)                               : 6 channels
Channel layout                           : L R C LFE Ls Rs
Sampling rate                            : 48.0 kHz
Frame rate                               : 31.250 FPS (1536 SPF)
Compression mode                         : Lossy
Delay relative to video                  : 25 ms
Stream size                              : 195 MiB (2%)
Title                                    : DVO - Кубик в Кубе
Language                                 : Russian
Service kind                             : Complete Main
Default                                  : Yes
Forced                                   : No
Audio #2
ID                                       : 3
Format                                   : AC-3
Format/Info                              : Audio Coding 3
Commercial name                          : Dolby Digital
Codec ID                                 : A_AC3
Duration                                 : 1 h 0 min
Bit rate mode                            : Constant
Bit rate                                 : 384 kb/s
Channel(s)                               : 6 channels
Channel layout                           : L R C LFE Ls Rs
Sampling rate                            : 48.0 kHz
Frame rate                               : 31.250 FPS (1536 SPF)
Compression mode                         : Lossy
Delay relative to video                  : 25 ms
Stream size                              : 167 MiB (2%)
Title                                    : MVO - NewStudio
Language                                 : Russian
Service kind                             : Complete Main
Default                                  : No
Forced                                   : No
Audio #3
ID                                       : 4
Format                                   : AC-3
Format/Info                              : Audio Coding 3
Commercial name                          : Dolby Digital
Codec ID                                 : A_AC3
Duration                                 : 1 h 0 min
Bit rate mode                            : Constant
Bit rate                                 : 384 kb/s
Channel(s)                               : 6 channels
Channel layout                           : L R C LFE Ls Rs
Sampling rate                            : 48.0 kHz
Frame rate                               : 31.250 FPS (1536 SPF)
Compression mode                         : Lossy
Delay relative to video                  : 25 ms
Stream size                              : 167 MiB (2%)
Title                                    : MVO - AlexFilm
Language                                 : Russian
Service kind                             : Complete Main
Default                                  : No
Forced                                   : No
Audio #4
ID                                       : 5
Format                                   : AC-3
Format/Info                              : Audio Coding 3
Commercial name                          : Dolby Digital
Codec ID                                 : A_AC3
Duration                                 : 1 h 0 min
Bit rate mode                            : Constant
Bit rate                                 : 384 kb/s
Channel(s)                               : 6 channels
Channel layout                           : L R C LFE Ls Rs
Sampling rate                            : 48.0 kHz
Frame rate                               : 31.250 FPS (1536 SPF)
Compression mode                         : Lossy
Delay relative to video                  : 25 ms
Stream size                              : 167 MiB (2%)
Title                                    : MVO - Jaskier
Language                                 : Russian
Service kind                             : Complete Main
Default                                  : No
Forced                                   : No
Audio #5
ID                                       : 6
Format                                   : AC-3
Format/Info                              : Audio Coding 3
Commercial name                          : Dolby Digital
Codec ID                                 : A_AC3
Duration                                 : 1 h 0 min
Bit rate mode                            : Constant
Bit rate                                 : 384 kb/s
Channel(s)                               : 6 channels
Channel layout                           : L R C LFE Ls Rs
Sampling rate                            : 48.0 kHz
Frame rate                               : 31.250 FPS (1536 SPF)
Compression mode                         : Lossy
Delay relative to video                  : 25 ms
Stream size                              : 167 MiB (2%)
Title                                    : MVO - TVShows
Language                                 : Russian
Service kind                             : Complete Main
Default                                  : No
Forced                                   : No
Audio #6
ID                                       : 7
Format                                   : AC-3
Format/Info                              : Audio Coding 3
Commercial name                          : Dolby Digital
Codec ID                                 : A_AC3
Duration                                 : 1 h 0 min
Bit rate mode                            : Constant
Bit rate                                 : 640 kb/s
Channel(s)                               : 6 channels
Channel layout                           : L R C LFE Ls Rs
Sampling rate                            : 48.0 kHz
Frame rate                               : 31.250 FPS (1536 SPF)
Compression mode                         : Lossy
Delay relative to video                  : 25 ms
Stream size                              : 278 MiB (4%)
Title                                    : MVO - LostFIlm
Language                                 : Russian
Service kind                             : Complete Main
Default                                  : No
Forced                                   : No
Audio #7
ID                                       : 8
Format                                   : E-AC-3
Format/Info                              : Enhanced AC-3
Commercial name                          : Dolby Digital Plus
Codec ID                                 : A_EAC3
Duration                                 : 1 h 0 min
Bit rate mode                            : Constant
Bit rate                                 : 640 kb/s
Channel(s)                               : 6 channels
Channel layout                           : L R C LFE Ls Rs
Sampling rate                            : 48.0 kHz
Frame rate                               : 31.250 FPS (1536 SPF)
Compression mode                         : Lossy
Stream size                              : 278 MiB (4%)
Language                                 : English
Service kind                             : Complete Main
Default                                  : No
Forced                                   : No
Text #1
ID                                       : 9
Format                                   : UTF-8
Codec ID                                 : S_TEXT/UTF8
Codec ID/Info                            : UTF-8 Plain Text
Duration                                 : 1 h 0 min
Bit rate                                 : 96 b/s
Count of elements                        : 779
Stream size                              : 42.8 KiB (0%)
Language                                 : Russian
Default                                  : Yes
Forced                                   : No
Text #2
ID                                       : 10
Format                                   : UTF-8
Codec ID                                 : S_TEXT/UTF8
Codec ID/Info                            : UTF-8 Plain Text
Duration                                 : 1 h 0 min
Bit rate                                 : 71 b/s
Count of elements                        : 1166
Stream size                              : 31.7 KiB (0%)
Language                                 : English
Default                                  : No
Forced                                   : No
Text #3
ID                                       : 11
Format                                   : UTF-8
Codec ID                                 : S_TEXT/UTF8
Codec ID/Info                            : UTF-8 Plain Text
Duration                                 : 1 h 0 min
Bit rate                                 : 72 b/s
Count of elements                        : 1175
Stream size                              : 31.8 KiB (0%)
Title                                    : SDH
Language                                 : English
Default                                  : No
Forced                                   : No
Menu
00:00:00.000                             : en:Amazon Original
00:00:05.000                             : en:Ratings
00:00:15.000                             : en:Previously On
00:01:00.000                             : en:Filming
00:03:47.000                             : en:Supe terrorist
00:04:15.000                             : en:A PR nightmare
00:06:23.000                             : en:Butcher lets out some anger
00:07:50.000                             : en:Hughie updates Butcher
00:10:13.000                             : en:An alarming conversation
00:10:58.000                             : en:Following closely
00:11:11.000                             : en:Girls get it done
00:12:30.000                             : en:Surprising news
00:12:41.000                             : en:Visiting family
00:14:42.000                             : en:A-Train has trouble with the script
00:16:28.000                             : en:An interview with The Deep
00:17:11.000                             : en:Kimiko lets off some steam
00:18:38.000                             : en:Unexpected visitors
00:21:52.000                             : en:Awkward conversations
00:24:41.000                             : en:A public relationship
00:27:10.000                             : en:A pep talk
00:29:56.000                             : en:Frenchie confronts Kimiko
00:32:12.000                             : en:Infomercial
00:33:01.000                             : en:A-Train is having a tough time
00:35:57.000                             : en:Making things worse
00:39:23.000                             : en:The taffy room
00:40:25.000                             : en:A change of heart
00:42:06.000                             : en:Waiting
00:49:45.000                             : en:A mutual offer of help
00:50:36.000                             : en:Secret's out
00:54:45.000                             : en:Moving forward
00:56:42.000                             : en:Stormfront doesn't break easily
00:58:46.000                             : en:End Credits

Скриншоты

Серия 2

     

Серия 5

     

Soldat_5

Post 05-Oct-2020 13:14

[Quote]

Меня зовут Мелек / Benim Adım Melek (2020) WEB-DLRip [H.264/1080p-LQ] (сезон 2, серии 1-5 из ??) - Производство: Турция / US Yapim
Жанр: драма
Режиссер: Джем Акйолдаш
Актеры: Халил Ибрахим Йилмаз, Нехир Эрдоган, Мустафа Мерт Коч, Кутси, Рабиа Сойтюрк, Мехмет Чевик, Каан Чакыр, Эдже Оздикиджи и др.
Описание:
История про Халиля и Мелек, влюбленных, на пути которых стоят барьеры и им придется пройти через сложные испытания, чтобы воссоединиться и стать счастливыми.

Продолжительность: ~02:50:00 серия
Качество видео: WEB-DLRip [img]http://nnmclub.ch/forum/image.php?link=https://assets.nnm-club.ws/forum/images/channel/sample_light_nnm.png[/img]
Перевод: Одноголосый любительский (SesDizi)
Видео: AVC/H.264, 1920x1080 (16:9), ~1580 kbps
Аудио: AAC, 1 ch, 160 kbps

MediaInfo:

General
Unique ID : 5260704616166430432748886792930996059 (0x3F52CC34A2D16984A91106515222F5B)
Complete name : J:\Melek.s02.WEB-DLRip1080p.SesDizi\Melek.s02.e01.(e29).WEB-DLRip1080p (Ay Oasis NNM-Club).mkv
Format : Matroska
Format version : Version 4
File size : 2.07 GiB
Duration : 2 h 49 min
Overall bit rate : 1 742 kb/s
Encoded date : UTC 2020-09-07 07:25:31
Writing application : mkvmerge v47.0.0 ('Black Flag') 64-bit
Writing library : libebml v1.3.10 + libmatroska v1.5.2
Video
ID : 1
Format : AVC
Format/Info : Advanced Video Codec
Format profile : [email protected]
Format settings : CABAC / 3 Ref Frames
Format settings, CABAC : Yes
Format settings, Reference fra : 3 frames
Codec ID : V_MPEG4/ISO/AVC
Duration : 2 h 49 min
Bit rate : 1 580 kb/s
Width : 1 920 pixels
Height : 1 080 pixels
Display aspect ratio : 16:9
Frame rate mode : Constant
Frame rate : 25.000 FPS
Color space : YUV
Chroma subsampling : 4:2:0
Bit depth : 8 bits
Scan type : Progressive
Bits/(Pixel*Frame) : 0.030
Stream size : 1.87 GiB (91%)
Writing library : x264 core 155 r2901 7d0ff22
Default : Yes
Forced : No
Color range : Limited
Color primaries : BT.709
Transfer characteristics : BT.709
Matrix coefficients : BT.709
Audio
ID : 2
Format : AAC LC
Format/Info : Advanced Audio Codec Low Complexity
Codec ID : A_AAC-2
Duration : 2 h 49 min
Bit rate : 160 kb/s
Channel(s) : 1 channel
Channel layout : C
Sampling rate : 44.1 kHz
Frame rate : 43.066 FPS (1024 SPF)
Compression mode : Lossy
Stream size : 194 MiB (9%)
Default : Yes
Forced : No
Скриншоты:
       
Время раздачи: с 11:00 до 3:00

Soldat_5

Post 05-Oct-2020 13:11

[Quote]

Любовь на крыше / Çati Kati Ask (2020) HDTVRip [H.264/720p-LQ] (сезон 1, серии 1-12 из ??)- Производство: Турция / Mia Yapim
Жанр: мелодрама, комедия
Режиссер: Барыш Йош
Актеры: Фуркан Андыч, Эзги Шенлер, Йигит Киразджи, Нилай Дениз, Ренан Билек, Тюлай Гюнал, Эрхан Языджиоглу, Эбру Айкач, Бурак Тамдоган, Пелин Озтекин и др.
Описание:
Новый сериал в жанре летней романтической комедии от продюсера сериала "Ветреный", который полюбился миллионам. История начинается с приезда двух иностранных гостей в большую и теплую семью. Семья Йылмаз из-за экономических трудностей решает сдать мансарду дома в аренду. Однако у них два условия – холостякам и студентам не сдают! Пути Атеша, который хочет построить новую жизнь, и Ясемин, желающей помочь своей семье, пересекаются при виде объявления о сдаче комнат. Оба претендуют на мансардные комнаты, однако ни один из них из-за условий не может поселиться в этом доме. Первые переговоры проваливаются, но молодые люди придумывают план, по которому смогут снять мансарду. Они решают – раз условия не подходят нам, мы сами подойдем к условиям. Атеш и Ясемин начинают притворяться мужем и женой, они еще не знают, что на выбранном пути, к тому же, изменят жизни Айшен и Демира...

Дата мировой премьеры: 9 июля 2020
Продолжительность: ~02:10:00 серия
Качество видео: HDTVRip [img]http://nnmclub.ch/forum/image.php?link=https://assets.nnm-club.ws/forum/images/channel/sample_light_nnm.png[/img]
Перевод: Двуголосый любительский (SesDizi)
Видео: AVC/H.264, 1280x720 (16:9), ~1800 kbps
Аудио: AAC, 2 ch, 192 kbps

MediaInfo:

General
Unique ID : 260079514419003754183219560769687174077 (0xC3A97E12C8C584DA539D13B4CA8CBBBD)
Complete name : J:\Lubov.Na.Kryshe.s01.HDTV720p.SesDizi\Lubov.Na.Kryshe.s01.e01.HDTV720p.SesDizi.mkv
Format : Matroska
Format version : Version 4
File size : 1.85 GiB
Duration : 2 h 12 min
Overall bit rate mode : Variable
Overall bit rate : 1 995 kb/s
Encoded date : UTC 2020-07-24 17:45:48
Writing application : mkvmerge v47.0.0 ('Black Flag') 64-bit
Writing library : libebml v1.3.10 + libmatroska v1.5.2
Video
ID : 1
Format : AVC
Format/Info : Advanced Video Codec
Format profile : [url=mailto:[email protected]][email protected][/url]
Format settings : CABAC / 4 Ref Frames
Format settings, CABAC : Yes
Format settings, Reference fra : 4 frames
Codec ID : V_MPEG4/ISO/AVC
Duration : 2 h 12 min
Bit rate mode : Variable
Bit rate : 1 800 kb/s
Width : 1 280 pixels
Height : 720 pixels
Display aspect ratio : 16:9
Frame rate mode : Constant
Frame rate : 25.000 FPS
Color space : YUV
Chroma subsampling : 4:2:0
Bit depth : 8 bits
Scan type : Progressive
Bits/(Pixel*Frame) : 0.078
Stream size : 1.67 GiB (90%)
Default : Yes
Forced : No
Audio
ID : 2
Format : AAC LC
Format/Info : Advanced Audio Codec Low Complexity
Codec ID : A_AAC-2
Duration : 2 h 12 min
Bit rate : 192 kb/s
Channel(s) : 2 channels
Channel layout : L R
Sampling rate : 44.1 kHz
Frame rate : 43.066 FPS (1024 SPF)
Compression mode : Lossy
Delay relative to video : -46 ms
Stream size : 182 MiB (10%)
Default : Yes
Forced : No
Скриншоты:
       
Время раздачи: с 11:00 до 3:00

Soldat_5

Post 05-Oct-2020 13:09

[Quote]

Рамо / Ramo (2020) WEB-DLRip [H.264/1080p-LQ] (сезон 2, серии 1-3 из ??) - Производство: Турция / BKM
Жанр: драма, криминал
Режиссер: Чагатай Тосун
Актеры: Мурат Йылдырым, Эсра Бильгич, Олгун Шимшек, Илькер Аксум, Йигит Озшенер, Идил Фират, Деврим Озкан, Мустафа Йилдиран, Хакан Герчек, Пелин Кёрмюкчю и др.
Описание:
После сдачи Алпая полиции дела в Адане пошли не так. Джиганхир отправляет своего сына Танера в Адану, чтобы всё исправить. Танер - безжалостный человек, он начинает войну в Адане. Его новый план состоит в том, чтобы все преступления, которые он совершил, повесить на Рамо. События, которых Рамо никак не ожидал, начнутся с этого момента.

Продолжительность: ~02:20:00 серия
Качество видео: WEB-DLRip [img]http://nnmclub.ch/forum/image.php?link=https://assets.nnm-club.ws/forum/images/channel/sample_light_nnm.png[/img]
Перевод: Двуголосый любительский (SesDizi)
Видео: AVC/H.264, 1920x1080 (16:9), ~2385 kbps
Аудио: AAC, 2 ch, 192 kbps

MediaInfo:

General
Unique ID : 267873016606921574306301355812925456542 (0xC9867765D64CBE288218B26E8DB3C09E)
Complete name : J:\Ramo.s02.WEB-DLRip1080p.SesDizi\Ramo.s02.e01.(e012).WEB-DLRip1080p (Ay Oasis NNM-Club).mkv
Format : Matroska
Format version : Version 4
File size : 2.57 GiB
Duration : 2 h 24 min
Overall bit rate : 2 551 kb/s
Encoded date : UTC 2020-09-20 08:52:00
Writing application : mkvmerge v47.0.0 ('Black Flag') 64-bit
Writing library : libebml v1.3.10 + libmatroska v1.5.2
Video
ID : 1
Format : AVC
Format/Info : Advanced Video Codec
Format profile : [email protected]
Format settings : CABAC / 3 Ref Frames
Format settings, CABAC : Yes
Format settings, Reference fra : 3 frames
Codec ID : V_MPEG4/ISO/AVC
Duration : 2 h 22 min
Bit rate : 2 387 kb/s
Width : 1 920 pixels
Height : 1 080 pixels
Display aspect ratio : 16:9
Frame rate mode : Constant
Frame rate : 25.000 FPS
Color space : YUV
Chroma subsampling : 4:2:0
Bit depth : 8 bits
Scan type : Progressive
Bits/(Pixel*Frame) : 0.046
Stream size : 2.37 GiB (92%)
Default : Yes
Forced : No
Color range : Limited
Color primaries : BT.709
Transfer characteristics : BT.709
Matrix coefficients : BT.709
Audio
ID : 2
Format : AAC LC
Format/Info : Advanced Audio Codec Low Complexity
Codec ID : A_AAC-2
Duration : 2 h 24 min
Bit rate : 192 kb/s
Channel(s) : 2 channels
Channel layout : L R
Sampling rate : 44.1 kHz
Frame rate : 43.066 FPS (1024 SPF)
Compression mode : Lossy
Stream size : 198 MiB (8%)
Default : Yes
Forced : No
Скриншоты:
       
Время раздачи: с 11:00 до 3:00

Soldat_5

Post 05-Oct-2020 13:07

[Quote]

Тени над Балканами / Senke nad Balkanom (2019-2020) WEB-DLRip (сезон 2, серии 1-5 из 10) ViruseProject (обновляемая) [AD]- Производство: Сербия / Cobra Film Department, RTS
Жанр: триллер, драма, криминал
Режиссер: Srdjan Spasic, Драган Бьелогрлич, Данило Бечкович
Актеры: Андрия Кузманович, Мария Бергам, Драган Бьелогрлич, Йована Стоилькович, Ненад Ездич, Гордан Кичич, Горан Богдан, Александр Глигорич, Небойша Дугалич, Александр Стойкович и д.р.
Описание:
Загреб, 1933 год. Террористы предпринимают неудачную попытку покушения на короля Югославии Александра. В Белград на встречу с Майей Давидович прибывает сотрудник французской тайной полиции, а в крепости Жрнов на горе Авала происходит таинственное ритуальное убийство, расследование которого поручают Станко Плетикосичу. Таинственные убийства, политические интриги и нарковойны в продолжении блистательного сербского исторического детектива.

Релиз от: ViruseProject
Продолжительность: ~00:55:00 серии
Качество видео: WEB-DLRip [img]http://nnmclub.ch/forum/image.php?link=https://assets.nnm-club.ws/forum/images/channel/sample_light_nnm.png[/img]
Перевод: Двуголосый профессиональный (ViruseProject)
Субтитры: Русские (отдельно)
Реклама: Присутствуют видео, аудио вставки рекламы
ВНИМАНИЕ! Фильм содержит сцены с обнажённой натурой, сцены употребления наркотиков и ненормативную лексику.
Видео: XviD, 720x400 (16:9), ~1800 Kbps
Аудио #1: MP3, 2 ch, 128 Kbps - русский
Аудио #2: MP3, 2 ch, 128 Kbps - сербский

MediaInfo:

Общее
Полное имя : F:\ОЗВУЧКА\888-ЗАЛИВ-888\Senke.nad.Balkanom.S02.ViruseProject\Senke.nad.Balkanom.S02.400p.ViruseProject\Senke.nad.Balkanom.S02E01.400p.WEB-DLRip.ViruseProject.avi
Формат : AVI
Формат/Информация : Audio Video Interleave
Размер файла : 1,31 Гбайт
Продолжительность : 1 ч. 30 м.
Режим общего битрейта : Переменный
Общий поток : 2 073 Кбит/сек
Программа кодирования : VirtualDubMod 1.5.10.2 (build 2540/release)
Библиотека кодирования : VirtualDubMod build 2540/release
Видео
Идентификатор : 0
Формат : MPEG-4 Visual
Профиль формата : Advanced [email protected]
Настройки формата : BVOP2
Параметр BVOP формата : 2
Параметр QPel формата : Нет
Параметр GMC формата : Без точки перехода
Параметр матрицы формата : Default (H.263)
Идентификатор кодека : XVID
Идентификатор кодека/Подсказка : XviD
Продолжительность : 1 ч. 30 м.
Битрейт : 1 800 Кбит/сек
Ширина : 720 пикселей
Высота : 400 пикселей
Соотношение сторон : 16:9
Частота кадров : 29,970 (30000/1001) кадров/сек
Цветовое пространство : YUV
Субдискретизация насыщенности : 4:2:0
Битовая глубина : 8 бит
Тип развёртки : Прогрессивная
Метод сжатия : С потерями
Бит/(Пиксели*Кадры) : 0.209
Размер потока : 1,14 Гбайт (87%)
Библиотека кодирования : XviD 69
Аудио #1
Идентификатор : 1
Формат : MPEG Audio
Версия формата : Version 1
Профиль формата : Layer 3
Настройки формата : Joint stereo / MS Stereo
Идентификатор кодека : 55
Идентификатор кодека/Подсказка : MP3
Продолжительность : 1 ч. 30 м.
Вид битрейта : Переменный
Битрейт : 128 Кбит/сек
Каналы : 2 канала
Частота : 48,0 КГц
Частота кадров : 41,667 кадра/сек (1152 SPF)
Метод сжатия : С потерями
Размер потока : 83,0 Мбайт (6%)
Выравнивание : Соединение по промежуткам
Продолжительность промежутка : 33 мс. (1,00 видеокадр)
Время предзагрузки промежутка : 504 мс.
Аудио #2
Идентификатор : 2
Формат : MPEG Audio
Версия формата : Version 1
Профиль формата : Layer 3
Настройки формата : Joint stereo / MS Stereo
Идентификатор кодека : 55
Идентификатор кодека/Подсказка : MP3
Продолжительность : 1 ч. 30 м.
Вид битрейта : Постоянный
Битрейт : 128 Кбит/сек
Каналы : 2 канала
Частота : 48,0 КГц
Метод сжатия : С потерями
Размер потока : 83,0 Мбайт (6%)
Выравнивание : Разделение по промежуткам
Продолжительность промежутка : 33 мс. (1,00 видеокадр)
Время предзагрузки промежутка : 500 мс.
Библиотека кодирования : LAME3.100
Скриншоты:
       
Время раздачи: с 10:00 до 24:00 (до появления первых 3-5 скачавших)

Soldat_5

Post 05-Oct-2020 13:04

[Quote]

Тени над Балканами / Senke nad Balkanom (2019-2020) WEB-DLRip [H.264/1080p-LQ] (сезон 2, серии 1-5 из 10) ViruseProject (обновляемая) [AD]- Производство: Сербия / Cobra Film Department, RTS
Жанр: триллер, драма, криминал
Режиссер: Srdjan Spasic, Драган Бьелогрлич, Данило Бечкович
Актеры: Андрия Кузманович, Мария Бергам, Драган Бьелогрлич, Йована Стоилькович, Ненад Ездич, Гордан Кичич, Горан Богдан, Александр Глигорич, Небойша Дугалич, Александр Стойкович и д.р.
Описание:
Загреб, 1933 год. Террористы предпринимают неудачную попытку покушения на короля Югославии Александра. В Белград на встречу с Майей Давидович прибывает сотрудник французской тайной полиции, а в крепости Жрнов на горе Авала происходит таинственное ритуальное убийство, расследование которого поручают Станко Плетикосичу. Таинственные убийства, политические интриги и нарковойны в продолжении блистательного сербского исторического детектива.

Релиз от: ViruseProject
Продолжительность: ~00:55:00 серия
Качество видео: WEB-DLRip 1080p [img]http://nnmclub.ch/forum/image.php?link=https://assets.nnm-club.ws/forum/images/channel/sample_light_nnm.png[/img]
Перевод: Двуголосый закадровый (ViruseProject)
Субтитры: Русские
Реклама: Присутствуют видео, аудио вставки рекламы
ВНИМАНИЕ! Фильм содержит сцены с обнажённой натурой, сцены употребления наркотиков и ненормативную лексику.
Видео: AVC/H.264, 1920x1080 (16:9), 4 009 Kbps
Аудио #1: AC3, 2 ch, 192 Kbps - русский
Аудио #2: AAC, 2 ch, 192 Kbps - сербский

MediaInfo:

Общее
Уникальный идентификатор : 252425906748833497233902357869775674091 (0xBDE77614C93188E99CF8B1EB6FE5DAEB)
Полное имя : F:\ОЗВУЧКА\888-ЗАЛИВ-888\Senke.nad.Balkanom.S02.ViruseProject\Senke.nad.Balkanom.S02.1080p.ViruseProject\Senke.nad.Balkanom.S02E01.1080p.WEB-DLRip.ViruseProject.mkv
Формат : Matroska
Версия формата : Version 4
Размер файла : 2,78 Гбайт
Продолжительность : 1 ч. 30 м.
Общий поток : 4 393 Кбит/сек
Дата кодирования : UTC 2020-09-25 08:55:44
Программа кодирования : mkvmerge v8.3.0 ('Over the Horizon') 64bit
Библиотека кодирования : libebml v1.3.1 + libmatroska v1.4.2
Видео
Идентификатор : 1
Формат : AVC
Формат/Информация : Advanced Video Codec
Профиль формата : [url=mailto:[email protected]][email protected][/url]
Настройки формата : CABAC / 4 Ref Frames
Параметр CABAC формата : Да
Параметр RefFrames формата : 4 кадра
Идентификатор кодека : V_MPEG4/ISO/AVC
Продолжительность : 1 ч. 30 м.
Битрейт : 4 009 Кбит/сек
Ширина : 1 920 пикселей
Высота : 1 080 пикселей
Соотношение сторон : 16:9
Режим частоты кадров : Постоянный
Частота кадров : 29,970 (30000/1001) кадров/сек
Цветовое пространство : YUV
Субдискретизация насыщенности : 4:2:0
Битовая глубина : 8 бит
Тип развёртки : Прогрессивная
Бит/(Пиксели*Кадры) : 0.065
Размер потока : 2,54 Гбайт (91%)
Язык : English
Default : Да
Forced : Нет
Цветовой диапазон : Limited
Основные цвета : BT.709
Характеристики трансфера : BT.709
Коэффициенты матрицы : BT.709
Аудио #1
Идентификатор : 2
Формат : AC-3
Формат/Информация : Audio Coding 3
Коммерческое название : Dolby Digital
Идентификатор кодека : A_AC3
Продолжительность : 1 ч. 30 м.
Вид битрейта : Постоянный
Битрейт : 192 Кбит/сек
Каналы : 2 канала
Channel layout : L R
Частота : 48,0 КГц
Частота кадров : 31,250 кадров/сек (1536 SPF)
Метод сжатия : С потерями
Размер потока : 124 Мбайт (4%)
Заголовок : ViruseProject
Язык : Russian
Service kind : Complete Main
Default : Да
Forced : Нет
Аудио #2
Идентификатор : 3
Формат : AAC LC
Формат/Информация : Advanced Audio Codec Low Complexity
Идентификатор кодека : A_AAC-2
Продолжительность : 1 ч. 30 м.
Битрейт : 192 Кбит/сек
Каналы : 2 канала
Channel layout : L R
Частота : 48,0 КГц
Частота кадров : 46,875 кадров/сек (1024 SPF)
Метод сжатия : С потерями
Размер потока : 123 Мбайт (4%)
Язык : Serbian
Default : Нет
Forced : Нет
Текст
Идентификатор : 4
Формат : UTF-8
Идентификатор кодека : S_TEXT/UTF8
Идентификатор кодека/Информация : UTF-8 Plain Text
Продолжительность : 1 ч. 27 м.
Битрейт : 97 бит/сек
Count of elements : 1125
Размер потока : 62,6 Кбайт (0%)
Заголовок : ViruseProject
Язык : Russian
Default : Нет
Forced : Нет
Скриншоты:
       
Время раздачи: с 10:00 до 24:00 (до появления первых 3-5 скачавших)

Soldat_5

Post 05-Oct-2020 13:02

[Quote]

Вавилон / Babil / The Choice (2020) WEB-DLRip [H.264/1080p-LQ] (сезон 2, серии 1-4 из 13) - Производство: Турция / Ay Yapım
Жанр: драма, криминал
Режиссер: Улуч Байрактар
Актеры: Халит Эргенч, Онур Сайлак, Аслы Энвер, Бирдже Акалай, Нур Феттахоглу, Месут Акуста, Beren Kasimogullari, Дениз Балканли, Mert Dogan, Селахаттин Пасали
Описание:
Сериал исследует жизнь Ирфана, профессора-идеалиста, который расстроен своим несправедливым увольнением. Перед Ирфаном двери закрываются одна за другой и он оказывается в центре опасного приключения, от которого он не может убежать. От отчаяния Ирфан и его друг Эгемен решаются на мошенничество с недвижимостью. Это их последний шанс. После успеха их начинает преследовать мафия и полиция. Сможет ли Ирфан оплатить дорогостоящее лечение сына и спасти его жизнь и при этом сам остаться в живых? И какие тайны прошлого скрывает профессор?

Продолжительность: ~02:15:00 серия
Качество видео: WEB-DLRip [img]http://nnmclub.ch/forum/image.php?link=https://assets.nnm-club.ws/forum/images/channel/sample_light_nnm.png[/img]
Перевод: Двуголосый любительский (SesDizi)
Видео: AVC/H.264, 1918x1080 (16:9), ~2230 kbps
Аудио: AAC, 2 ch, 96 kbps

MediaInfo:

General
Unique ID : 19383154944174602620835488675532794656 (0xE950F527C1C9840F5B8AA186F6E6B20)
Complete name : J:\Babil.s02.WEB-DLRip1080p.SesDizi\Babil.s02.e01.(e11).WEB-DLRip1080p (Ay Oasis NNM-Club).mkv
Format : Matroska
Format version : Version 4
File size : 2.23 GiB
Duration : 2 h 16 min
Overall bit rate : 2 332 kb/s
Encoded date : UTC 2020-09-22 11:20:52
Writing application : mkvmerge v47.0.0 ('Black Flag') 64-bit
Writing library : libebml v1.3.10 + libmatroska v1.5.2
Video
ID : 1
Format : AVC
Format/Info : Advanced Video Codec
Format profile : [email protected]
Format settings : CABAC / 3 Ref Frames
Format settings, CABAC : Yes
Format settings, Reference fra : 3 frames
Codec ID : V_MPEG4/ISO/AVC
Duration : 2 h 16 min
Bit rate : 2 233 kb/s
Width : 1 918 pixels
Height : 1 080 pixels
Display aspect ratio : 16:9
Frame rate mode : Constant
Frame rate : 25.000 FPS
Color space : YUV
Chroma subsampling : 4:2:0
Bit depth : 8 bits
Scan type : Progressive
Bits/(Pixel*Frame) : 0.043
Stream size : 2.13 GiB (96%)
Default : Yes
Forced : No
Color range : Limited
Color primaries : BT.709
Transfer characteristics : BT.709
Matrix coefficients : BT.709
Audio
ID : 2
Format : AAC LC
Format/Info : Advanced Audio Codec Low Complexity
Codec ID : A_AAC-2
Duration : 2 h 16 min
Bit rate : 96.0 kb/s
Channel(s) : 2 channels
Channel layout : L R
Sampling rate : 44.1 kHz
Frame rate : 43.066 FPS (1024 SPF)
Compression mode : Lossy
Stream size : 94.4 MiB (4%)
Default : Yes
Forced : No
Скриншоты:
       
Время раздачи: с 11:00 до 3:00

Soldat_5

Post 05-Oct-2020 12:59

[Quote]

Меня зовут Мелек / Benim Adım Melek (2020) WEB-DLRip [H.264/1080p-LQ] (сезон 2, серии 1-5 из ??) - Производство: Турция / US Yapim
Жанр: драма
Режиссер: Джем Акйолдаш
Актеры: Халил Ибрахим Йилмаз, Нехир Эрдоган, Мустафа Мерт Коч, Кутси, Рабиа Сойтюрк, Мехмет Чевик, Каан Чакыр, Эдже Оздикиджи и др.
Описание:
История про Халиля и Мелек, влюбленных, на пути которых стоят барьеры и им придется пройти через сложные испытания, чтобы воссоединиться и стать счастливыми.

Продолжительность: ~02:50:00 серия
Качество видео: WEB-DLRip [img]http://nnmclub.ch/forum/image.php?link=https://assets.nnm-club.ws/forum/images/channel/sample_light_nnm.png[/img]
Перевод: Одноголосый любительский (SesDizi)
Видео: AVC/H.264, 1920x1080 (16:9), ~1580 kbps
Аудио: AAC, 1 ch, 160 kbps

MediaInfo:

General
Unique ID : 5260704616166430432748886792930996059 (0x3F52CC34A2D16984A91106515222F5B)
Complete name : J:\Melek.s02.WEB-DLRip1080p.SesDizi\Melek.s02.e01.(e29).WEB-DLRip1080p (Ay Oasis NNM-Club).mkv
Format : Matroska
Format version : Version 4
File size : 2.07 GiB
Duration : 2 h 49 min
Overall bit rate : 1 742 kb/s
Encoded date : UTC 2020-09-07 07:25:31
Writing application : mkvmerge v47.0.0 ('Black Flag') 64-bit
Writing library : libebml v1.3.10 + libmatroska v1.5.2
Video
ID : 1
Format : AVC
Format/Info : Advanced Video Codec
Format profile : [email protected]
Format settings : CABAC / 3 Ref Frames
Format settings, CABAC : Yes
Format settings, Reference fra : 3 frames
Codec ID : V_MPEG4/ISO/AVC
Duration : 2 h 49 min
Bit rate : 1 580 kb/s
Width : 1 920 pixels
Height : 1 080 pixels
Display aspect ratio : 16:9
Frame rate mode : Constant
Frame rate : 25.000 FPS
Color space : YUV
Chroma subsampling : 4:2:0
Bit depth : 8 bits
Scan type : Progressive
Bits/(Pixel*Frame) : 0.030
Stream size : 1.87 GiB (91%)
Writing library : x264 core 155 r2901 7d0ff22
Default : Yes
Forced : No
Color range : Limited
Color primaries : BT.709
Transfer characteristics : BT.709
Matrix coefficients : BT.709
Audio
ID : 2
Format : AAC LC
Format/Info : Advanced Audio Codec Low Complexity
Codec ID : A_AAC-2
Duration : 2 h 49 min
Bit rate : 160 kb/s
Channel(s) : 1 channel
Channel layout : C
Sampling rate : 44.1 kHz
Frame rate : 43.066 FPS (1024 SPF)
Compression mode : Lossy
Stream size : 194 MiB (9%)
Default : Yes
Forced : No
Скриншоты:
       
Время раздачи: с 11:00 до 3:00

kilmister777

Post 21-Sep-2020 11:19

[Quote]

Сестра Рэтчед / Ratched- Год выпуска: 2020
Страна: США
Жанр: триллер, драма, криминал, детектив
Продолжительность: 8 х ~ 00:55:00
Перевод: Профессиональный (многоголосый закадровый) HDrezka Studio
Cубтитры: Russian (Full |Netflix|), English (SDH)- -Режиссер: Райан Мёрфи, Майкл Аппендаль, Нельсон Крегг-В ролях: Сара Полсон, Джон Джон Брионес, Синтия Никсон, Джуди Дэвис, Шэрон Стоун, Харриет Сэнсом Харрис, Хантер Пэрриш, Аманда Пламмер, Кори Столл, Дэниэл Хэйгэн-Описание: Это оригинальная история, предваряющая события романа «Пролетая над гнездом кукушки» и его одноимённой экранизации. Драма, действие которой начинается в 1947 году, расскажет о том, как Милдред Рэтчед превратилась из молодой медсестры в кровожадное чудовище, беспощадного «серого кардинала», практически безраздельно властвовавшего над персоналом и пациентами психиатрической клиники.-Качество: WEB-DLRip
Формат: AVI
Видео кодек: XviD
Аудио кодек: AC3
Видео: 704x320 (2.37:1), 24.000 fps, XviD build 73 ~1700 kbps avg, 0.30 bit/pixel
Аудио 1: 48 kHz, AC3 Dolby Digital, 2/0 (L,R) ch, ~192 kbps|RUS
Аудио 2: 48 kHz, AC3 Dolby Digital, 2/0 (L,R) ch, ~192 kbps|ENG-

Скриншоты

     

kilmister777

Post 13-Sep-2020 13:56

[Quote]

Игра в судьбу- Год выпуска: 2020
Страна: Украина
Жанр: мелодрама
Продолжительность: 4 x ~ 00:51:00
Перевод: Не требуется
Cубтитры: Украинские-Режиссер: Сергей Сторожев-В ролях: Клавдия Дрозд, Максим Самчик, Полина Фролова, Пётр Нинёвский, Олеся Власова, Александра Польгуй, Алексей Тритенко-Описание: Первая любовь юных Богданы и Александра трагично обрывается: из-за несчастного случая Богдана погибает. Убитый горем влюбленный с трудом находит в себе силы жить дальше...-Качество: HDTVRip
Формат: AVI
Видео кодек: XviD
Аудио кодек: AC3
Видео: 720x400 (2.37:1), 24.000 fps, XviD build 73 ~1608 kbps avg, 0.28 bit/pixel
Аудио: 48 kHz, AC3 Dolby Digital, 2/0 (L,R) ch, ~192 kbps-

Скриншоты

       

kilmister777

Post 09-Sep-2020 19:44

[Quote]

Программисты / Разрабы / Devs- Год выпуска: 2020
Страна: США
Жанр: фантастика, триллер, драма, детектив
Продолжительность: 8 x ~ 00:50:00
Перевод: Профессиональный (двухголосый закадровый) Кубик в Кубе
Субтитры: Russian (Full), English (Full)- -Режиссер: Алекс Гарленд-В ролях: Соноя Мидзуно, Ник Офферман, Джин Ха, Элисон Пилл, Зак Гренье, Кэйли Спэни, Стивен Хендерсон, Карл Глусман, Зи Инсектс, Джефферсон Холл-Описание: Сергей — ведущий программист в компьютерной корпорации Amaya, занимающейся квантовыми вычислениями. Однажды его босс Форест приглашает мужчину занять ключевую должность в секретном подразделении Devs, а сутки спустя Сергея обнаруживают мертвым, после чего смерть списывают на самоубийство. Лили Чан, девушка погибшего программиста, также работающая в той же компании, хочет узнать подробности кончины своего бойфренда, задавая неудобные вопросы Форесту и его заместителю Кэти, параллельно желая выяснить, какими именно исследованиями занимается Devs.-Качество: WEB-DLRip
Формат: AVI
Видео кодек: XviD
Аудио кодек: AC3
Видео: 704x352 (2.37:1), 24.000 fps, XviD build 73 ~1600 kbps avg, 0.26 bit/pixel
Аудио 1: 48 kHz, AC3 Dolby Digital, 2/0 (L,R) ch, ~192 kbps|RUS
Аудио 2: 48 kHz, AC3 Dolby Digital, 2/0 (L,R) ch, ~192 kbps|ENG-

Скриншоты

       

kilmister777

Post 26-Aug-2020 14:53

[Quote]

Банды Лондона / Gangs of London- Год выпуска: 2020
Страна: Великобритания
Жанр: драма, криминал
Продолжительность: 1х~01:30:00, 8х~00:55:00 серия
Перевод: Профессиональный (многоголосый закадровый) NewStudio
Субтитры: Russian (Full, Forced)-***Внимание! Присутствует ненормативная лексика!- -Режиссер: Корин Харди, Ксавье Жанс, Гарет Эванс-В ролях: Азиф Раза Мир, Лусиан Мсамати, Скотт Джеймс, Рэй Пантаки, Парт Такерар, Аксель Устун, Тэй Мэтью, Орли Шука, Мадс Коудал, Дэвид Крисанту и другие.-Описание: «Банды Лондона» — это криминальный триллер от создателя культового индонезийского боевика «Рейд» Гарета Эванса. Сериал, повествующий о противостоянии более чем десятка разнообразных преступных кланов, рассчитан на зрителей с устойчивой нервной системой: главным героем здесь является насилие во всем его многообразии форм и накале жестокости. Действие разворачивается в готэмизированной версии современного Лондона, вместо суперзлодеев здесь лютуют сотни головорезов из разных мафий, а сюжетным каркасом стала неудержимая жажда мести сына за убийство отца. Шоу отличается искусной боевой хореографией, хлесткими диалогами и колоритными персонажами, большинство из которых принадлежат преступному миру той или иной страны, включая Ямайку и Россию. Главную роль в проекте исполняет известный по британской гангстерской драме «Острые козырьки» Джо Коул.-Качество: BDRip
Формат: AVI
Видео кодек: XviD
Аудио кодек: AC3
Видео: 704x352 (2.37:1), 24.000 fps, XviD build 73 ~1700 kbps avg, 0.26 bit/pixel
Аудио 1: 48 kHz, AC3 Dolby Digital, 2/0 (L,R) ch, ~192 kbps|RUS
Аудио 2: 48 kHz, AC3 Dolby Digital, 2/0 (L,R) ch, ~192 kbps|ENG-

Скриншоты

       

kilmister777

Post 18-Aug-2020 09:20

[Quote]

Старгёрл / Stargirl- Год выпуска: 2020
Страна: США
Жанр: фантастика, фэнтези, боевик, драма, криминал
Продолжительность: 13 х 00:53:00
Перевод: Профессиональный (многоголосый закадровый) Lostfilm- -Режиссер: Энди Армаганян, Тоа Фрейзер, Роб Харди-В ролях: Брэк Бэссинджер, Люк Уилсон, Анжелика Вашингтон, Кэмерон Джеллман, Джоэл МакХэйл, Нельсон Ли, Кристофер Джеймс Бэйкер, Мэг Келли, Нил Джексон, Ивет Монреаль-Описание: Молодая американка Кортни Уитмор случайно узнаёт, что её отчим был помощником супергероя. Сама же она по неизвестным пока причинам может пользоваться сверхоружием одного из таких супергероев, ушедшего из жизни. И теперь спасение мира на ней - Старгёрл. Героиня загорается идеей создания собственной команды, «Общества справедливости Америки».-Качество: WEB-DLRip
Формат: AVI
Видео кодек: XviD
Аудио кодек: AC3
Видео: 704x320 (2.37:1), 24.000 fps, XviD build 73 ~1600 kbps avg, 0.24 bit/pixel
Аудио 1: 48 kHz, AC3 Dolby Digital, 2/0 (L,R) ch, ~192 kbps [Rus]
Аудио 2: 48 kHz, AC3 Dolby Digital, 2/0 (L,R) ch, ~192 kbps [Eng]-

Скриншоты

       
 

The time now is: Today 18:57

All times are GMT + 3 Hours