Today is a free download without charge Download

Search found 500 matches

Author Message

Clavik

Post Today 13:08

[Quote]

Ладья / The Rook (2019) WEB-DLRip [H.264/720p-LQ] - Производство: США / Carpool Entertainment, Lionsgate, Character 7
Жанр: фэнтези, триллер, драма
Режиссер: Чина Му-Ен, Кари Скогланд, Суну Гонера
Актеры: Эмма Гринвелл, Джоэли Ричардсон, Джон Флетчер, Ронан Рафтери, Катрин Стэдмен, Адриан Лестер, Оливия Манн, Рут Маделей, Джошуа Сквайр, Барри Атсма и др.
Описание:
Мифанви Томас обладает сверхспособностями и страдает от амнезии. Ей нужно понять, кто стоит за таинственными убийствами, и сохранить потерю памяти в секрете от коллег по секретной службе Великобритании.

Дата мировой премьеры: 30 июня 2019
Релиз от: Алехаndr
Продолжительность: ~00:50:00 серия
Качество видео: WEB-DLRip
Перевод: Многоголосый профессиональный - LostFilm
Видео: AVC/H.264, 1280x720 (16:9), ~4000 Kbps
Аудио: AC3, 2 ch, 384 Kbps - русский, многоголосый профессиональный

MediaInfo:

Общее
Уникальный идентификатор : 73225097959777614711924001226177194320 (0x3716A410FBB04DEC6330D24515CD2950)
Полное имя : G:\The.Rook (2019).by.Алехаndr\The.Rook.S01E01.720p.rus.LostFilm.TV.by.Алехаndr.mkv
Формат : Matroska
Версия формата : Version 4
Размер файла : 1,56 Гбайт
Продолжительность : 50 м. 56 с.
Общий поток : 4384 Кбит/сек
Программа кодирования : Lavf57.71.100
Библиотека кодирования : Lavf57.71.100
ErrorDetectionType : Per level 1
Видео
Идентификатор : 1
Формат : AVC
Формат/Информация : Advanced Video Codec
Профиль формата : [url=mailto:[email protected]][email protected][/url]
Настройки формата : CABAC / 4 Ref Frames
Параметр CABAC формата : Да
Параметр RefFrames формата : 4 кадра
Идентификатор кодека : V_MPEG4/ISO/AVC
Продолжительность : 50 м. 55 с.
Битрейт : 4000 Кбит/сек
Ширина : 1280 пикселей
Высота : 720 пикселей
Соотношение сторон : 16:9
Режим частоты кадров : Постоянный
Частота кадров : 23,976 (23976/1000) кадра/сек
Цветовое пространство : YUV
Субдискретизация насыщенности : 4:2:0
Битовая глубина : 8 бит
Тип развёртки : Прогрессивная
Бит/(Пиксели*Кадры) : 0.181
Размер потока : 1,39 Гбайт (89%)
Библиотека кодирования : x264 core 112 r1834 a51816a
Настройки программы : cabac=1 / ref=4 / deblock=1:-3:-2 / analyse=0x3:0x113 / me=hex / subme=7 / psy=1 / psy_rd=1.00:0.00 / mixed_ref=1 / me_range=16 / chroma_me=1 / trellis=1 / 8x8dct=1 / cqm=0 / deadzone=21,11 / fast_pskip=1 / chroma_qp_offset=-2 / threads=12 / sliced_threads=0 / nr=0 / decimate=1 / interlaced=0 / constrained_intra=0 / bframes=5 / b_pyramid=2 / b_adapt=1 / b_bias=0 / direct=1 / weightb=1 / open_gop=0 / weightp=2 / keyint=250 / keyint_min=25 / scenecut=40 / intra_refresh=0 / rc_lookahead=40 / rc=2pass / mbtree=1 / bitrate=4000 / ratetol=1.0 / qcomp=0.60 / qpmin=0 / qpmax=51 / qpstep=4 / cplxblur=20.0 / qblur=0.5 / vbv_maxrate=10000 / vbv_bufsize=256000 / ip_ratio=1.40 / aq=1:1.00 / nal_hrd=none
Default : Да
Forced : Нет
Аудио
Идентификатор : 2
Формат : AC-3
Формат/Информация : Audio Coding 3
Коммерческое название : Dolby Digital
Идентификатор кодека : A_AC3
Продолжительность : 50 м. 55 с.
Вид битрейта : Постоянный
Битрейт : 384 Кбит/сек
Каналы : 2 канала
ChannelLayout : L R
Частота : 48,0 КГц
Частота кадров : 31,250 кадров/сек (1536 SPF)
Битовая глубина : 16 бит
Метод сжатия : С потерями
Задержка видео : -83 мс.
Размер потока : 140 Мбайт (9%)
ServiceKind/String : Complete Main
Default : Да
Forced : Нет
Скриншоты:
       

Clavik

Post Yesterday 23:39

[Quote]

Рассказ служанки / The Handmaid's Tale (2019) WEBRip [H.264/720p-LQ] (сезон 3, серия 1-13 из 13) [PR, AD] - Производство: США, MGM Television
Жанр: Фантастика, триллер, драма
Режиссер: Майк Баркер, Кари Скогланд, Рид Морано
Актеры: Элизабет Мосс, Джозеф Файнс, Самира Уайли, Ивонн Страховски, Макс Мингелла, Энн Дауд, Джордана Блейк, Алексис Бледел, О. Т. Фагбенли, Аманда Бругел
Описание:
Действие разворачивается в республике Гилеад, где у власти стоят военные. В стране жестокие порядки и нравы, уважением в обществе пользуются только офицеры и их жены. Но по никому неизвестным причинам у жен офицеров не рождаются дети. Чтобы продолжить офицерский род, офицеры и их жены выбирают из числа простых девушек ту, которая будет вынашивать их будущего ребенка. Молодые девушки, носители офицерских отпрысков, живут в специальных охраняемых помещениях, больше всего напоминающих тюрьму, и знают, что сразу после родов им придется расстаться со своими детьми.

Возраст: 18+ (зрителям, достигшим 18 лет)
Релиз от: JimmyJ
Продолжительность: ~01:00:00 серия
Качество видео: WEBRip 720p
Перевод: Двуголосый любительский (JimmyJ)
Субтитры: Отсутствуют
Реклама: присутствуют видео, аудио, текстовые вставки рекламы
Видео: AVC/H.264, 1280х640, ~3100 Kbps - 1-9 серии (Рип с AMAZON)
Аудио: AC3, 2 ch, 256 Kbps
Видео: AVC/H.264, 1280х640, ~2200 Kbps - 10-13 серии (Рип с HULU)
Аудио: AC3, 2 ch, 256 Kbps

Mediainfo (AMAZON):

General
Unique ID : 154733714298808619758315325563491532129 (0x7468A11EE125B0F2D70F67D38F7B3D61)
Complete name : E:\Torrent\JimmyJ\The.Handmaid's.Tale.S03.720p.WEBRip.JimmyJ\The.Handmaid's.Tale.S03E01.720p.WEBRip.JimmyJ.mkv
Format : Matroska
Format version : Version 4
File size : 1.20 GiB
Duration : 51 min 1 s
Overall bit rate : 3 359 kb/s
Writing application : XviD4PSP 8.0.62
Writing library : Lavf58.20.100
ErrorDetectionType : Per level 1
ENCODING_INFO : MATROSKA,WEBM > MKV 720p
Video
ID : 1
Format : AVC
Format/Info : Advanced Video Codec
Format profile : [url=mailto:[email protected]][email protected][/url]
Format settings : 1 Ref Frames
Format settings, CABAC : No
Format settings, Reference : 1 frame
Codec ID : V_MPEG4/ISO/AVC
Duration : 51 min 1 s
Bit rate : 3 100 kb/s
Width : 1 280 pixels
Height : 640 pixels
Display aspect ratio : 2.000
Frame rate mode : Constant
Frame rate : 23.976 (24000/1001) FPS
Color space : YUV
Chroma subsampling : 4:2:0
Bit depth : 8 bits
Scan type : Progressive
Bits/(Pixel*Frame) : 0.158
Stream size : 1.08 GiB (90%)
Writing library : x264 core 157 r2969 d4099dd
Encoding settings : cabac=0 / ref=1 / deblock=0:-6:-6 / analyse=0x1:0 / me=dia / subme=0 / psy=1 / psy_rd=1.00:0.00 / mixed_ref=0 / me_range=8 / chroma_me=1 / trellis=0 / 8x8dct=0 / cqm=0 / deadzone=21,11 / fast_pskip=1 / chroma_qp_offset=0 / threads=7 / lookahead_threads=1 / sliced_threads=0 / nr=0 / decimate=1 / interlaced=0 / bluray_compat=0 / constrained_intra=0 / bframes=0 / weightp=0 / keyint=240 / keyint_min=24 / scenecut=0 / intra_refresh=0 / rc=2pass / mbtree=0 / bitrate=3100 / ratetol=1.0 / qcomp=0.60 / qpmin=0 / qpmax=69 / qpstep=4 / cplxblur=20.0 / qblur=0.5 / ip_ratio=1.40 / aq=0
Language : English
Default : Yes
Forced : No
Color range : Limited
Color primaries : BT.709
Transfer characteristics : BT.709
Matrix coefficients : BT.709
ENCODING_INFO : H264 > X264 VBR-2P 3100kbps Ultra Fast
Audio
ID : 2
Format : AC-3
Format/Info : Audio Coding 3
Commercial name : Dolby Digital
Codec ID : A_AC3
Duration : 51 min 1 s
Bit rate mode : Constant
Bit rate : 256 kb/s
Channel(s) : 2 channels
Channel layout : L R
Sampling rate : 48.0 kHz
Frame rate : 31.250 FPS (1536 SPF)
Bit depth : 16 bits
Compression mode : Lossy
Stream size : 93.4 MiB (8%)
Title : DVO JimmyJ
Language : Russian
Service kind : Complete Main
Default : Yes
Forced : No
ENCODING_INFO : AC3 > AC3 CBR 256kbps

Mediainfo (HULU):

General
Unique ID : 159323437259521509400146405381500929387 (0x77DC93EF0810E002287CB4B506F1856B)
Complete name : E:\Torrent\JimmyJ\The.Handmaid's.Tale.S03.720p.WEBRip.JimmyJ\The.Handmaid's.Tale.S03E03.720p.WEBRip.JimmyJ.mkv
Format : Matroska
Format version : Version 4
File size : 899 MiB
Duration : 51 min 5 s
Overall bit rate : 2 459 kb/s
Writing application : XviD4PSP 8.0.64
Writing library : Lavf58.20.100
ErrorDetectionType : Per level 1
ENCODING_INFO : MATROSKA,WEBM > MKV 720p
Video
ID : 1
Format : AVC
Format/Info : Advanced Video Codec
Format profile : [url=mailto:[email protected]][email protected][/url]
Format settings : 1 Ref Frames
Format settings, CABAC : No
Format settings, Reference : 1 frame
Codec ID : V_MPEG4/ISO/AVC
Duration : 51 min 5 s
Bit rate : 2 200 kb/s
Width : 1 280 pixels
Height : 640 pixels
Display aspect ratio : 2.000
Frame rate mode : Constant
Frame rate : 23.976 (24000/1001) FPS
Color space : YUV
Chroma subsampling : 4:2:0
Bit depth : 8 bits
Scan type : Progressive
Bits/(Pixel*Frame) : 0.112
Stream size : 787 MiB (88%)
Writing library : x264 core 157 r2969 d4099dd
Encoding settings : cabac=0 / ref=1 / deblock=0:-6:-6 / analyse=0x3:0 / me=dia / subme=0 / psy=1 / psy_rd=1.00:0.00 / mixed_ref=0 / me_range=8 / chroma_me=1 / trellis=0 / 8x8dct=1 / cqm=0 / deadzone=21,11 / fast_pskip=1 / chroma_qp_offset=0 / threads=7 / lookahead_threads=1 / sliced_threads=0 / nr=0 / decimate=1 / interlaced=0 / bluray_compat=0 / constrained_intra=0 / bframes=0 / weightp=0 / keyint=240 / keyint_min=24 / scenecut=0 / intra_refresh=0 / rc=2pass / mbtree=0 / bitrate=2200 / ratetol=1.0 / qcomp=0.60 / qpmin=0 / qpmax=69 / qpstep=4 / cplxblur=20.0 / qblur=0.5 / ip_ratio=1.40 / aq=0
Language : English
Default : Yes
Forced : No
Color range : Limited
Color primaries : BT.709
Transfer characteristics : BT.709
Matrix coefficients : BT.709
ENCODING_INFO : H264 > X264 VBR-2P 2200kbps Ultra Fast
Audio
ID : 2
Format : AC-3
Format/Info : Audio Coding 3
Commercial name : Dolby Digital
Codec ID : A_AC3
Duration : 51 min 5 s
Bit rate mode : Constant
Bit rate : 256 kb/s
Channel(s) : 2 channels
Channel layout : L R
Sampling rate : 48.0 kHz
Frame rate : 31.250 FPS (1536 SPF)
Bit depth : 16 bits
Compression mode : Lossy
Stream size : 93.5 MiB (10%)
Title : DVO JImmyJ
Language : Russian
Service kind : Complete Main
Default : Yes
Forced : No
ENCODING_INFO : AC3 > AC3 CBR 256kbps
Скриншоты:
       

Clavik

Post 17-Aug-2019 23:04

[Quote]

Ударная группа / Smeris / Force (2014-2018) WEB-DLRip (сезон 1-4, серии 1-40 из 40) - Производство: Нидерланды / Pupkin Film
Жанр: драма, криминал
Режиссер: Марк Уиллард, Дэвид Ламмерс, Аннемари ван де Монд
Актеры: Йерун ван Конингсбругге, Дэннис ван Де Вен, Кики ван Дёрсен, Дан ван Дейсселдонк, Hans Ligtvoet, Сусан Виссер, René van Zinnicq Bergman, Lindsay Zwaan, Мими Феррер, Патрик Стоф
Описание:
Тео Камп − лучший, но вместе с тем и самый импульсивный следователь отдела убийств в полиции Тилбурга. Во время поисков мафиози Камп в очередной раз переступает черту, в связи с чем в качестве наказания его отправляют в подразделение по борьбе с наркопреступностью. На некоторое время Тео придётся не поднимать головы, ведь здесь он находится под бдительным оком своего нового напарника Уильяма Ниссена — детектива, известного своей честностью.

Релиз от: miha2154
Продолжительность: ~ 00:45:00 серия
Качество видео: WEB-DLRip
Перевод: Многоголосый профессиональный (Eurochannel)
Реклама: отсутствует
Видео: DivX 5, 720x400, ~1540 kbps
Аудио 1: AC3, 2 ch, 192 kbps - русский, многоголосый
Аудио 2: AC3, 2 ch, 192 kbps - голландский

MediaInfo:

General
Complete name :1x01 - Losse handjes (Связанные руки).avi
Format : AVI
Format/Info : Audio Video Interleave
File size : 653 MiB
Duration : 47 min 4 s
Overall bit rate : 1 939 kb/s
Movie name : Ударная группа. Сезон 1 / Smeris. Seizoen 1 (2014)
Writing application : VirtualDubMod 1.5.10.2 (build 2540/release)
Writing library : VirtualDubMod build 2540/release
Copyright : miha2154
Video
ID : 0
Format : MPEG-4 Visual
Format profile : Advanced [email protected]
Format settings : BVOP1 / Custom Matrix
Format settings, BVOP : 1
Format settings, QPel : No
Format settings, GMC : No warppoints
Format settings, Matrix : Custom
Codec ID : DX50
Codec ID/Hint : DivX 5
Duration : 47 min 4 s
Bit rate : 1 540 kb/s
Width : 720 pixels
Height : 400 pixels
Display aspect ratio : 16:9
Frame rate : 23.976 (24000/1001) FPS
Color space : YUV
Chroma subsampling : 4:2:0
Bit depth : 8 bits
Scan type : Progressive
Compression mode : Lossy
Bits/(Pixel*Frame) : 0.223
Stream size : 519 MiB (79%)
Writing library : XviD 65
Audio #1
ID : 1
Format : AC-3
Format/Info : Audio Coding 3
Commercial name : Dolby Digital
Codec ID : 2000
Duration : 47 min 4 s
Bit rate mode : Constant
Bit rate : 192 kb/s
Channel(s) : 2 channels
Channel layout : L R
Sampling rate : 48.0 kHz
Frame rate : 31.250 FPS (1536 SPF)
Bit depth : 16 bits
Compression mode : Lossy
Stream size : 64.7 MiB (10%)
Alignment : Split across interleaves
Interleave, duration : 42 ms (1.00 video frame)
Interleave, preload duratio : 500 ms
Title : Профессиональный (многоголосый, закадровый) Eurochannel
Service kind : Complete Main
Audio #2
ID : 2
Format : AC-3
Format/Info : Audio Coding 3
Commercial name : Dolby Digital
Codec ID : 2000
Duration : 47 min 4 s
Bit rate mode : Constant
Bit rate : 192 kb/s
Channel(s) : 2 channels
Channel layout : L R
Sampling rate : 48.0 kHz
Frame rate : 31.250 FPS (1536 SPF)
Bit depth : 16 bits
Compression mode : Lossy
Stream size : 64.7 MiB (10%)
Alignment : Split across interleaves
Interleave, duration : 42 ms (1.00 video frame)
Interleave, preload duratio : 500 ms
Title : Нидерландский
Service kind : Complete Main
Скриншоты:
       

Clavik

Post 17-Aug-2019 23:02

[Quote]

Сотня / 100 / The 100 (2019) WEBRip [H.264/720p-LQ] (сезон 6, серии 1-13 из 13) [AD, PR] - Производство: США / Bonanza Productions, Alloy Entertainment, Warner Bros. Television
Жанр: фантастика, драма, детектив
Режиссер: Дин Уайт, П.Дж. Пеше, Майрзи Алмас
Актеры: Элайза Тейлор, Пейдж Турко, Томас МакДонелл, Боб Морли, Мари Авгеропулос, Девон Бостик, Линдси Морган, Рики Уиттл, Кристофер Ларкин, Исайя Вашингтон, Генри Иэн Кьюсик
Описание:
Экранизация одноименного романа Касс Морган. События в сериале начинают разворачиваться по прошествии девяносто семи лет после того как всю цивилизацию уничтожила страшная атомная война. Высоко в космосе на орбите Земли летает большой космический корабль, именно здесь находятся те, кто выжил после страшной катастрофы. Они единственные кто пережил этот ужасный катаклизм который устроило человечество. Именно с этого последнего пристанища людей на Землю отправляют космический челнок на котором находятся сто малолетних преступников…

Возраст: 16+ (зрителям, достигшим 16 лет)
Релиз от: Jimmy
Продолжительность: ~00:45:00 серия
Качество видео: WEBRip 720p
Перевод: Двуголосый любительский (JimmyJ)
Субтитры: Отсутствуют
Реклама: присутствуют видео, аудио, текстовые вставки рекламы
Видео: AVC/H.264, 1280х720, ~4130 Kbps
Аудио: AC3, 2 ch, 256 Kbps

Mediainfo:

Общее
Уникальный идентификатор : 314090344157066249183813170125734852791 (0xEC4B99936821563C021FDE55C27EB8B7)
Полное имя : E:\Torrent\JimmyJ\The.100.S06.720p.WEBRip.JimmyJ\The.100.S06E01.720p.WEBRip.JimmyJ.mkv
Формат : Matroska
Версия формата : Version 4
Размер файла : 1,36 Гбайт
Продолжительность : 43 м. 24 с.
Общий поток : 4476 Кбит/сек
Программа кодирования : XviD4PSP 8.0.59
Библиотека кодирования : Lavf58.20.100
ErrorDetectionType : Per level 1
ENCODING_INFO : MATROSKA,WEBM > MKV 720p
Видео
Идентификатор : 1
Формат : AVC
Формат/Информация : Advanced Video Codec
Профиль формата : [url=mailto:[email protected]][email protected][/url]
Настройки формата : CABAC / 4 Ref Frames
Параметр CABAC формата : Да
Параметр RefFrames формата : 4 кадра
Идентификатор кодека : V_MPEG4/ISO/AVC
Продолжительность : 43 м. 24 с.
Битрейт : 4131 Кбит/сек
Номинальный битрейт : 4500 Кбит/сек
Ширина : 1280 пикселей
Высота : 720 пикселей
Соотношение сторон : 16:9
Режим частоты кадров : Постоянный
Частота кадров : 23,976 (24000/1001) кадра/сек
Цветовое пространство : YUV
Субдискретизация насыщенности : 4:2:0
Битовая глубина : 8 бит
Тип развёртки : Прогрессивная
Бит/(Пиксели*Кадры) : 0.187
Размер потока : 1,25 Гбайт (92%)
Библиотека кодирования : x264 core 157 r2969 d4099dd
Настройки программы : cabac=1 / ref=3 / deblock=1:-2:-2 / analyse=0x3:0x133 / me=hex / subme=7 / psy=1 / psy_rd=1.00:0.20 / mixed_ref=1 / me_range=16 / chroma_me=1 / trellis=1 / 8x8dct=1 / cqm=0 / deadzone=21,11 / fast_pskip=1 / chroma_qp_offset=-3 / threads=7 / lookahead_threads=1 / sliced_threads=0 / nr=0 / decimate=1 / interlaced=0 / bluray_compat=0 / constrained_intra=0 / bframes=3 / b_pyramid=2 / b_adapt=2 / b_bias=0 / direct=3 / weightb=1 / open_gop=0 / weightp=2 / keyint=240 / keyint_min=24 / scenecut=40 / intra_refresh=0 / rc_lookahead=40 / rc=cbr / mbtree=1 / bitrate=4500 / ratetol=1.0 / qcomp=0.60 / qpmin=0 / qpmax=69 / qpstep=4 / vbv_maxrate=4500 / vbv_bufsize=3214 / nal_hrd=none / filler=0 / ip_ratio=1.40 / aq=1:1.00
Язык : English
Default : Да
Forced : Нет
Цветовой диапазон : Limited
Основные цвета : BT.709
Характеристики трансфера : BT.709
Коэффициенты матрицы : BT.709
ENCODING_INFO : H264 > X264 CBR 4500kbps HQ
Аудио
Идентификатор : 2
Формат : AC-3
Формат/Информация : Audio Coding 3
Коммерческое название : Dolby Digital
Идентификатор кодека : A_AC3
Продолжительность : 43 м. 24 с.
Вид битрейта : Постоянный
Битрейт : 256 Кбит/сек
Каналы : 2 канала
ChannelLayout : L R
Частота : 48,0 КГц
Частота кадров : 31,250 кадров/сек (1536 SPF)
Битовая глубина : 16 бит
Метод сжатия : С потерями
Размер потока : 79,5 Мбайт (6%)
Заголовок : DVO JimmyJ
Язык : Russian
ServiceKind/String : Complete Main
Default : Да
Forced : Нет
ENCODING_INFO : AC3 > AC3 CBR 256kbps
Скриншоты:
       

Clavik

Post 17-Aug-2019 22:58

[Quote]

Кровь и сокровища / Blood & Treasure (2019) WEB-DLRip [H.264/720p-LQ]
(сезон 1, серии 1-13 из 13) HDRezka
- Производство: США / CBS Television Studios, Lake June Productions, Propagate
Жанр: боевик, приключения
Режиссер: Гай Норман Би, Стив Бойум, Холли Дэйл
Актеры: Мэтт Барр, София Пернас, Одед Фер, Майкл Джеймс Шоу, Катя Винтер, Джеймс Кэллис, Алисия Коппола, Марк Джальярди, Джон Ларрокетт и др.
Описание:
Эксперт по античности Дэнни Макнамара и воровка произведений искусства Лекси объединяются, чтобы выследить и поймать террориста, который финансирует свою деятельность, продавая украденные исторические артефакты.

Дата мировой премьеры: 21 мая 2019
Продолжительность: ~00:42:00 серия
Качество видео: WEB-DLRip
Перевод: Многоголосый профессиональный (HDRezka Studio)
Видео: AVC/H.264, 1280х720, ~3615 Kbps
Аудио: AAC, 2 ch, 192 Kbps - русский, многоголосый закадровый
Аудио: AAC, 2 ch, 192 Kbps - английский

MediaInfo:

Общее
Уникальный идентификатор : 323805871281172265704439764976193620927 (0xF39ABE0BC182E82C60E68DEED14DCBBF)
Полное имя : F:\Раздача\Кровь и сокровища\Blood.And.Treasure.S01E01E02.The.Curse.Of.Cleopatra.720p.WEB-DLRip.HDRezka.mkv
Формат : Matroska
Версия формата : Version 4
Размер файла : 2,35 Гбайт
Продолжительность : 1 ч. 23 м.
Общий поток : 4000 Кбит/сек
Название фильма : Blood & Treasure. The Curse of Cleopatra. Parts 1 and 2.
Дата кодирования : UTC 2019-06-21 07:30:08
Программа кодирования : mkvmerge v34.0.0 ('Sight and Seen') 64-bit
Библиотека кодирования : libebml v1.3.7 + libmatroska v1.5.0
Обложка : Yes
Attachments : cover.jpg
Видео
Идентификатор : 1
Формат : AVC
Формат/Информация : Advanced Video Codec
Профиль формата : [url=mailto:[email protected]][email protected][/url]
Настройки формата : CABAC / 9 Ref Frames
Параметр CABAC формата : Да
Параметр RefFrames формата : 9 кадров
Идентификатор кодека : V_MPEG4/ISO/AVC
Продолжительность : 1 ч. 23 м.
Битрейт : 3614 Кбит/сек
Ширина : 1280 пикселей
Высота : 720 пикселей
Соотношение сторон : 16:9
Режим частоты кадров : Постоянный
Частота кадров : 24,000 кадра/сек
Цветовое пространство : YUV
Субдискретизация насыщенности : 4:2:0
Битовая глубина : 8 бит
Тип развёртки : Прогрессивная
Бит/(Пиксели*Кадры) : 0.163
Размер потока : 2,12 Гбайт (90%)
Библиотека кодирования : x264 core 157 r2969 d4099dd
Настройки программы : cabac=1 / ref=9 / deblock=1:-1:-1 / analyse=0x3:0x113 / me=umh / subme=9 / psy=1 / psy_rd=1.00:0.00 / mixed_ref=1 / me_range=24 / chroma_me=1 / trellis=2 / 8x8dct=1 / cqm=0 / deadzone=21,11 / fast_pskip=0 / chroma_qp_offset=-2 / threads=4 / lookahead_threads=4 / sliced_threads=1 / slices=4 / nr=0 / decimate=1 / interlaced=0 / bluray_compat=0 / constrained_intra=0 / bframes=9 / b_pyramid=2 / b_adapt=2 / b_bias=0 / direct=3 / weightb=1 / open_gop=0 / weightp=2 / keyint=240 / keyint_min=24 / scenecut=40 / intra_refresh=0 / rc_lookahead=0 / rc=crf / mbtree=0 / crf=18.0 / qcomp=0.70 / qpmin=0 / qpmax=69 / qpstep=4 / vbv_maxrate=62500 / vbv_bufsize=78125 / crf_max=0.0 / nal_hrd=none / filler=0 / ip_ratio=1.40 / pb_ratio=1.30 / aq=2:0.90
Default : Да
Forced : Нет
Цветовой диапазон : Limited
Основные цвета : BT.709
Характеристики трансфера : BT.709
Коэффициенты матрицы : BT.709
Аудио #1
Идентификатор : 2
Формат : AAC LC
Формат/Информация : Advanced Audio Codec Low Complexity
Идентификатор кодека : A_AAC-2
Продолжительность : 1 ч. 23 м.
Битрейт : 192 Кбит/сек
Каналы : 2 канала
ChannelLayout : L R
Частота : 48,0 КГц
Частота кадров : 46,875 кадров/сек (1024 SPF)
Метод сжатия : С потерями
Задержка видео : 145 мс.
Размер потока : 115 Мбайт (5%)
Заголовок : RUS - HDRezka
Язык : Russian
Default : Да
Forced : Нет
Аудио #2
Идентификатор : 3
Формат : AAC LC
Формат/Информация : Advanced Audio Codec Low Complexity
Идентификатор кодека : A_AAC-2
Продолжительность : 1 ч. 23 м.
Битрейт : 192 Кбит/сек
Каналы : 2 канала
ChannelLayout : L R
Частота : 48,0 КГц
Частота кадров : 46,875 кадров/сек (1024 SPF)
Метод сжатия : С потерями
Задержка видео : 9 мс.
Размер потока : 115 Мбайт (5%)
Заголовок : Original
Язык : English
Default : Нет
Forced : Нет

Дополнительная информация:

Огромная благодарность всему коллективу студии HDRezka за работу над данным сериалом без рекламы. Ребята, Так держать!
Скриншоты:
       

Clavik

Post 17-Aug-2019 22:54

[Quote]

Убийцы Ву / Wu Assassins (2019) WEB-DLRip (сезон 1, серии 1-10 из 10) VSI Moscow - Производство: США / Flame Ventures, Netflix, Nomadic Pictures
Жанр: боевик, фэнтези, криминал
Режиссер: Тоа Фрейзер, Стивен Фун, Майкл Нанкин
Актеры: Ико Уайс, Кэтрин Уинник, Байрон Манн, Ли Цзюнь Ли, Лоуренс Као, Жужу Чан, Льюис Тан, Селия Ау, Томми Флэнаган, Рареш ДиМофте
Описание:
Сан-Франциско. Кай Джин — избранный, который становится последним из легендарного клана ассасинов. Ему предстоит найти и научиться использовать силу древней триады, чтобы вернуть гармонию в местный Чайнатаун.

Дата мировой премьеры: 8 августа 2019
Продолжительность: ~00:50:00 серия
Качество видео: WEB-DLRip
Перевод: Дублированный - VSI Moscow-по заказу Netflix
Субтитры: русские (форсированные, полные), английские
Видео: Xvid, 704x352, ~1805 Kbps
Аудио #1: AC3, 6 ch, 384 Kbps - русский
Аудио #2: AC3, 6 ch, 384 Kbps - английский

MediaInfo:

Общее
Полное имя : G:\Wu Assassins (2019)\Wu.Assassins.s01e01.avi
Формат : AVI
Формат/Информация : Audio Video Interleave
Размер файла : 813 Мбайт
Продолжительность : 44 м. 7 с.
Общий поток : 2578 Кбит/сек
Программа кодирования : VirtualDubMod 1.5.10.2 (build 2540/release)
Библиотека кодирования : VirtualDubMod build 2540/release
Видео
Идентификатор : 0
Формат : MPEG-4 Visual
Профиль формата : Advanced [email protected]
Настройки формата : BVOP2 / Custom Matrix
Параметр BVOP формата : 2
Параметр QPel формата : Нет
Параметр GMC формата : Без точки перехода
Параметр матрицы формата : Выборочная
Идентификатор кодека : XVID
Идентификатор кодека/Подсказка : XviD
Продолжительность : 44 м. 7 с.
Битрейт : 1796 Кбит/сек
Ширина : 704 пикселя
Высота : 352 пикселя
Соотношение сторон : 2,000
Частота кадров : 23,976 (24000/1001) кадра/сек
Цветовое пространство : YUV
Субдискретизация насыщенности : 4:2:0
Битовая глубина : 8 бит
Тип развёртки : Прогрессивная
Метод сжатия : С потерями
Бит/(Пиксели*Кадры) : 0.302
Размер потока : 567 Мбайт (70%)
Библиотека кодирования : XviD 73
Аудио #1
Идентификатор : 1
Формат : AC-3
Формат/Информация : Audio Coding 3
Коммерческое название : Dolby Digital
Идентификатор кодека : 2000
Продолжительность : 44 м. 7 с.
Вид битрейта : Постоянный
Битрейт : 384 Кбит/сек
Каналы : 6 каналов
ChannelLayout : L R C LFE Ls Rs
Частота : 48,0 КГц
Частота кадров : 31,250 кадров/сек (1536 SPF)
Битовая глубина : 16 бит
Метод сжатия : С потерями
Размер потока : 121 Мбайт (15%)
Выравнивание : Разделение по промежуткам
Продолжительность промежутка : 42 мс. (1,00 видеокадр)
Время предзагрузки промежутка : 500 мс.
ServiceKind/String : Complete Main
Аудио #2
Идентификатор : 2
Формат : AC-3
Формат/Информация : Audio Coding 3
Коммерческое название : Dolby Digital
Идентификатор кодека : 2000
Продолжительность : 44 м. 7 с.
Вид битрейта : Постоянный
Битрейт : 384 Кбит/сек
Каналы : 6 каналов
ChannelLayout : L R C LFE Ls Rs
Частота : 48,0 КГц
Частота кадров : 31,250 кадров/сек (1536 SPF)
Битовая глубина : 16 бит
Метод сжатия : С потерями
Размер потока : 121 Мбайт (15%)
Выравнивание : Разделение по промежуткам
Продолжительность промежутка : 42 мс. (1,00 видеокадр)
Время предзагрузки промежутка : 500 мс.
ServiceKind/String : Complete Main

Список серий:

01. Drunken Watermelon
02. Misspent Youth
03. Fire Chicken
04. A Twisting Snake
05. Codladh Sámh
06. Gu Assassins
07. Legacy
08. Ladies' Night
09. Paths Pt. 1
10. Paths Pt. 2
Скриншоты:
       

Clavik

Post 08-Aug-2019 12:45

[Quote]

Шерлок / Sherlock (2010-2017) BDRip (сезон 1-4, серии 1-13 из 13) - Производство: Великобритания, США / Hartswood Films, BBC Wales, Masterpiece Theatre
Жанр: триллер, драма, криминал, детектив
Режиссер: Пол МакГиган, Ник Харран, Коки Гидройч
Актеры: Бенедикт Камбербэтч, Мартин Фриман, Уна Стаббс, Эндрю Скотт, Лара Пулвер, Лу Брили, Руперт Грейвз, Ларс Миккельсен, Марк Гатисс, Винетт Робинсон, Джонатан Арис, Зои Телфорд, Дэвид Неллист, Филип Дэвис, Шиван Хьюлетт, Уильям Скотт-Мэссон
Описание:
События разворачиваются в наши дни. Он прошел Афганистан, остался инвалидом. По возвращении в родные края встречается с загадочным, но своеобразным гениальным человеком. Тот в поиске соседа по квартире. Лондон, 2010 год. Происходят необъяснимые убийства. Скотланд-Ярд без понятия, за что хвататься. Существует лишь один человек, который в силах разрешить проблемы и найти ответы на сложные вопросы.

Возраст: 12+ (зрителям, достигшим 12 лет)
Продолжительность: ~ 01:28:00
Качество видео: BDRip
Перевод: Дублированный (Первый канал)
Субтитры: Русские (sms'ки, надписи), английские (внешние)
Видео: Xvid, 720x400, ~1810 kbps
Аудио: AC3, 2 ch, 192 kbps, Русский (DUB)
Аудио: AC3, 6 ch, 448 kbps, Английский

MediaInfo:

Общее
Полное имя : D:\FILMS\Sherlock\Season 1\Sherlock.s01e01.avi
Формат : AVI
Формат/Информация : Audio Video Interleave
Размер файла : 1,46 Гбайт
Продолжительность : 1 ч. 28 м.
Общий поток : 2377 Кбит/сек
Название фильма : Sherlock.s01e01.Skreech
Программа кодирования : VirtualDubModRus 1.5.10.1 (build 2439/release)
Видео
Идентификатор : 0
Формат : MPEG-4 Visual
Профиль формата : Advanced [email protected]
Настройки формата : BVOP3
Параметр BVOP формата : 3
Параметр QPel формата : Нет
Параметр GMC формата : Без точки перехода
Параметр матрицы формата : Default (H.263)
Идентификатор кодека : XVID
Идентификатор кодека/Подсказка : XviD
Продолжительность : 1 ч. 28 м.
Битрейт : 1723 Кбит/сек
Ширина : 720 пикселей
Высота : 400 пикселей
Соотношение сторон : 16:9
Частота кадров : 25,000 кадров/сек
Цветовое пространство : YUV
Субдискретизация насыщенности : 4:2:0
Битовая глубина : 8 бит
Тип развёртки : Прогрессивная
Метод сжатия : С потерями
Бит/(Пиксели*Кадры) : 0.239
Размер потока : 1,06 Гбайт (72%)
Библиотека кодирования : XviD 1.2.0.dev47 (UTC 2006-11-01)
Аудио #1
Идентификатор : 1
Формат : AC-3
Формат/Информация : Audio Coding 3
Коммерческое название : Dolby Digital
Идентификатор кодека : 2000
Продолжительность : 1 ч. 28 м.
Вид битрейта : Постоянный
Битрейт : 192 Кбит/сек
Каналы : 2 канала
ChannelLayout : L R
Частота : 48,0 КГц
Частота кадров : 31,250 кадров/сек (1536 SPF)
Битовая глубина : 16 бит
Метод сжатия : С потерями
Размер потока : 121 Мбайт (8%)
Выравнивание : Разделение по промежуткам
Продолжительность промежутка : 40 мс. (1,00 видеокадр)
Время предзагрузки промежутка : 500 мс.
ServiceKind/String : Complete Main
Аудио #2
Идентификатор : 2
Формат : AC-3
Формат/Информация : Audio Coding 3
Коммерческое название : Dolby Digital
Идентификатор кодека : 2000
Продолжительность : 1 ч. 28 м.
Вид битрейта : Постоянный
Битрейт : 448 Кбит/сек
Каналы : 6 каналов
ChannelLayout : L R C LFE Ls Rs
Частота : 48,0 КГц
Частота кадров : 31,250 кадров/сек (1536 SPF)
Битовая глубина : 16 бит
Метод сжатия : С потерями
Размер потока : 282 Мбайт (19%)
Выравнивание : Разделение по промежуткам
Продолжительность промежутка : 40 мс. (1,00 видеокадр)
Время предзагрузки промежутка : 500 мс.
ServiceKind/String : Complete Main

Дополнительная информация:

Список серий:
1 Сезон:
01. Этюд в розовых тонах / A Study in Pink
02. Слепой банкир / The Blind Banker
03. Большая игра / The Great Game
2 Сезон:
01. Скандал в Высшем свете / A Scandal in Belgravia
02. Собаки Баскервиля / The Hounds of Baskerville
03. Рейхенбахский Водопад / The Reichenbach Fall
3 Сезон:
01. Пустой гроб / The Empty Hearse
02. Знак трех / The Sign of Three
03. Последняя клятва / His Last Vow
4 Сезон:
00. Безобразная невеста / The Abominable Bride
01. Шесть Тэтчер / The Six Thatchers
02. Ложный детектив / The Lying Detective
03. Финальная проблема / The Final Problem
Скриншоты:
       

}{@R0N

Post 20-May-2019 12:02

[Quote]

Игра престолов / Game of Thrones- Производство: США, Великобритания / Home Box Office (HBO), Television 360, Grok! Studio
Жанр: фэнтези, боевик, драма, мелодрама, приключения
Режиссер: Дэвид Наттер, Алан Тейлор, Алекс Грейвз
Актеры: Питер Динклэйдж, Лина ХидиЮ Эмилия Кларк, Кит Харингтон, Софи Тернер, Мэйси Уильямс, Николай Костер-Вальдау, Иэн Глен, Алфи Аллен, Джон Брэдли и др.
Описание:
«Игра престолов» новый сериал HBO, основанный на бестселлерах Джорджа Р.Р. Мартина. В мире, где лето и зимы длятся десятилетиями, на кону корона Вестероса. Предательство, похоть, интриги и сверхъестественные силы сотрясают все четыре стороны Королевства — от плетущего интриги юга, диких восточных земель, до замерзшего севера и древней Стены, что защищает королевство от тьмы за нею. Короли и королевы, рыцари и мятежники, лжецы и благородные люди борются за власть в кровавом сражении за Железный Трон.

Возраст: 18+ (зрителям, достигшим 18 лет)
Продолжительность: ~00:59:00 серия
Качество видео: WEB-DL Сэмпл
Перевод: Многоголосый закадровый, профессиональный - студия Новамедиа по заказу Amedia
Субтитры: русские, английские
Видео: AVC/H.264, 1920x1080 (16:9), ~6796 Kbps
Аудио 1: AC3, 2 ch, 192 kbps - русский, многоголосый закадровый
Аудио 2: E-AC3, 6 ch, 640 kbps - английский

MediaInfo

Общее
Уникальный идентификатор : 303886304363025537646059608091705499370 (0xE49E5F924E2B454E7C530AF070D05EEA)
Полное имя : D:\Game of Thrones - Игра престолов. Сезон 8. Amedia. 1080p\Game.of.Thrones.s08e02.WEB-DL.1080p.Amedia.mkv
Формат : Matroska
Версия формата : Version 4
Размер файла : 3,12 Гбайт
Продолжительность : 59 м. 11 с.
Общий поток : 7554 Кбит/сек
Дата выпуска : UTC 2019-04-21 21:00:00
Дата кодирования : UTC 2019-04-22 09:15:10
Программа кодирования : mkvmerge v32.0.0 ('Astral Progressions') 32-bit
Библиотека кодирования : libebml v1.3.7 + libmatroska v1.5.0
Видео
Идентификатор : 1
Формат : AVC
Формат/Информация : Advanced Video Codec
Профиль формата : [email protected]
Настройки формата : CABAC / 4 Ref Frames
Параметр CABAC формата : Да
Параметр RefFrames формата : 4 кадра
Идентификатор кодека : V_MPEG4/ISO/AVC
Продолжительность : 59 м. 11 с.
Вид битрейта : Постоянный
Битрейт : 6716 Кбит/сек
Номинальный битрейт : 10000 Кбит/сек
Ширина : 1920 пикселей
Высота : 1080 пикселей
Соотношение сторон : 16:9
Режим частоты кадров : Постоянный
Частота кадров : 23,976 (24000/1001) кадра/сек
Цветовое пространство : YUV
Субдискретизация насыщенности : 4:2:0
Битовая глубина : 8 бит
Тип развёртки : Прогрессивная
Бит/(Пиксели*Кадры) : 0.135
Размер потока : 2,78 Гбайт (89%)
Язык : English
Default : Да
Forced : Нет
Цветовой диапазон : Limited
Основные цвета : BT.709
Характеристики трансфера : BT.709
Коэффициенты матрицы : BT.709
Аудио #1
Идентификатор : 2
Формат : AC-3
Формат/Информация : Audio Coding 3
Коммерческое название : Dolby Digital
Идентификатор кодека : A_AC3
Продолжительность : 59 м. 11 с.
Вид битрейта : Постоянный
Битрейт : 192 Кбит/сек
Каналы : 2 канала
Channel layout : L R
Частота : 48,0 КГц
Частота кадров : 31,250 кадров/сек (1536 SPF)
Битовая глубина : 16 бит
Метод сжатия : С потерями
Размер потока : 81,3 Мбайт (3%)
Заголовок : AC3 2.0 @ 192 kbps - MVO, Novamedia
Язык : Russian
ServiceKind/String : Complete Main
Default : Да
Forced : Нет
Аудио #2
Идентификатор : 3
Формат : E-AC-3
Формат/Информация : Enhanced AC-3
Коммерческое название : Dolby Digital Plus
Идентификатор кодека : A_EAC3
Продолжительность : 59 м. 11 с.
Вид битрейта : Постоянный
Битрейт : 640 Кбит/сек
Каналы : 6 каналов
Channel layout : L R C LFE Ls Rs
Частота : 48,0 КГц
Частота кадров : 31,250 кадров/сек (1536 SPF)
Метод сжатия : С потерями
Задержка видео : 24 мс.
Размер потока : 271 Мбайт (8%)
Заголовок : E-AC3 5.1 @ 640 kbps - Original
Язык : English
ServiceKind/String : Complete Main
Default : Нет
Forced : Нет
Текст #1
Идентификатор : 4
Формат : UTF-8
Идентификатор кодека : S_TEXT/UTF8
Идентификатор кодека/Информация : UTF-8 Plain Text
Продолжительность : 58 м. 21 с.
Битрейт : 2 бит/сек
ElementCount : 23
Размер потока : 1,10 Кбайт (0%)
Заголовок : Forced
Язык : Russian
Default : Да
Forced : Да
Текст #2
Идентификатор : 5
Формат : UTF-8
Идентификатор кодека : S_TEXT/UTF8
Идентификатор кодека/Информация : UTF-8 Plain Text
Продолжительность : 58 м. 28 с.
Битрейт : 70 бит/сек
ElementCount : 679
Размер потока : 30,3 Кбайт (0%)
Заголовок : Full
Язык : Russian
Default : Нет
Forced : Нет
Текст #3
Идентификатор : 6
Формат : UTF-8
Идентификатор кодека : S_TEXT/UTF8
Идентификатор кодека/Информация : UTF-8 Plain Text
Продолжительность : 59 м. 2 с.
Битрейт : 50 бит/сек
ElementCount : 777
Размер потока : 21,7 Кбайт (0%)
Заголовок : Full
Язык : English
Default : Нет
Forced : Нет
Текст #4
Идентификатор : 7
Формат : UTF-8
Идентификатор кодека : S_TEXT/UTF8
Идентификатор кодека/Информация : UTF-8 Plain Text
Продолжительность : 59 м. 2 с.
Битрейт : 55 бит/сек
ElementCount : 864
Размер потока : 23,8 Кбайт (0%)
Заголовок : Full SDH
Язык : English
Default : Нет
Forced : Нет
Меню
00:00:00.000 : en:Previously On
00:00:42.928 : en:Opening Credits
00:02:36.928 : en:The fate of a Lannister
00:08:08.928 : en:The faces of death
00:10:51.928 : en:Jaime makes a round of apologies
00:17:10.928 : en:What about the North
00:23:40.928 : en:The North plans for battle
00:31:06.928 : en:Night's watch at Winterfell
00:34:51.928 : en:Sharing one last drink
00:38:50.928 : en:Seize the night
00:44:36.928 : en:A knight of the Seven Kingdoms
00:48:46.928 : en:Samwell passes on a gift to Jorah
00:51:04.928 : en:How about a song
00:52:53.928 : en:Jon confides in Danny
00:57:17.928 : en:End Credits
00:58:38.928 : en:Next On
00:59:10.928 : en:Inside the Episode

Список серий

1. Winterfell | Винтерфелл
2. A Knight of the Seven Kingdoms | Рыцарь семи королевств
3. The Long Night | Долгая Ночь
4. The Last of the Starks | Последние из Старков
5. The Bells | Колокола
6. The Iron Throne | Железный трон
Скриншоты:
       

Theseus

Post 17-Oct-2018 14:07

[Quote]

-Теория большого взрыва / The Big Bang Theory- Год выпуска: 2018
Страна: США
Жанр: комедия
Продолжительность: ~00:22:00 одна серия
Перевод: Профессиональный (одноголосый) |перевод Кураж-Бамбей|
Субтитры: Отсутствуют-Режиссер: Марк Сендроуски, Энтони Джозеф Рич, Питер Чакос-В ролях: Джонни Галэки, Джим Парсонс, Кейли Куоко, Саймон Хелберг, Кунал Найяр, Майем Биалик, Мелисса Рауш, Кэрол Энн Сьюзи, Кевин Суссман, Арти Манн, Брайан Джордж, Элис Эмтер, Сара Гилберт, Джон Росс Боуи, Уил Уитон, Лори Меткаф, Верни Уотсон-Джонсон, Кристин Барански, Джошуа Малина, Кейси Сэндер, Кэти Леклерк-Описание: Великолепный комедийный сериал американского производства о двух ученых (Леонард и Шелдон) и красивой блондинке Пенни, которые живут на одной площадке. Парни, истинные ботаники с докторской степенью, вообще не приспособлены к реальной жизни, особенно к общению с реальными женщинами. Герои сериала Теория большого взрыва гениальные ученые, живущие в своем "мире". Леонард влюбляется в симпатичную соседку, и всячески старается ее завоевать. А Пенни, которая не представляет себе длительные отношения с ним, старается не обидеть своим отказом. Шелдон рассматривает всех окружающих людей как счастливцев, которым повезло жить в одно с ним время и иногда оказывать ему услуги.
Не менее колоритны и их друзья – Воловиц, знающий множество словечек на десятках языках, даже мертвых и выдуманных, обожающий яркую одежду и необычные ремни, и Раджеш, способный разговаривать с женщинами только под воздействием алкоголя.
Тонкий юмор, добрые шутки, пикантные и непревзойденные ситуации, немного научных фактов в тему, и все это в безупречном переводе и смешной озвучке студии «Кураж-Бамбей». Теория большого взрыва захватывает своих поклонников с первого кадра, а оригинальный и веселый бамбейский перевод не оставит равнодушным никого!- -Качество: WEB-DLRip
Формат: AVI
Видео кодек: XviD
Аудио кодек: MP3
Видео: MPEG4, XviD, 720x400 (16:9), 23.976 fps, 1 493 Kbps
Аудио: MP3, 48.0 KHz, 2 ch, 128 Kbps-

Внимание! Раздача ведётся путём добавления новых серий !

Когда раздача ведётся путём добавления новых серий, при каждом обновлении раздачи создаётся новый торрент.
Чтобы начать докачку новых файлов, пользователям необходимо сделать следующее:
1. Остановить в клиенте нужный торрент
2. Удалить старый торрент у себя из клиента (ранее скачанные файлы удалять не надо!) ,
3. Скачать новый торрент и запустить его у себя в клиенте; при этом в качестве места размещения файлов торрента необходимо указать путь в папку, содержащую ранее скачаные файлы предыдущей версии раздачи.
По возможности, желательно не удалять ранее скачанные файлы как можно дольше, чтобы релизёр не столько продолжал раздавать старые файлы, сколько смог сконцентрироваться на раздаче новых
-Скриншоты
    
- -

Theseus

Post 17-Oct-2018 14:06

[Quote]

-Теория большого взрыва / The Big Bang Theory- Год выпуска: 2018
Страна: США
Жанр: комедия
Продолжительность: ~00:22:00 одна серия
Перевод: Профессиональный (одноголосый) |перевод Кураж-Бамбей|
Режиссер: Марк Сендроуски, Энтони Джозеф Рич, Питер Чакос-В ролях: Джонни Галэки, Джим Парсонс, Кейли Куоко, Саймон Хелберг, Кунал Найяр, Майем Биалик, Мелисса Рауш, Кэрол Энн Сьюзи, Кевин Суссман, Арти Манн, Брайан Джордж, Элис Эмтер, Сара Гилберт, Джон Росс Боуи, Уил Уитон, Лори Меткаф, Верни Уотсон-Джонсон, Кристин Барански, Джошуа Малина, Кейси Сэндер, Кэти Леклерк-Описание: Великолепный комедийный сериал американского производства о двух ученых (Леонард и Шелдон) и красивой блондинке Пенни, которые живут на одной площадке. Парни, истинные ботаники с докторской степенью, вообще не приспособлены к реальной жизни, особенно к общению с реальными женщинами. Герои сериала Теория большого взрыва гениальные ученые, живущие в своем "мире". Леонард влюбляется в симпатичную соседку, и всячески старается ее завоевать. А Пенни, которая не представляет себе длительные отношения с ним, старается не обидеть своим отказом. Шелдон рассматривает всех окружающих людей как счастливцев, которым повезло жить в одно с ним время и иногда оказывать ему услуги.
Не менее колоритны и их друзья – Воловиц, знающий множество словечек на десятках языках, даже мертвых и выдуманных, обожающий яркую одежду и необычные ремни, и Раджеш, способный разговаривать с женщинами только под воздействием алкоголя.
Тонкий юмор, добрые шутки, пикантные и непревзойденные ситуации, немного научных фактов в тему, и все это в безупречном переводе и смешной озвучке студии «Кураж-Бамбей». Теория большого взрыва захватывает своих поклонников с первого кадра, а оригинальный и веселый бамбейский перевод не оставит равнодушным никого!- -Качество: WEB-DL 720p
Формат: MKV
Видеокодек: x.264
Аудиокодек: AC3
Видео: AVC, 1280x718 (16:9), 25.000 fps, 4 158 Kbps
Аудио 1: AC-3, 48.0 KHz, 6 ch, 384 Kbps (Russian)
Аудио 2: AC-3, 48.0 KHz, 6 ch, 384 Kbps (English)
Субтитры: English-

Внимание! Раздача ведётся путём добавления новых серий !

Когда раздача ведётся путём добавления новых серий, при каждом обновлении раздачи создаётся новый торрент.
Чтобы начать докачку новых файлов, пользователям необходимо сделать следующее:
1. Остановить в клиенте нужный торрент
2. Удалить старый торрент у себя из клиента (ранее скачанные файлы удалять не надо!) ,
3. Скачать новый торрент и запустить его у себя в клиенте; при этом в качестве места размещения файлов торрента необходимо указать путь в папку, содержащую ранее скачаные файлы предыдущей версии раздачи.
По возможности, желательно не удалять ранее скачанные файлы как можно дольше, чтобы релизёр не столько продолжал раздавать старые файлы, сколько смог сконцентрироваться на раздаче новых
-Скриншоты
    
- -

Theseus

Post 17-Oct-2018 14:05

[Quote]

-Теория большого взрыва / The Big Bang Theory- Год выпуска: 2018-2019
Страна: США
Жанр: комедия
Продолжительность: ~00:22:00 одна серия
Перевод: Профессиональный (одноголосый) |перевод Кураж-Бамбей|
Режиссер: Марк Сендроуски, Энтони Джозеф Рич, Питер Чакос-В ролях: Джонни Галэки, Джим Парсонс, Кейли Куоко, Саймон Хелберг, Кунал Найяр, Майем Биалик, Мелисса Рауш, Кэрол Энн Сьюзи, Кевин Суссман, Арти Манн, Брайан Джордж, Элис Эмтер, Сара Гилберт, Джон Росс Боуи, Уил Уитон, Лори Меткаф, Верни Уотсон-Джонсон, Кристин Барански, Джошуа Малина, Кейси Сэндер, Кэти Леклерк-Описание: Великолепный комедийный сериал американского производства о двух ученых (Леонард и Шелдон) и красивой блондинке Пенни, которые живут на одной площадке. Парни, истинные ботаники с докторской степенью, вообще не приспособлены к реальной жизни, особенно к общению с реальными женщинами. Герои сериала Теория большого взрыва гениальные ученые, живущие в своем "мире". Леонард влюбляется в симпатичную соседку, и всячески старается ее завоевать. А Пенни, которая не представляет себе длительные отношения с ним, старается не обидеть своим отказом. Шелдон рассматривает всех окружающих людей как счастливцев, которым повезло жить в одно с ним время и иногда оказывать ему услуги.
Не менее колоритны и их друзья – Воловиц, знающий множество словечек на десятках языках, даже мертвых и выдуманных, обожающий яркую одежду и необычные ремни, и Раджеш, способный разговаривать с женщинами только под воздействием алкоголя.
Тонкий юмор, добрые шутки, пикантные и непревзойденные ситуации, немного научных фактов в тему, и все это в безупречном переводе и смешной озвучке студии «Кураж-Бамбей». Теория большого взрыва захватывает своих поклонников с первого кадра, а оригинальный и веселый бамбейский перевод не оставит равнодушным никого!- -Качество: WEB-DL 1080p
Формат: MKV
Видеокодек: x.264
Аудиокодек: AC3
Видео: AVC, 1912×1072 (16:9), 25.000 fps, 5 200 Kbps
Аудио 1: AC-3, 48.0 KHz, 6 ch, 384 Kbps (Russian)
Аудио 2: AC-3, 48.0 KHz, 6 ch, 384 Kbps (English)
Субтитры: English-

Внимание! Раздача ведётся путём добавления новых серий !

Когда раздача ведётся путём добавления новых серий, при каждом обновлении раздачи создаётся новый торрент.
Чтобы начать докачку новых файлов, пользователям необходимо сделать следующее:
1. Остановить в клиенте нужный торрент
2. Удалить старый торрент у себя из клиента (ранее скачанные файлы удалять не надо!) ,
3. Скачать новый торрент и запустить его у себя в клиенте; при этом в качестве места размещения файлов торрента необходимо указать путь в папку, содержащую ранее скачаные файлы предыдущей версии раздачи.
По возможности, желательно не удалять ранее скачанные файлы как можно дольше, чтобы релизёр не столько продолжал раздавать старые файлы, сколько смог сконцентрироваться на раздаче новых
-Скриншоты
    
- -

Theseus

Post 08-Feb-2018 20:32

[Quote]

Детство Шелдона (Молодой Шелдон) / Young Sheldon Год выхода: 2017/18
Страна: США
Жанр: комедия
Продолжительность серии: ~00:20:00
Перевод: Профессиональный (одноголосый) |Кураж-Бамбей|
Субтитры: English-Режиссер: Майкл Цинберг, Марк Сендроуски, Ховард Дойч-В ролях: Марсия Энн Бёррс, Док Фэрроу, Рекс Линн, Уайатт МакКлюр, Брайан Степанек, Мелисса Тэнг, Иэн Армитедж, Лэнс Барбер, Монтана Джордан, Джим Парсонс-О фильме: Сериал является приквелом к «Теории большого взрыва» и в нем рассказывается о Шелдоне Купере, когда ему было 9 лет и он ходил в школу в Восточном Техасе. Джим Парсонс, игравший Шелдона в «Теории большого взрыва», выступит в роли рассказчика, а также он один из исполнительных продюсеров.- -Качество: WEB-DL 1080p
Формат: MKV
Видео кодек: x.264
Аудио кодек: AC3
Видео: AVC, 1920x1080 (16:9), 23.976 fps, 10,4 Mbps (0.209 bit/pixel)
Аудио #1: AC-3, 48.0 KHz, 2 ch, 192 Kbps, CBR | RUS
Аудио #2: AC-3, 48.0 KHz, 6 ch, 640 Kbps, CBR | ENG-Без рекламы !-

MediaInfo

General
Unique ID : 202960134926308810550226732572335942443 (0x98B0B33C301D44B0BD01B9112C302B2B)
Complete name : Young.Sheldon.S01E02.Rockets.Communists.and.the.Dewey.Decimal.System.1080p.AMZN.WEB-DL.H.264-Kuraj-Bambey.mkv
Format : Matroska
Format version : Version 4 / Version 2
File size : 1.43 GiB
Duration : 18 min 13 s
Overall bit rate mode : Variable
Overall bit rate : 11.2 Mb/s
Encoded date : UTC 2017-11-14 10:28:18
Writing application : mkvmerge v17.0.0 ('Be Ur Friend') 64-bit
Writing library : libebml v1.3.5 + libmatroska v1.4.8
Cover : Yes
Attachments : cover.sheldon.jpg
Video
ID : 1
Format : AVC
Format/Info : Advanced Video Codec
Format profile : [email protected]
Format settings : CABAC / 4 Ref Frames
Format settings, CABAC : Yes
Format settings, RefFrames : 4 frames
Codec ID : V_MPEG4/ISO/AVC
Duration : 18 min 13 s
Bit rate mode : Variable
Bit rate : 10.4 Mb/s
Maximum bit rate : 15.0 Mb/s
Width : 1 920 pixels
Height : 1 080 pixels
Display aspect ratio : 16:9
Frame rate mode : Constant
Frame rate : 23.976 (24000/1001) FPS
Color space : YUV
Chroma subsampling : 4:2:0
Bit depth : 8 bits
Scan type : Progressive
Bits/(Pixel*Frame) : 0.209
Stream size : 1.32 GiB (93%)
Language : English
Default : Yes
Forced : No
Color range : Limited
Color primaries : BT.709
Transfer characteristics : BT.709
Matrix coefficients : BT.709
Audio #1
ID : 2
Format : AC-3
Format/Info : Audio Coding 3
Codec ID : A_AC3
Duration : 18 min 13 s
Bit rate mode : Constant
Bit rate : 192 kb/s
Channel(s) : 2 channels
Channel positions : Front: L R
Sampling rate : 48.0 kHz
Frame rate : 31.250 FPS (1536 SPF)
Bit depth : 16 bits
Compression mode : Lossy
Stream size : 25.0 MiB (2%)
Language : Russian
Service kind : Complete Main
Default : Yes
Forced : No
Audio #2
ID : 3
Format : E-AC-3
Format/Info : Enhanced Audio Coding 3
Codec ID : A_EAC3
Duration : 18 min 13 s
Bit rate mode : Constant
Bit rate : 640 kb/s
Channel(s) : 6 channels
Channel positions : Front: L C R, Side: L R, LFE
Sampling rate : 48.0 kHz
Frame rate : 187.500 FPS (256 SPF)
Compression mode : Lossy
Stream size : 83.4 MiB (6%)
Language : English
Service kind : Complete Main
Default : No
Forced : No
Text
ID : 4
Format : UTF-8
Codec ID : S_TEXT/UTF8
Codec ID/Info : UTF-8 Plain Text
Duration : 17 min 40 s
Bit rate : 101 b/s
Count of elements : 453
Stream size : 13.2 KiB (0%)
Language : English
Default : No
Forced : No
-    - -

Theseus

Post 08-Feb-2018 20:30

[Quote]

Детство Шелдона (Молодой Шелдон) / Young Sheldon Год выхода: 2017/18
Страна: США
Жанр: комедия
Продолжительность серии: ~00:20:00
Перевод: Профессиональный (одноголосый) |Кураж-Бамбей|
Субтитры: Отсутствуют-Режиссер: Майкл Цинберг, Марк Сендроуски, Ховард Дойч-В ролях: Марсия Энн Бёррс, Док Фэрроу, Рекс Линн, Уайатт МакКлюр, Брайан Степанек, Мелисса Тэнг, Иэн Армитедж, Лэнс Барбер, Монтана Джордан, Джим Парсонс-О фильме: Сериал является приквелом к «Теории большого взрыва» и в нем рассказывается о Шелдоне Купере, когда ему было 9 лет и он ходил в школу в Восточном Техасе. Джим Парсонс, игравший Шелдона в «Теории большого взрыва», выступит в роли рассказчика, а также он один из исполнительных продюсеров.- -Качество: WEB-DLRip
Формат: AVI
Видео кодек: XviD
Аудио кодек: AC3
Видео: MPEG4, XviD, 720x400 (16:9), 23.976 fps, 1 572 Kbps (0.228 bit/pixel)
Аудио #1: AC-3, 48.0 KHz, 2 ch, 192 Kbps, CBR | RUS
Аудио #2: AC-3, 48.0 KHz, 2 ch, 192 Kbps, CBR | ENG-Без рекламы !-

MediaInfo

Общее
Полное имя : Young.Sheldon.S01E07.A.Brisket.Voodoo.and.Cannonball.Run.AMZN.WEB-DLRip-Kuraj-Bambey.avi
Формат : AVI
Формат/Информация : Audio Video Interleave
Размер файла : 268 Мбайт
Продолжительность : 19 м. 2 с.
Общий поток : 1970 Кбит/сек
Программа кодирования : VirtualDubMod 1.5.10.2 (build 2540/release)
Библиотека кодирования : VirtualDubMod build 2540/release
Видео
Идентификатор : 0
Формат : MPEG-4 Visual
Профиль формата : Advanced [email protected]
Параметр BVOP формата : Да
Параметр QPel формата : Нет
Параметр GMC формата : Без точки перехода
Параметр матрицы формата : Default (H.263)
Идентификатор кодека : XVID
Идентификатор кодека/Подсказка : XviD
Продолжительность : 19 м. 2 с.
Битрейт : 1572 Кбит/сек
Ширина : 720 пикселей
Высота : 400 пикселей
Соотношение сторон : 16:9
Частота кадров : 23,976 (24000/1001) кадра/сек
Цветовое пространство : YUV
Субдискретизация насыщенности : 4:2:0
Битовая глубина : 8 бит
Тип развёртки : Прогрессивная
Метод сжатия : С потерями
Бит/(Пиксели*Кадры) : 0.228
Размер потока : 214 Мбайт (80%)
Библиотека кодирования : XviD 73
Аудио #1
Идентификатор : 1
Формат : AC-3
Формат/Информация : Audio Coding 3
Параметр Endianness формата : Big
Идентификатор кодека : 2000
Продолжительность : 19 м. 2 с.
Вид битрейта : Постоянный
Битрейт : 192 Кбит/сек
Каналы : 2 канала
Расположение каналов : Front: L R
Частота : 48,0 КГц
Частота кадров : 31,250 кадров/сек (1536 spf)
Битовая глубина : 16 бит
Метод сжатия : С потерями
Размер потока : 26,1 Мбайт (10%)
Выравнивание : Соединение по промежуткам
Продолжительность промежутка : 42 мс. (1,00 видеокадр)
Время предзагрузки промежутка : 512 мс.
ServiceKind/String : Complete Main
Аудио #2
Идентификатор : 2
Формат : AC-3
Формат/Информация : Audio Coding 3
Параметр Endianness формата : Big
Идентификатор кодека : 2000
Продолжительность : 19 м. 2 с.
Вид битрейта : Постоянный
Битрейт : 192 Кбит/сек
Каналы : 2 канала
Расположение каналов : Front: L R
Частота : 48,0 КГц
Частота кадров : 31,250 кадров/сек (1536 spf)
Битовая глубина : 16 бит
Метод сжатия : С потерями
Размер потока : 26,1 Мбайт (10%)
Выравнивание : Соединение по промежуткам
Продолжительность промежутка : 42 мс. (1,00 видеокадр)
Время предзагрузки промежутка : 512 мс.
ServiceKind/String : Complete Main
-     - -

}{@R0N

Post 16-Jan-2018 19:13

[Quote]

Электрические сны Филипа К. Дика
Philip K. Dick's Electric Dream
- Производство: США, Великобритания / Channel 4, Sony Pictures Television
Жанр: фантастика
Режиссер: Дэвид Фарр, Франческа Грегорини, Том Харпер
Актеры: Брайан Крэнстон, Стив Бушеми, Вера Фармига, Мирей Инос, Грег Киннир, Тимоти Сполл, Бенедикт Вонг, Холлидей Грейнджер, Ричард Мэдден, Лара Пулвер и др.
Описание:
Сериал основан на произведениях культового фантаста Филипа К. Дика. Каждая серия посвящена одному рассказу писателя: «Автофабрика», «Унылый незнакомец», «Проездной билет» и др.

Дата мировой премьеры: 17 сентября 2017
Релиз от: casstudio
Продолжительность: ~00:52:00 серия
Качество видео: WEB-DL Сэмпл
Перевод: Многоголосый закадровый, профессиональный - Amedia
Субтитры: русские, английские (полные, SDH)
Видео: AVC/H.264, 1920x1080 (16:9), ~5940 Kbps
Аудио #1: EAC3, 6 ch, 640 Kbps — русский, многоголосый закадровый
Аудио #2: EAC3, 6 ch, 640 Kbps — английский

Mediainfo:

Общее
Уникальный идентификатор : 185411734096281560437937828020810033090 (0x8B7D00465D5944AE8E4C200FAD7E27C2)
Полное имя : E:\Philip.K.Dicks.Electric.Dreams.S01.1080p.AMZN.WEB-DL.Rus.Eng_CasStudio\Philip.K.Dicks.Electric.Dreams.S01E07.Kill.All.Others.1080p.AMZN.WEB-DL.Rus.Eng_CasStudio.mkv
Формат : Matroska
Версия формата : Version 4 / Version 2
Размер файла : 2,48 Гбайт
Продолжительность : 48 м. 9 с.
Режим общего битрейта : Переменный
Общий поток : 7366 Кбит/сек
Название фильма : Philip K. Dick's Electric Dreams S01E07 - ReJliz CasStudio by BenderBEST
Дата кодирования : UTC 2018-01-14 13:45:10
Программа кодирования : mkvmerge v6.9.1 ('Blue Panther') 32bit built on Apr 18 2014 18:15:44
Библиотека кодирования : libebml v1.3.0 + libmatroska v1.4.1
Видео
Идентификатор : 1
Формат : AVC
Формат/Информация : Advanced Video Codec
Профиль формата : [email protected]
Настройки формата : CABAC / 4 Ref Frames
Параметр CABAC формата : Да
Параметр RefFrames формата : 4 кадра
Идентификатор кодека : V_MPEG4/ISO/AVC
Продолжительность : 48 м. 9 с.
Вид битрейта : Переменный
Битрейт : 5940 Кбит/сек
Максимальный битрейт : 15,0 Мбит/сек
Ширина : 1920 пикселей
Высота : 1080 пикселей
Соотношение сторон : 16:9
Режим частоты кадров : Постоянный
Частота кадров : 23,976 (24000/1001) кадра/сек
Цветовое пространство : YUV
Субдискретизация насыщенности : 4:2:0
Битовая глубина : 8 бит
Тип развёртки : Прогрессивная
Бит/(Пиксели*Кадры) : 0.119
Размер потока : 2,00 Гбайт (81%)
Язык : English
Default : Да
Forced : Да
Цветовой диапазон : Limited
Основные цвета : BT.709
Характеристики трансфера : BT.709
Коэффициенты матрицы : BT.709
Аудио #1
Идентификатор : 2
Формат : E-AC-3
Формат/Информация : Enhanced Audio Coding 3
Параметр Endianness формата : Big
Идентификатор кодека : A_EAC3
Продолжительность : 48 м. 9 с.
Вид битрейта : Постоянный
Битрейт : 640 Кбит/сек
Каналы : 6 каналов
Расположение каналов : Front: L C R, Side: L R, LFE
Частота : 48,0 КГц
Частота кадров : 187,500 кадров/сек (256 SPF)
Метод сжатия : С потерями
Размер потока : 220 Мбайт (9%)
Заголовок : EAC3 5.1 @ 640 kbps - MVO, Amedia
Язык : Russian
ServiceKind/String : Complete Main
Default : Да
Forced : Да
Аудио #2
Идентификатор : 3
Формат : E-AC-3
Формат/Информация : Enhanced Audio Coding 3
Параметр Endianness формата : Big
Идентификатор кодека : A_EAC3
Продолжительность : 48 м. 9 с.
Вид битрейта : Постоянный
Битрейт : 640 Кбит/сек
Каналы : 6 каналов
Расположение каналов : Front: L C R, Side: L R, LFE
Частота : 48,0 КГц
Частота кадров : 187,500 кадров/сек (256 SPF)
Метод сжатия : С потерями
Размер потока : 220 Мбайт (9%)
Заголовок : EAC3 5.1 @ 640 kbps
Язык : English
ServiceKind/String : Complete Main
Default : Нет
Forced : Нет
Текст #1
Идентификатор : 4
Формат : UTF-8
Идентификатор кодека : S_TEXT/UTF8
Идентификатор кодека/Информация : UTF-8 Plain Text
Заголовок : Full
Язык : Russian
Default : Нет
Forced : Нет
Текст #2
Идентификатор : 5
Формат : UTF-8
Идентификатор кодека : S_TEXT/UTF8
Идентификатор кодека/Информация : UTF-8 Plain Text
Заголовок : Full
Язык : English
Default : Нет
Forced : Нет
Текст #3
Идентификатор : 6
Формат : UTF-8
Идентификатор кодека : S_TEXT/UTF8
Идентификатор кодека/Информация : UTF-8 Plain Text
Заголовок : SDH
Язык : English
Default : Нет
Forced : Нет
Меню
00:00:00.000 : en:Amazon Studios
00:00:05.000 : en:Title Sequence
00:00:54.000 : en:Ads become alive
00:02:26.000 : en:Phil watches an interview on the way to work
00:04:52.000 : en:Phil tells his coworkers about his home situation
00:08:37.000 : en:Phil returns home with some cheese
00:12:23.000 : en:Phil asks his coworkers if they saw the same interview last night
00:16:33.000 : en:Phil ends up re-watching the interview on his train ride home
00:18:38.000 : en:Phil is assessed after the accident
00:23:57.000 : en:A neighborhood altercation prevents Phil from heading to work
00:26:50.000 : en:Phil's supervisor places him on close supervision
00:32:25.000 : en:Phil decides to take matters into his own hands at a political interview
00:34:42.000 : en:Phil sneaks into his home
00:39:24.000 : en:Phil hides from the peace officers
00:43:49.000 : en:The Candidate gives a speech on the others
00:46:37.000 : en:End Credits

Список серий:

1. The Hood Maker
2. Impossible Planet
3. The Commuter
4. Crazy Diamond
5. Real Life
6. Human Is
7. Kill All Others
8. Autofac
9. Safe & Sound
10. The Father Thing
Скриншоты:
       

Theseus

Post 05-Dec-2017 14:09

[Quote]

-Теория большого взрыва / The Big Bang Theory- Год выпуска: 2017-2018
Страна: США
Жанр: комедия
Продолжительность серии: ~00:21:30
Перевод: Профессиональный (одноголосый) |перевод Кураж-Бамбей|
Режиссер: Марк Сендроуски, Энтони Джозеф Рич, Питер Чакос-В ролях: Джонни Галэки, Джим Парсонс, Кейли Куоко, Саймон Хелберг, Кунал Найяр, Майем Биалик, Мелисса Рауш, Кэрол Энн Сьюзи, Кевин Суссман, Арти Манн, Брайан Джордж, Элис Эмтер, Сара Гилберт, Джон Росс Боуи, Уил Уитон, Лори Меткаф, Верни Уотсон-Джонсон, Кристин Барански, Джошуа Малина, Кейси Сэндер, Кэти Леклерк-Описание: Великолепный комедийный сериал американского производства о двух ученых (Леонард и Шелдон) и красивой блондинке Пенни, которые живут на одной площадке. Парни, истинные ботаники с докторской степенью, вообще не приспособлены к реальной жизни, особенно к общению с реальными женщинами. Герои сериала Теория большого взрыва гениальные ученые, живущие в своем "мире". Леонард влюбляется в симпатичную соседку, и всячески старается ее завоевать. А Пенни, которая не представляет себе длительные отношения с ним, старается не обидеть своим отказом. Шелдон рассматривает всех окружающих людей как счастливцев, которым повезло жить в одно с ним время и иногда оказывать ему услуги.
Не менее колоритны и их друзья – Воловиц, знающий множество словечек на десятках языках, даже мертвых и выдуманных, обожающий яркую одежду и необычные ремни, и Раджеш, способный разговаривать с женщинами только под воздействием алкоголя.
Тонкий юмор, добрые шутки, пикантные и непревзойденные ситуации, немного научных фактов в тему, и все это в безупречном переводе и смешной озвучке студии «Кураж-Бамбей». Теория большого взрыва захватывает своих поклонников с первого кадра, а оригинальный и веселый бамбейский перевод не оставит равнодушным никого!- -Качество: WEB-DL 1080p
Формат: m4v
Видеокодек: x.264
Аудиокодек: AC3 / AAC
Видео: AVC, 1912x1072 (16:9), 23.976 fps, 5 197 Kbps
Аудио #1: AAC LC, 48.0 KHz, 2 ch, 122 Kbps, VBR (Russian)
Аудио #2: AC-3, 48.0 KHz, 6 ch, 384 Kbps, CBR (Russian)
Аудио #3: AAC LC, 48.0 KHz, 2 ch, 152 Kbps, VBR (English)
Аудио #4: AC-3, 48.0 KHz, 6 ch, 384 Kbps, CBR (English)
Субтитры: Английские-

Внимание! Раздача ведётся путём добавления новых серий !

Когда раздача ведётся путём добавления новых серий, при каждом обновлении раздачи создаётся новый торрент.
Чтобы начать докачку новых файлов, пользователям необходимо сделать следующее:
1. Остановить в клиенте нужный торрент
2. Удалить старый торрент у себя из клиента (ранее скачанные файлы удалять не надо!) ,
3. Скачать новый торрент и запустить его у себя в клиенте; при этом в качестве места размещения файлов торрента необходимо указать путь в папку, содержащую ранее скачаные файлы предыдущей версии раздачи.
При запуске скачки Ваш клиент должен произвести хеширование (проверку) старой папки (если не производит сам - помогите ему сделать это) , и начать докачку только тех файлов, которых у Вас ещё нет. Старые файлы при этом не удаляются, а продолжают раздаваться!
Если вы уже удалили старые файлы, то предотвратить их повторную закачку можно, отжав галочку возле ненужных файлов при запуске нового торрента.
По возможности, желательно не удалять ранее скачанные файлы как можно дольше, чтобы релизёр не столько продолжал раздавать старые файлы, сколько смог сконцентрироваться на раздаче новых
-Скриншоты
     
- -
 

The time now is: Today 16:17

All times are GMT + 3 Hours