Today is a free download without charge Download

Search found 13 matches

Author Message

K15

Post Yesterday 14:54

[Quote]

Соври мне правду (2021) Blu-ray [H.264/1080p]- Производство: Россия / Окапи Продакшн, START Studio
Жанр: триллер, драма
Режиссер: Ольга Акатьева
Актеры: Дарья Мельникова, Евгений Романцов, Павел Прилучный, Елизавета Кононова, Александр Обласов, Григорий Верник
Описание:
Влюбленная пара уединяется вдали от цивилизации. Они не так давно вместе, но парень уверен: он встретил свою единственную. Внезапный приезд младшей сестры, а потом и бывшего бойфренда девушки разрушает романтическую идиллию. Герои становятся заложниками желаний и страстей друг друга. Романтику сменяет страсть, а невинный флирт влечет за собой яростную ревность. Все более опасные психологические игры грозят привести к жестокой развязке.

Возраст: 18+ (зрителям, достигшим 18 лет. запрещено для детей)
Дата российской премьеры: 9 сентября 2021, «Централ Партнершип»
Продолжительность: 01:27:27
Качество видео: Blu-ray
Перевод: Не требуется (Русский)
Язык озвучки: русский, немецкий
Субтитры: Немецкие
Видео: AVC/H.264, 1920x1080, 34.8 Мbps
Аудио 1: DTS-HD MA, 6 ch, 3796 Kbps - Немецкий
Аудио 2: DTS-HD MA, 6 ch, 3534 Kbps - Русский Просмотр доступен только для зарегистрированных пользователейСкриншоты:
         
Время раздачи: с 9:00 до 21:00 (до появления 3-5 скачавших)

Dracula

Post 29-Dec-2021 18:06

[Quote]

Топик был перенесен из форума Новинки (BD|HDTV|DVD) в форум Отечественное кино (HD Video)


K15

K15

Post 28-Dec-2021 14:26

[Quote]

Информация о фильме
Название: Майор Гром: Чумной Доктор [Расширенная версия]
Год выхода: 2021
Жанр: боевик, криминал, детектив, комедия
Режиссер: Олег Трофим--В ролях: Тихон Жизневский, Любовь Аксёнова, Алексей Маклаков, Михаил Евланов, Александр Сетейкин, Сергей Горошко, Дмитрий Чеботарёв, Олег Чугунов, Антон Богданов, Юрий Насонов, Ойсель Море Деспайгне, Кристина Ибадуллаева, Владимир Дикун, Дмитрий Лиманов, Эльдар Мурсалов, Михаил Новиков, Евгений Катаев, Александр Какуев, Владислав Шкерин, Алексей Коршунов, Владислав Спирин, Никита Кологривый, Игорь Захаров, Владимир Лысенко, Алексей Синицин, Алина Недобитко, Николай Пинский, Григорий Сергеев, Игорь Киселёв, Андрей Мясников, Ангелина Тимофеева, Рафаэль Хисматулин--О фильме: Майор полиции Игорь Гром известен всему Санкт-Петербургу пробивным характером и непримиримой позицией по отношению к преступникам всех мастей. Неимоверная сила, аналитический склад ума и неподкупность — всё это делает майора Грома идеальным полицейским. Но всё резко меняется с появлением человека в маске Чумного Доктора. Заявив, что его город «болен чумой беззакония», он принимается за «лечение», убивая людей, которые в своё время избежали наказания при помощи денег и влияния. Общество взбудоражено. Полиция бессильна. Игорь впервые сталкивается с трудностями в расследовании, от итогов которого может зависеть судьба всего города.-- --Выпущено: Россия / Bubble Studio
Продолжительность: 02:33:16
Озвучивание: Оригинальное | КиноПоиск HD--Файл
Формат: MKV
Качество: WEB-DL 1080p
Видео: MPEG-4 AVC, 6000 Kb/s, 1920х804
Аудио: Russian: AC3, 448 Kb/s (6 ch) / E-AC3, 448 Kb/s (6 ch)
Субтитры: Russian (Full)--

Тех.данные видеофайла

Complete name : Mayor.Grom.Chumnoy.Doktor.2021.KP.Ex.Cut.WEB-DL.1080p.ELEKTRI4KA.UNIONGANG.mkv
Format : Matroska
Format version : Version 4
File size : 7.31 GiB
Duration : 2 h 33 min
Overall bit rate : 6 830 kb/s
Movie name : Mayor.Grom.Chumnoy.Doktor.Ex.Cut.2021.KP.WEB-DL.1080p.ELEKTRI4KA.UNIONGANG.
Encoded date : UTC 2021-12-27 17:57:47
Writing application : mkvmerge v63.0.0 ('Everything') 32-bit
Writing library : libebml v1.4.2 + libmatroska v1.6.4
Video
ID : 1
Format : AVC
Format/Info : Advanced Video Codec
Format profile : [email protected]
Format settings : CABAC / 5 Ref Frames
Format settings, CABAC : Yes
Format settings, Reference frames : 5 frames
Codec ID : V_MPEG4/ISO/AVC
Duration : 2 h 33 min
Bit rate : 6 000 kb/s
Width : 1 920 pixels
Height : 804 pixels
Display aspect ratio : 2.40:1
Frame rate mode : Constant
Frame rate : 24.000 FPS
Color space : YUV
Chroma subsampling : 4:2:0
Bit depth : 8 bits
Scan type : Progressive
Bits/(Pixel*Frame) : 0.162
Stream size : 6.35 GiB (87%)
Writing library : x264 core 157
Encoding settings : cabac=1 / ref=5 / deblock=1:0:0 / analyse=0x3:0x133 / me=umh / subme=10 / psy=1 / psy_rd=1.00:0.00 / mixed_ref=1 / me_range=24 / chroma_me=1 / trellis=2 / 8x8dct=1 / cqm=0 / deadzone=21, 11 / fast_pskip=1 / chroma_qp_offset=-2 / threads=25 / lookahead_threads=4 / sliced_threads=0 / nr=0 / decimate=1 / interlaced=0 / bluray_compat=0 / stitchable=1 / constrained_intra=0 / bframes=8 / b_pyramid=2 / b_adapt=2 / b_bias=0 / direct=3 / weightb=1 / open_gop=0 / weightp=2 / keyint=192 / keyint_min=96 / scenecut=40 / intra_refresh=0 / rc_lookahead=60 / rc=2pass / mbtree=1 / bitrate=6000 / ratetol=1.0 / qcomp=0.60 / qpmin=0 / qpmax=69 / qpstep=4 / cplxblur=20.0 / qblur=0.5 / vbv_maxrate=6600 / vbv_bufsize=9000 / nal_hrd=none / filler=0 / ip_ratio=1.40 / aq=1:1.00
Default : Yes
Forced : No
Audio #1
ID : 2
Format : AC-3
Format/Info : Audio Coding 3
Commercial name : Dolby Digital
Codec ID : A_AC3
Duration : 2 h 33 min
Bit rate mode : Constant
Bit rate : 448 kb/s
Channel(s) : 6 channels
Channel layout : L R C LFE Ls Rs
Sampling rate : 48.0 kHz
Frame rate : 31.250 FPS (1536 SPF)
Compression mode : Lossy
Stream size : 491 MiB (7%)
Title : Original AC3 (KinoPoisk HD)
Language : Russian
Service kind : Complete Main
Default : Yes
Forced : Yes
Audio #2
ID : 3
Format : E-AC-3
Format/Info : Enhanced AC-3
Commercial name : Dolby Digital Plus
Codec ID : A_EAC3
Duration : 2 h 33 min
Bit rate mode : Constant
Bit rate : 448 kb/s
Channel(s) : 6 channels
Channel layout : L R C LFE Ls Rs
Sampling rate : 48.0 kHz
Frame rate : 31.250 FPS (1536 SPF)
Compression mode : Lossy
Stream size : 491 MiB (7%)
Title : Original E-AC3 (KinoPoisk HD)
Language : Russian
Service kind : Complete Main
Default : No
Forced : No
Text
ID : 4
Format : UTF-8
Codec ID : S_TEXT/UTF8
Codec ID/Info : UTF-8 Plain Text
Duration : 2 h 25 min
Bit rate : 82 b/s
Count of elements : 1794
Stream size : 87.7 KiB (0%)
Title : Full
Language : Russian
Default : No
Forced : No

Скриншоты

     

K15

Post 29-Dec-2021 08:44

[Quote]

Оригинальное название: Гранит
Производство: Россия, Паритет
Жанр: Боевик
Режиссер: Денис Нейманд
Продюсер: Сергей Щеглов--Актеры: Олег Чернов, Евгений Терских, Александр Барановский, Марк Гаврилов, Игорь Филиппов, Мексес Мабессимо, Глеб Темнов, Евгений Добряков, Сергей Гарусов, Михаил Богданов, Артур Федынко, Владимир Ляхов, Алексей Румянцев--Описание: Мозамбик, 2019 год. На деревню маленького мальчика Жозе нападает отряд боевиков, которым командует жестокий и безжалостный Мамудо: террористы расстреливают местных жителей, поджигают дома, убивают родителей Жозе, а сам мальчик и его брат попадают в плен к боевикам. Тем временем в Судане русские инструкторы тренируют бойцов местной армии, один из инструкторов — опытный боец Гранит, которому не нравится, что на базе нет подходящего для него задания. Вскоре поступает приказ отправить часть инструкторов в Мозамбик.-- --Продолжительность: 01:36:00
Перевод: Русский--Качество: HDTV (1080p)
Видео: MPEG-4 AVC, 3640 Кбит/с, 1920x1080
Аудио: MP2, 2 ch, 192 Кбит/с

Скриншоты

     

K15

Post 27-Dec-2021 12:10

[Quote]

Бабки«За любовь!»- Год выхода: 2021
Страна: Россия
Жанр: Комедия, драма
Продолжительность: 01:01:49
Перевод: Не требуется | IVI
Субтитры: Отсутствуют
Режиссер: Никита Владимиров
В ролях: Ольга Волкова, Анна Алексахина, Александра Велескевич, Дарья Белоусова, Сергей Мигицко, Алексей Золотовицкий, Алексей Дмитриев, Владимир Моташнёв, Агриппина Стеклова, Варвара Владимирова-О фильме: Одинокая пенсионерка Евгения Васильевна искренне не любит весь окружающий ее мир. И однажды мир отвечает ей взаимностью: грабитель отнял всю пенсию, его сумасшедшая мать навязывается в подруги, ОМОНовцы накрывают бордель, который работал в ее подъезде, а проститутки просят спрятать их у себя, пока не утихнет облава. Не хватает только криминальных авторитетов, «крышующих» заведение… И они приходят — с требованием компенсировать им убытки в несколько миллионов рублей. Но откуда простой пенсионерке достать такие деньги? Выход подсказывают сами бандиты: нужно открыть новый бордель, прямо у Евгении Васильевны в квартире.-Качество: WEB-DL 1080p
Формат: mkv
Видео кодек: AVC
Аудио кодек: AC3, AАC
Видео: 1920x800, 24.000 fps, 5120 Кбит/с
Аудио #1: AC3, 384 Кбит/с, 6 ch, 48.0 KHz [Russian]
Аудио #2: AАC, 512 Кбит/с, 6 ch, 48.0 KHz [Russian]
Примечание: Релиз без рекламы!

Скриншоты

     

K15

Post 20-Nov-2021 19:55

[Quote]

Информация о фильме
Название: Дело
Год выхода: 2021
Жанр: Драма
Режиссер: Алексей Герман мл.--В ролях: Мераб Нинидзе, Анна Михалкова, Роза Хайруллина, Светлана Ходченкова, Александр Паль, Александра Бортич, Анастасия Мельникова, Анастасия Талызина, Юрий Уткин, Александр Большаков (II), Юлия Маркова, Алиса Рейфер, Ян Решетников, Александра Карабанова--О фильме: Специалист по литературе Серебряного века профессор Давид Гурамович обвиняет мэра провинциального городка в краже крупной суммы, но сам становится фигурантом дела о растрате и отправляется под домашний арест. Все вокруг советуют ему как можно скорее пойти на мировую, но Давид упрямо решает идти до конца. Он вступает в борьбу за свои идеалы, свое имя, а порой и за существование.-- --Страна: Россия
Студия: Кинокомпания «Метрафильмс»
Продолжительность: 01:46:26
Язык: Русский | ОККО--Примечание: Без рекламы
Цифровой релиз: 19 ноября 2021 года (ОККО)--Файл
Формат: MKV
Качество: WEB-DL 1080p
Видео: MPEG-4 AVC, 5000 Кбит/с, 1920x1024
Звук: AC3, 2 ch, 192 Кбит/с
Субтитры: Отсутствуют--Семпл--

Тех.данные видеофайла

Общее
Уникальный идентификатор: 145649436800133857025510935863535095539 (0x6D930FA8F2023704BF5B15903C684EF3)
Полное имя: D:Delo.2021.WEB-DL.1080p.ELEKTRI4KA.UNIONGANG.mkv
Формат: Matroska
Версия формата: Version 4
Размер файла: 3, 85 Гбайт
Продолжительность: 1 ч. 46 м.
Общий поток: 5 175 Кбит/сек
Название фильма: Delo.2021.WEB-DL.1080p.ELEKTRI4KA.UNIONGANG
Дата кодирования: UTC 2021-11-19 18:01:36
Программа кодирования: mkvmerge v63.0.0 ('Everything') 64-bit
Библиотека кодирования: libebml v1.4.2 + libmatroska v1.6.4
Attachments: poster.jpg
Видео
Идентификатор: 1
Формат: AVC
Формат/Информация: Advanced Video Codec
Профиль формата: [email protected]
Настройки формата: CABAC / 3 Ref Frames
Параметр CABAC формата: Да
Параметр RefFrames формата: 3 кадра
Идентификатор кодека: V_MPEG4/ISO/AVC
Продолжительность: 1 ч. 46 м.
Битрейт: 5 000 Кбит/сек
Ширина: 1 920 пикселей
Высота: 1 024 пикселя
Соотношение сторон: 1, 85:1
Режим частоты кадров: Постоянный
Частота кадров: 24, 000 кадра/сек
Цветовое пространство: YUV
Субдискретизация насыщенности: 4:2:0
Битовая глубина: 8 бит
Тип развёртки: Прогрессивная
Бит/(Пиксели*Кадры): 0.106
Размер потока: 3, 70 Гбайт (96%)
Библиотека кодирования: x264 core 161 r3048 b86ae3c
Настройки программы: cabac=1 / ref=4 / deblock=1:1:1 / analyse=0x3:0x133 / me=umh / subme=9 / psy=1 / psy_rd=0.40:1.00 / mixed_ref=1 / me_range=24 / chroma_me=1 / trellis=0 / 8x8dct=1 / cqm=0 / deadzone=21, 11 / fast_pskip=1 / chroma_qp_offset=-2 / threads=32 / lookahead_threads=2 / sliced_threads=0 / nr=0 / decimate=1 / interlaced=0 / bluray_compat=0 / constrained_intra=0 / bframes=8 / b_pyramid=1 / b_adapt=1 / b_bias=0 / direct=3 / weightb=1 / open_gop=0 / weightp=2 / keyint=72 / keyint_min=37 / scenecut=0 / intra_refresh=0 / rc_lookahead=30 / rc=2pass / mbtree=1 / bitrate=5000 / ratetol=1.0 / qcomp=0.80 / qpmin=1 / qpmax=69 / qpstep=4 / cplxblur=20.0 / qblur=0.5 / vbv_maxrate=7500 / vbv_bufsize=10000 / nal_hrd=none / filler=0 / ip_ratio=1.40 / aq=1:1.00
Default: Да
Forced: Нет
Цветовой диапазон: Limited
Основные цвета: BT.709
Коэффициенты матрицы: BT.709
Аудио
Идентификатор: 2
Формат: AC-3
Формат/Информация: Audio Coding 3
Коммерческое название: Dolby Digital
Идентификатор кодека: A_AC3
Продолжительность: 1 ч. 46 м.
Вид битрейта: Постоянный
Битрейт: 192 Кбит/сек
Каналы: 2 канала
Channel layout: L R
Частота: 48, 0 КГц
Частота кадров: 31, 250 кадров/сек (1536 SPF)
Метод сжатия: С потерями
Размер потока: 146 Мбайт (4%)
Service kind: Complete Main
Default: Да
Forced: Нет

Скриншоты

     

K15

Post 20-Nov-2021 19:52

[Quote]

Информация о фильме
Название: Небо
Год выхода: 2020
Жанр: Биография, драма, боевик
Режиссер: Игорь Копылов--В ролях: Игорь Петренко, Иван Батарев, Сергей Губанов, Мария Миронова, Илья Носков, Николай Козак, Дмитрий Власкин, Сергей Жарков, Дмитрий Блохин, Григорий Некрасов--О фильме: Подполковник Сошников и капитан Муравьев — два разных характера, две разные судьбы, которым суждено будет сойтись на военной базе Хмеймим. Во время боевого вылета самолет Сошникова был сбит турецким истребителем. Это событие освещали все мировые СМИ, а за ходом спасательной операции следила вся Россия.-- --Выпущено: Россия / Триикс Медиа
Продолжительность: 02:06:03
Озвучивание: Оригинальное--Файл
Формат: MKV
Качество: WEB-DL 1080p
Видео: MPEG-4 AVC, 2992 Kb/s, 1920x1080
Аудио: Russian: AC3, 192 Kb/s (2 ch)--

Тех.данные видеофайла

Complete name : Nebo.2020.WEB-DL.1080p.ELEKTRI4KA.UNIONGANG.mkv
Format : Matroska
Format version : Version 4
File size : 2.81 GiB
Duration : 2 h 6 min
Overall bit rate : 3 187 kb/s
Encoded date : UTC 2021-11-18 08:10:07
Writing application : mkvmerge v8.3.0 ('Over the Horizon') 32bit
Writing library : libebml v1.3.1 + libmatroska v1.4.2
Video
ID : 1
Format : AVC
Format/Info : Advanced Video Codec
Format profile : [email protected]
Format settings : CABAC / 4 Ref Frames
Format settings, CABAC : Yes
Format settings, Reference frames : 4 frames
Codec ID : V_MPEG4/ISO/AVC
Duration : 2 h 6 min
Bit rate : 2 992 kb/s
Width : 1 920 pixels
Height : 1 080 pixels
Display aspect ratio : 16:9
Frame rate mode : Constant
Frame rate : 25.000 FPS
Color space : YUV
Chroma subsampling : 4:2:0
Bit depth : 8 bits
Scan type : Interlaced
Scan type, store method : Separated fields
Scan order : Top Field First
Bits/(Pixel*Frame) : 0.058
Stream size : 2.63 GiB (94%)
Language : English
Default : Yes
Forced : No
Color range : Limited
Color primaries : BT.709
Transfer characteristics : BT.709
Matrix coefficients : BT.709
Audio
ID : 2
Format : AC-3
Format/Info : Audio Coding 3
Commercial name : Dolby Digital
Codec ID : A_AC3
Duration : 2 h 6 min
Bit rate mode : Constant
Bit rate : 192 kb/s
Channel(s) : 2 channels
Channel layout : L R
Sampling rate : 48.0 kHz
Frame rate : 31.250 FPS (1536 SPF)
Compression mode : Lossy
Stream size : 173 MiB (6%)
Language : Russian
Service kind : Complete Main
Default : Yes
Forced : No

Скриншоты

     

}{@R0N

Post 06-Aug-2021 13:08

[Quote]

Бендер: Начало-
Производство: Россия, Продюсерская компания «Среда»
Жанр: Комедия, приключения
Режиссер: Игорь Зайцев
Продюсер: Александр Цекало, Иван Самохвалов, Варя Авдюшко
Актеры: Сергей Безруков, Арам Вардеванян, Никита Кологривый, Таисия Вилкова, Эдуард Орлов, Александр Цекало, Юлия Рутберг, Ольга Сутулова, Гарик Харламов, Артем Ткаченко
Описание:
1919 год. Судьба сталкивает юного идеалиста Осю с турецко-подданным аферистом Ибрагимом Бендером. И никогда бы честный Ося не связался с таким бессовестным и хитроумным мошенником, если бы их не объединила невероятно опасная авантюра — охота за царской реликвией, драгоценным жезлом, заполучить который также не прочь местные бандиты и белые офицеры. В череде головокружительных приключений Ося вынужден учиться у Ибрагима обаятельной лести, деликатному обману, пленительному шантажу и… грубой силе. И все это — будучи влюбленным в самую чистую девушку города! И, кажется, еще в одну — роковую иностранную красотку…
Так начинает складываться портрет легендарного великого комбинатора и любимца женщин Остапа Бендера-Задунайского.


Возраст: 16+ (зрителям, достигшим 16 лет)
Дата российской премьеры: 24 июня 2021, «Централ Партнершип»
Продолжительность: 01:33:03
Перевод: Не требуется (Русский)
Субтитры: Отсутствуют-Качество: WEB-DL 1080p
Контейнер: MKV
Видео: MPEG-4 (AVC), 1920х804 (2.40:1), 25 fps, ~ 6000 kbps, 0.155 bit/pixel
Аудио: E-AC3, 48 kHz, 6 ch, 448 Kbps-

Релиз

Цитата:
- Источник КиноПоиск HD (чистый видеоряд).

MediaInfo

Код:
General
Unique ID                                : 23310220263461887390506298955469487054 (0x1189629753B466F42E2CEED752A0FBCE)
Complete name                            : Bender.Nachalo.2021.1080p.KP.WEB-DL.DDP5.1.H.264-EniaHD.mkv
Format                                   : Matroska
Format version                           : Version 4
File size                                : 4.17 GiB
Duration                                 : 1 h 33 min
Overall bit rate                         : 6 422 kb/s
Writing application                      : mkvmerge v60.0.0 ('Are We Copies?') 64-bit
Writing library                          : libebml v1.4.2 + libmatroska v1.6.4
Video
ID                                       : 1
Format                                   : AVC
Format/Info                              : Advanced Video Codec
Format profile                           : [email protected]
Format settings                          : CABAC / 5 Ref Frames
Format settings, CABAC                   : Yes
Format settings, Reference frames        : 5 frames
Codec ID                                 : V_MPEG4/ISO/AVC
Duration                                 : 1 h 33 min
Bit rate                                 : 6 000 kb/s
Width                                    : 1 920 pixels
Height                                   : 804 pixels
Display aspect ratio                     : 2.40:1
Frame rate mode                          : Constant
Frame rate                               : 25.000 FPS
Color space                              : YUV
Chroma subsampling                       : 4:2:0
Bit depth                                : 8 bits
Scan type                                : Progressive
Bits/(Pixel*Frame)                       : 0.155
Stream size                              : 3.88 GiB (93%)
Writing library                          : x264 core 157
Encoding settings                        : cabac=1 / ref=5 / deblock=1:0:0 / analyse=0x3:0x133 / me=umh / subme=10 / psy=1 / psy_rd=1.00:0.00 / mixed_ref=1 / me_range=24 / chroma_me=1 / trellis=2 / 8x8dct=1 / cqm=0 / deadzone=21,11 / fast_pskip=1 / chroma_qp_offset=-2 / threads=25 / lookahead_threads=4 / sliced_threads=0 / nr=0 / decimate=1 / interlaced=0 / bluray_compat=0 / constrained_intra=0 / bframes=8 / b_pyramid=2 / b_adapt=2 / b_bias=0 / direct=3 / weightb=1 / open_gop=0 / weightp=2 / keyint=200 / keyint_min=100 / scenecut=40 / intra_refresh=0 / rc_lookahead=60 / rc=2pass / mbtree=1 / bitrate=6000 / ratetol=1.0 / qcomp=0.60 / qpmin=0 / qpmax=69 / qpstep=4 / cplxblur=20.0 / qblur=0.5 / vbv_maxrate=6600 / vbv_bufsize=9000 / nal_hrd=none / filler=0 / ip_ratio=1.40 / aq=1:1.00
Default                                  : Yes
Forced                                   : No
Audio
ID                                       : 2
Format                                   : E-AC-3
Format/Info                              : Enhanced AC-3
Commercial name                          : Dolby Digital Plus
Codec ID                                 : A_EAC3
Duration                                 : 1 h 33 min
Bit rate mode                            : Constant
Bit rate                                 : 448 kb/s
Channel(s)                               : 6 channels
Channel layout                           : L R C LFE Ls Rs
Sampling rate                            : 48.0 kHz
Frame rate                               : 31.250 FPS (1536 SPF)
Compression mode                         : Lossy
Stream size                              : 298 MiB (7%)
Language                                 : Russian
Service kind                             : Complete Main
Default                                  : Yes
Forced                                   : No
Скриншоты:
       

Kon912

Post 13-Jun-2020 02:44

[Quote]

Яга. Кошмар тёмного леса- Год выпуска: 2020
Страна: Россия
Студия: Нон-стоп Продакшн, QS Films
Жанр: Ужасы
Продолжительность: 01:36:45
Перевод: Не требуется | Лицензия Blu-Ray GER-Режиссер:
Святослав Подгаевский-В ролях:
Олег Чугунов, Глаша Голубева, Артём Жигулин, Игорь Хрипунов, Светлана Устинова, Алексей Розин, Марьяна Спивак, Марта Тимофеева, Даниил Филиппов, Евгения Евстигнеева, Ольга Макеева-О фильме:
В центре сюжета — молодая семья, которая переехала в новую квартиру на окраине города. Нанятая ими для новорожденной дочери няня быстро вошла в доверие. Однако старший мальчик, Егор, рассказывает о пугающем поведении женщины, но родители ему не верят. Камеры наблюдения, установленные отцом для успокоения, лишь подтверждают — всё в порядке. И вот однажды Егор, вернувшись домой, не находит никаких следов ни няни, ни маленькой сестры, а родители пребывают в странном трансе и даже не помнят, что у них была дочь. Тогда Егор вместе с друзьями отправляется на поиски, в ходе которых выяснится, что няня — древний славянский демон.- -Качество: BDRip 720p
Формат: MKV
Видео: MPEG-4 AVC, 1280x536 (2.40:1), 24.000 fps, 4559 Kb/s
Аудио 1: 48 kHz, AC3, 5.1, 640 Kbps | Лицензия | RUS |
Аудио 2: 48 kHz, DTS, 5.1, 1509 Kbps | Лицензия | RUS |
Субтитры: Русские (Наталья Раевская)-

ОтчетМедиаИнфо

General
Unique ID : 227185948916345889525654896094355390050 (0xAAEA6C150CDFD8C780D0AE22A78BFE62)
Complete name : E:Baba.Yaga.2020.BDRip.720p.ExKinoRay.mkv
Format : Matroska
Format version : Version 2
File size : 4.63 GiB
Duration : 1 h 36 min
Overall bit rate : 6 844 kb/s
Movie name : Baba Yaga 2020 from ExKinoRay
Encoded date : UTC 2020-06-12 22:52:48
Writing application : mkvmerge v2.9.9 ('Tutu') built on Nov 25 2009 21:13:32
Writing library : libebml v0.7.9 + libmatroska v0.8.1
Cover : Yes
Attachments : cover.jpg
Video
ID : 1
Format : AVC
Format/Info : Advanced Video Codec
Format profile : [email protected]
Format settings : CABAC / 12 Ref Frames
Format settings, CABAC : Yes
Format settings, Reference : 12 frames
Codec ID : V_MPEG4/ISO/AVC
Duration : 1 h 36 min
Bit rate : 4 559 kb/s
Width : 1 280 pixels
Height : 536 pixels
Display aspect ratio : 2.40:1
Frame rate mode : Constant
Frame rate : 24.000 FPS
Color space : YUV
Chroma subsampling : 4:2:0
Bit depth : 8 bits
Scan type : Progressive
Bits/(Pixel*Frame) : 0.277
Stream size : 3.08 GiB (67%)
Writing library : x264 core 142 r2431+42 c69a006 tMod [[email protected] X86_64]
Encoding settings : cabac=1 / ref=12 / deblock=1:-3:-3 / analyse=0x3:0x133 / me=umh / subme=10 / psy=1 / fade_compensate=0.00 / psy_rd=1.00:0.00 / mixed_ref=1 / me_range=32 / chroma_me=1 / trellis=2 / 8x8dct=1 / cqm=0 / deadzone=21,11 / fast_pskip=0 / chroma_qp_offset=-2 / threads=24 / lookahead_threads=4 / sliced_threads=0 / nr=0 / decimate=0 / interlaced=0 / bluray_compat=0 / constrained_intra=0 / fgo=0 / bframes=8 / b_pyramid=2 / b_adapt=2 / b_bias=0 / direct=3 / weightb=1 / open_gop=0 / weightp=2 / keyint=240 / keyint_min=24 / scenecut=40 / intra_refresh=0 / rc_lookahead=50 / rc=crf / mbtree=0 / crf=17.0000 / qcomp=0.60 / qpmin=0:0:0 / qpmax=51:51:51 / qpstep=4 / vbv_maxrate=50000 / vbv_bufsize=62500 / crf_max=0.0 / nal_hrd=none / filler=0 / ip_ratio=1.40 / pb_ratio=1.30 / aq=3:0.80 / aq-sensitivity=10.00 / aq-factor=1.00:1.00:1.00 / aq2=0 / aq3=0
Language : German
Default : No
Forced : No
Duration_Source : General_Duration
Audio #1
ID : 2
Format : AC-3
Format/Info : Audio Coding 3
Commercial name : Dolby Digital
Codec ID : A_AC3
Duration : 1 h 36 min
Bit rate mode : Constant
Bit rate : 640 kb/s
Channel(s) : 6 channels
Channel layout : L R C LFE Ls Rs
Sampling rate : 48.0 kHz
Frame rate : 31.250 FPS (1536 SPF)
Compression mode : Lossy
Stream size : 443 MiB (9%)
Title : Surround 5.1
Language : Russian
Service kind : Complete Main
Default : Yes
Forced : No
Duration_Source : General_Duration
Audio #2
ID : 3
Format : DTS
Format/Info : Digital Theater Systems
Codec ID : A_DTS
Duration : 1 h 36 min
Bit rate mode : Constant
Bit rate : 1 509 kb/s
Channel(s) : 6 channels
Channel layout : C L R Ls Rs LFE
Sampling rate : 48.0 kHz
Frame rate : 93.750 FPS (512 SPF)
Bit depth : 24 bits
Compression mode : Lossy
Delay relative to video : 11 ms
Stream size : 1.02 GiB (22%)
Title : Surround 5.1
Language : Russian
Default : No
Forced : No
Duration_Source : General_Duration
Text
ID : 4
Format : UTF-8
Codec ID : S_TEXT/UTF8
Codec ID/Info : UTF-8 Plain Text
Title : Full (Enigma)
Language : Russian
Default : No
Forced : No
Menu
00:00:00.000 : en:Chapter 01
00:06:43.500 : en:Chapter 02
00:14:42.750 : en:Chapter 03
00:21:46.750 : en:Chapter 04
00:28:55.666 : en:Chapter 05
00:37:46.375 : en:Chapter 06
00:44:01.750 : en:Chapter 07
00:48:57.000 : en:Chapter 08
00:54:26.708 : en:Chapter 09
01:01:38.875 : en:Chapter 10
01:08:03.666 : en:Chapter 11
01:11:43.416 : en:Chapter 12
01:16:19.375 : en:Chapter 13
01:23:23.250 : en:Chapter 14
01:27:32.625 : en:Chapter 15
01:32:50.833 : en:Chapter 16

Скриншоты

         
-Релиз от

Kon912

Post 13-Jun-2020 00:29

[Quote]

Яга. Кошмар тёмного леса- Год выпуска: 2020
Страна: Россия
Студия: Нон-стоп Продакшн, QS Films
Жанр: Ужасы
Продолжительность: 01:36:45
Перевод: Не требуется | Лицензия Blu-Ray GER-Режиссер:
Святослав Подгаевский-В ролях:
Олег Чугунов, Глаша Голубева, Артём Жигулин, Игорь Хрипунов, Светлана Устинова, Алексей Розин, Марьяна Спивак, Марта Тимофеева, Даниил Филиппов, Евгения Евстигнеева, Ольга Макеева-О фильме:
В центре сюжета — молодая семья, которая переехала в новую квартиру на окраине города. Нанятая ими для новорожденной дочери няня быстро вошла в доверие. Однако старший мальчик, Егор, рассказывает о пугающем поведении женщины, но родители ему не верят. Камеры наблюдения, установленные отцом для успокоения, лишь подтверждают — всё в порядке. И вот однажды Егор, вернувшись домой, не находит никаких следов ни няни, ни маленькой сестры, а родители пребывают в странном трансе и даже не помнят, что у них была дочь. Тогда Егор вместе с друзьями отправляется на поиски, в ходе которых выяснится, что няня — древний славянский демон.- -Качество: BDRip 1080p
Формат: MKV
Видео: MPEG-4 AVC, 1920x804 (2.40:1), 24.000 fps, 13.1 Mb/s
Аудио 1: 48 kHz, AC3, 5.1, 640 Kbps | Лицензия | RUS |
Аудио 2: 48 kHz, DTS, 5.1, 1509 Kbps | Лицензия | RUS |
Субтитры: Русские (Наталья Раевская)-

ОтчетМедиаИнфо

General
Unique ID : 195792956333697231612216758247874964673 (0x934C5A0C4F0BE02B96E9B09E8D292CC1)
Complete name : E:Video1114kBaba.Yaga.2020.BDRip.1080p.ExKinoRay.mkv
Format : Matroska
Format version : Version 2
File size : 10.5 GiB
Duration : 1 h 36 min
Overall bit rate : 15.6 Mb/s
Movie name : Baba Yaga 2020 from ExKinoRay
Encoded date : UTC 2020-06-12 20:54:29
Writing application : mkvmerge v2.9.9 ('Tutu') built on Nov 25 2009 21:13:32
Writing library : libebml v0.7.9 + libmatroska v0.8.1
Cover : Yes
Attachments : cover.jpg
Video
ID : 1
Format : AVC
Format/Info : Advanced Video Codec
Format profile : [email protected]
Format settings : CABAC / 5 Ref Frames
Format settings, CABAC : Yes
Format settings, Reference : 5 frames
Codec ID : V_MPEG4/ISO/AVC
Duration : 1 h 36 min
Bit rate : 13.1 Mb/s
Width : 1 920 pixels
Height : 804 pixels
Display aspect ratio : 2.40:1
Frame rate mode : Constant
Frame rate : 24.000 FPS
Color space : YUV
Chroma subsampling : 4:2:0
Bit depth : 8 bits
Scan type : Progressive
Bits/(Pixel*Frame) : 0.355
Stream size : 8.88 GiB (84%)
Writing library : x264 core 142 r2431+42 c69a006 tMod [[email protected] X86_64]
Encoding settings : cabac=1 / ref=5 / deblock=1:-3:-3 / analyse=0x3:0x133 / me=umh / subme=10 / psy=1 / fade_compensate=0.00 / psy_rd=1.00:0.00 / mixed_ref=1 / me_range=32 / chroma_me=1 / trellis=2 / 8x8dct=1 / cqm=0 / deadzone=21,11 / fast_pskip=0 / chroma_qp_offset=-2 / threads=24 / lookahead_threads=4 / sliced_threads=0 / nr=0 / decimate=0 / interlaced=0 / bluray_compat=0 / constrained_intra=0 / fgo=0 / bframes=8 / b_pyramid=2 / b_adapt=2 / b_bias=0 / direct=3 / weightb=1 / open_gop=0 / weightp=2 / keyint=240 / keyint_min=24 / scenecut=40 / intra_refresh=0 / rc_lookahead=50 / rc=crf / mbtree=0 / crf=17.0000 / qcomp=0.60 / qpmin=0:0:0 / qpmax=51:51:51 / qpstep=4 / vbv_maxrate=50000 / vbv_bufsize=62500 / crf_max=0.0 / nal_hrd=none / filler=0 / ip_ratio=1.40 / pb_ratio=1.30 / aq=3:0.80 / aq-sensitivity=10.00 / aq-factor=1.00:1.00:1.00 / aq2=0 / aq3=0
Language : German
Default : No
Forced : No
Duration_Source : General_Duration
Audio #1
ID : 2
Format : AC-3
Format/Info : Audio Coding 3
Commercial name : Dolby Digital
Codec ID : A_AC3
Duration : 1 h 36 min
Bit rate mode : Constant
Bit rate : 640 kb/s
Channel(s) : 6 channels
Channel layout : L R C LFE Ls Rs
Sampling rate : 48.0 kHz
Frame rate : 31.250 FPS (1536 SPF)
Compression mode : Lossy
Stream size : 443 MiB (4%)
Title : Surround 5.1
Language : Russian
Service kind : Complete Main
Default : Yes
Forced : No
Duration_Source : General_Duration
Audio #2
ID : 3
Format : DTS
Format/Info : Digital Theater Systems
Codec ID : A_DTS
Duration : 1 h 36 min
Bit rate mode : Constant
Bit rate : 1 509 kb/s
Channel(s) : 6 channels
Channel layout : C L R Ls Rs LFE
Sampling rate : 48.0 kHz
Frame rate : 93.750 FPS (512 SPF)
Bit depth : 24 bits
Compression mode : Lossy
Delay relative to video : 11 ms
Stream size : 1.02 GiB (10%)
Title : Surround 5.1
Language : Russian
Default : No
Forced : No
Duration_Source : General_Duration
Text
ID : 4
Format : UTF-8
Codec ID : S_TEXT/UTF8
Codec ID/Info : UTF-8 Plain Text
Title : Full (Enigma)
Language : Russian
Default : No
Forced : No
Menu
00:00:00.000 : en:Chapter 01
00:06:43.500 : en:Chapter 02
00:14:42.750 : en:Chapter 03
00:21:46.750 : en:Chapter 04
00:28:55.666 : en:Chapter 05
00:37:46.375 : en:Chapter 06
00:44:01.750 : en:Chapter 07
00:48:57.000 : en:Chapter 08
00:54:26.708 : en:Chapter 09
01:01:38.875 : en:Chapter 10
01:08:03.666 : en:Chapter 11
01:11:43.416 : en:Chapter 12
01:16:19.375 : en:Chapter 13
01:23:23.250 : en:Chapter 14
01:27:32.625 : en:Chapter 15
01:32:50.833 : en:Chapter 16

Скриншоты

       
-Релиз от

Kon912

Post 12-Jun-2020 20:30

[Quote]

Яга. Кошмар тёмного леса- Год выпуска: 2020
Страна: Россия
Студия: Нон-стоп Продакшн, QS Films
Жанр: Ужасы
Продолжительность: 01:36:45
Перевод: Не требуется | Лицензия Blu-Ray GER-Режиссер:
Святослав Подгаевский-В ролях:
Олег Чугунов, Глаша Голубева, Артём Жигулин, Игорь Хрипунов, Светлана Устинова, Алексей Розин, Марьяна Спивак, Марта Тимофеева, Даниил Филиппов, Евгения Евстигнеева, Ольга Макеева-О фильме:
В центре сюжета — молодая семья, которая переехала в новую квартиру на окраине города. Нанятая ими для новорожденной дочери няня быстро вошла в доверие. Однако старший мальчик, Егор, рассказывает о пугающем поведении женщины, но родители ему не верят. Камеры наблюдения, установленные отцом для успокоения, лишь подтверждают — всё в порядке. И вот однажды Егор, вернувшись домой, не находит никаких следов ни няни, ни маленькой сестры, а родители пребывают в странном трансе и даже не помнят, что у них была дочь. Тогда Егор вместе с друзьями отправляется на поиски, в ходе которых выяснится, что няня — древний славянский демон.- -Качество: BDRemux 1080p
Формат: MKV
Видео: MPEG-4 AVC / 34298 kbps / 1080p / 24 fps / 16:9 / High Profile 4.1
Аудио 1: Russian: DTS-HD Master Audio / 5.1 / 48 kHz / 24 bit / 3788 kbps
Аудио 2: Russian: Dolby Digital Audio / 5.1 / 48 kHz / 16 bit / 640 kbps
Субтитры: Нет-

Скриншоты

         

MediaInfo

General
Unique ID : 7590153498516602299035162338628799310 (0x5B5CF75C0F278187336D408097D0B4E)
Complete name : Baba.Yaga.2020.BDREMUX.1880p.mkv
Format : Matroska
Format version : Version 4 / Version 2
File size : 26.0 GiB
Duration : 1 h 36 min
Overall bit rate mode : Variable
Overall bit rate : 38.4 Mb/s
Encoded date : UTC 2020-06-12 15:04:17
Writing application : mkvmerge v40.0.0 ('Old Town Road + Pony') 64-bit
Writing library : libebml v1.3.9 + libmatroska v1.5.2
Video
ID : 1
Format : AVC
Format/Info : Advanced Video Codec
Format profile : [email protected]
Format settings, CABAC : Yes
Format settings, RefFrames : 4 frames
Format settings, GOP : M=3, N=12
Codec ID : V_MPEG4/ISO/AVC
Duration : 1 h 36 min
Bit rate mode : Variable
Maximum bit rate : 36.0 Mb/s
Width : 1 920 pixels
Height : 1 080 pixels
Display aspect ratio : 16:9
Frame rate mode : Constant
Frame rate : 24.000 FPS
Color space : YUV
Chroma subsampling : 4:2:0
Bit depth : 8 bits
Scan type : Progressive
Language : German
Default : Yes
Forced : No
Audio #1
ID : 2
Format : DTS
Format/Info : Digital Theater Systems
Format profile : MA / Core
Mode : 16
Format settings, Endianness : Big
Codec ID : A_DTS
Duration : 1 h 36 min
Bit rate mode : Variable / Constant
Bit rate : Unknown / 1 509 kb/s
Channel(s) : 6 channels
Channel positions : Front: L C R, Side: L R, LFE
Sampling rate : 48.0 kHz
Frame rate : 93.750 FPS (512 SPF)
Bit depth : 24 bits
Compression mode : Lossless / Lossy
Language : Russian
Default : Yes
Forced : Yes
Audio #2
ID : 3
Format : AC-3
Format/Info : Audio Coding 3
Format settings, Endianness : Big
Codec ID : A_AC3
Duration : 1 h 36 min
Bit rate mode : Constant
Bit rate : 640 kb/s
Channel(s) : 6 channels
Channel positions : Front: L C R, Side: L R, LFE
Sampling rate : 48.0 kHz
Frame rate : 31.250 FPS (1536 SPF)
Bit depth : 16 bits
Compression mode : Lossy
Stream size : 443 MiB (2%)
Language : Russian
Service kind : Complete Main
Default : No
Forced : No
Menu
00:00:00.000 : de:
00:06:43.500 : de:
00:14:42.750 : de:
00:21:46.750 : de:
00:28:55.667 : de:
00:37:46.375 : de:
00:44:01.750 : de:
00:48:57.000 : de:
00:54:26.708 : de:
01:01:38.875 : de:
01:08:03.667 : de:
01:11:43.417 : de:
01:16:19.375 : de:
01:23:23.250 : de:
01:27:32.625 : de:
01:32:50.833 : de:

Kon912

Post 04-Jun-2020 00:35

[Quote]

Дылда- Год выхода: 2019
Страна: Россия
Студия: Нон-стоп Продакшн
Продолжительность: 02:17:31
Жанр: Драма, военный
Перевод: Не требуется | Лицензия Blu-ray US-Режиссер:
Кантемир Балагов-В ролях:
Виктория Мирошниченко, Василиса Перелыгина, Андрей Быков, Игорь Широков, Константин Балакирев, Ксения Кутепова, Ольга Драгунова, Тимофей Глазков, Филипп Жлоба, Наталия Кутанина-О фильме:
История двух молодых женщин-фронтовичек, которые возвращаются в послевоенный Ленинград и пытаются обрести новую мирную жизнь, когда и вокруг, и главное, внутри них — руины.- -Качество: BDRip 1080p
Формат: MKV
Кодек: MPEG-4 AVC
Видео: 1920x1040 (1,85:1), 23,976 fps, MPEG-4 AVC ~ 20,5 Мbps avg, 0.429 bit/pixel
Аудио: AC3, 48 kHz, 6 ch, ~640.00 kbps avg | русский | Blu-ray US
Аудио: DTS, 48 kHz, 6 ch, ~1510.00 kbps avg | русский | Blu-ray US
Субтитры: Английские (Forced)-

Инфо-файл

Общее
Уникальный идентификатор : 138477183745531784489297135921820874654 (0x682DBC4859EF2611C859838A5128379E)
Полное имя : Dylda.2020.1080p.BluRay.DTS.x264.mkv
Формат : Matroska
Версия формата : Version 4
Размер файла : 21,8 Гбайт
Продолжительность : 2 ч. 17 м.
Общий поток : 22,7 Мбит/сек
Название фильма : Дылда (2019)
Дата кодирования : UTC 2020-06-03 18:05:38
Программа кодирования : mkvmerge v47.0.0 ('Black Flag') 64-bit
Библиотека кодирования : libebml v1.3.10 + libmatroska v1.5.2
Обложка : Yes
Attachments : cover.jpg
Видео
Идентификатор : 1
Формат : AVC
Формат/Информация : Advanced Video Codec
Профиль формата : [email protected]
Настройки формата : CABAC / 4 Ref Frames
Параметр CABAC формата : Да
Параметр RefFrames формата : 4 кадра
Идентификатор кодека : V_MPEG4/ISO/AVC
Продолжительность : 2 ч. 17 м.
Битрейт : 20,5 Мбит/сек
Ширина : 1 920 пикселей
Высота : 1 040 пикселей
Соотношение сторон : 1,85:1
Режим частоты кадров : Постоянный
Частота кадров : 23,976 (24000/1001) кадра/сек
Цветовое пространство : YUV
Субдискретизация насыщенности : 4:2:0
Битовая глубина : 8 бит
Тип развёртки : Прогрессивная
Бит/(Пиксели*Кадры) : 0.429
Размер потока : 19,7 Гбайт (91%)
Библиотека кодирования : x264 core 160 r3000 33f9e14
Настройки программы : cabac=1 / ref=4 / deblock=1:-3:-3 / analyse=0x3:0x133 / me=umh / subme=9 / psy=1 / psy_rd=1.00:0.00 / mixed_ref=1 / me_range=32 / chroma_me=1 / trellis=2 / 8x8dct=1 / cqm=0 / deadzone=21,11 / fast_pskip=0 / chroma_qp_offset=-2 / threads=24 / lookahead_threads=4 / sliced_threads=0 / nr=0 / decimate=0 / interlaced=0 / bluray_compat=0 / constrained_intra=0 / bframes=9 / b_pyramid=2 / b_adapt=2 / b_bias=0 / direct=3 / weightb=1 / open_gop=0 / weightp=2 / keyint=250 / keyint_min=23 / scenecut=40 / intra_refresh=0 / rc=crf / mbtree=0 / crf=19.0 / qcomp=0.60 / qpmin=0 / qpmax=69 / qpstep=4 / ip_ratio=1.40 / pb_ratio=1.30 / aq=3:0.88
Default : Да
Forced : Нет
Цветовой диапазон : Limited
Основные цвета : BT.709
Характеристики трансфера : BT.709
Коэффициенты матрицы : BT.709
Аудио #1
Идентификатор : 2
Формат : AC-3
Формат/Информация : Audio Coding 3
Коммерческое название : Dolby Digital
Идентификатор кодека : A_AC3
Продолжительность : 2 ч. 17 м.
Вид битрейта : Постоянный
Битрейт : 640 Кбит/сек
Каналы : 6 каналов
Channel layout : L R C LFE Ls Rs
Частота : 48,0 КГц
Частота кадров : 31,250 кадров/сек (1536 SPF)
Метод сжатия : С потерями
Размер потока : 630 Мбайт (3%)
Заголовок : Blu-ray US
Язык : Russian
Default : Да
Forced : Да
Аудио #2
Идентификатор : 3
Формат : DTS
Формат/Информация : Digital Theater Systems
Идентификатор кодека : A_DTS
Продолжительность : 2 ч. 17 м.
Вид битрейта : Постоянный
Битрейт : 1 510 Кбит/сек
Каналы : 6 каналов
Channel layout : C L R Ls Rs LFE
Частота : 48,0 КГц
Частота кадров : 93,750 кадра/сек (512 SPF)
Битовая глубина : 24 бит
Метод сжатия : С потерями
Размер потока : 1,45 Гбайт (7%)
Заголовок : Blu-ray US
Язык : Russian
Default : Нет
Forced : Нет
Текст
Идентификатор : 4
Формат : UTF-8
Идентификатор кодека : S_TEXT/UTF8
Идентификатор кодека/Информация : UTF-8 Plain Text
Продолжительность : 2 ч. 11 м.
Битрейт : 20 бит/сек
Count of elements : 884
Размер потока : 20,1 Кбайт (0%)
Заголовок : Forced
Язык : English
Default : Нет
Forced : Нет
Меню
00:00:00.000 : en:Chapter 01
00:13:12.333 : en:Chapter 02
00:27:17.719 : en:Chapter 03
00:39:30.410 : en:Chapter 04
00:52:52.419 : en:Chapter 05
01:04:27.113 : en:Chapter 06
01:17:39.822 : en:Chapter 07
01:31:40.245 : en:Chapter 08
01:48:10.359 : en:Chapter 09
02:02:24.379 : en:Chapter 10

Скриншоты

         

Kon912

Post 04-Jun-2020 00:24

[Quote]

Дылда- Год выхода: 2019
Страна: Россия
Студия: Нон-стоп Продакшн
Продолжительность: 02:17:31
Жанр: Драма, военный
Перевод: Не требуется | Лицензия Blu-ray US-Режиссер:
Кантемир Балагов-В ролях:
Виктория Мирошниченко, Василиса Перелыгина, Андрей Быков, Игорь Широков, Константин Балакирев, Ксения Кутепова, Ольга Драгунова, Тимофей Глазков, Филипп Жлоба, Наталия Кутанина-О фильме:
История двух молодых женщин-фронтовичек, которые возвращаются в послевоенный Ленинград и пытаются обрести новую мирную жизнь, когда и вокруг, и главное, внутри них — руины.- -Качество: BDRip 720p
Формат: MKV
Кодек: MPEG-4 AVC
Видео: 1280x694 (1,85:1), 23,976 fps, MPEG-4 AVC ~ 9993 Кbps avg, 0.469 bit/pixel
Аудио: AC3, 48 kHz, 6 ch, ~640.00 kbps avg | русский | Blu-ray US
Аудио: DTS, 48 kHz, 6 ch, ~1510.00 kbps avg | русский | Blu-ray US
Субтитры: Английские (Forced)-

Инфо-файл

Общее
Уникальный идентификатор : 77979672848821834454077184899375283563 (0x3AAA56B4FF6D254A559CDE47C2E1BD6B)
Полное имя : Dylda.2020.720p.BluRay.DTS.x264.mkv
Формат : Matroska
Версия формата : Version 4
Размер файла : 11,7 Гбайт
Продолжительность : 2 ч. 17 м.
Общий поток : 12,1 Мбит/сек
Название фильма : Дылда (2019)
Дата кодирования : UTC 2020-06-03 17:54:55
Программа кодирования : mkvmerge v47.0.0 ('Black Flag') 64-bit
Библиотека кодирования : libebml v1.3.10 + libmatroska v1.5.2
Обложка : Yes
Attachments : cover.jpg
Видео
Идентификатор : 1
Формат : AVC
Формат/Информация : Advanced Video Codec
Профиль формата : [email protected]
Настройки формата : CABAC / 8 Ref Frames
Параметр CABAC формата : Да
Параметр RefFrames формата : 8 кадров
Идентификатор кодека : V_MPEG4/ISO/AVC
Продолжительность : 2 ч. 17 м.
Битрейт : 9 993 Кбит/сек
Ширина : 1 280 пикселей
Высота : 694 пикселя
Соотношение сторон : 1,85:1
Режим частоты кадров : Постоянный
Частота кадров : 23,976 (24000/1001) кадра/сек
Цветовое пространство : YUV
Субдискретизация насыщенности : 4:2:0
Битовая глубина : 8 бит
Тип развёртки : Прогрессивная
Бит/(Пиксели*Кадры) : 0.469
Размер потока : 9,60 Гбайт (82%)
Библиотека кодирования : x264 core 160 r3000 33f9e14
Настройки программы : cabac=1 / ref=8 / deblock=1:-3:-3 / analyse=0x3:0x133 / me=umh / subme=9 / psy=1 / psy_rd=1.00:0.00 / mixed_ref=1 / me_range=32 / chroma_me=1 / trellis=2 / 8x8dct=1 / cqm=0 / deadzone=21,11 / fast_pskip=0 / chroma_qp_offset=-2 / threads=22 / lookahead_threads=3 / sliced_threads=0 / nr=0 / decimate=0 / interlaced=0 / bluray_compat=0 / constrained_intra=0 / bframes=9 / b_pyramid=2 / b_adapt=2 / b_bias=0 / direct=3 / weightb=1 / open_gop=0 / weightp=2 / keyint=250 / keyint_min=23 / scenecut=40 / intra_refresh=0 / rc=crf / mbtree=0 / crf=18.0 / qcomp=0.60 / qpmin=0 / qpmax=69 / qpstep=4 / ip_ratio=1.40 / pb_ratio=1.30 / aq=3:0.88
Default : Да
Forced : Нет
Цветовой диапазон : Limited
Основные цвета : BT.709
Характеристики трансфера : BT.709
Коэффициенты матрицы : BT.709
Аудио #1
Идентификатор : 2
Формат : AC-3
Формат/Информация : Audio Coding 3
Коммерческое название : Dolby Digital
Идентификатор кодека : A_AC3
Продолжительность : 2 ч. 17 м.
Вид битрейта : Постоянный
Битрейт : 640 Кбит/сек
Каналы : 6 каналов
Channel layout : L R C LFE Ls Rs
Частота : 48,0 КГц
Частота кадров : 31,250 кадров/сек (1536 SPF)
Метод сжатия : С потерями
Размер потока : 630 Мбайт (5%)
Заголовок : Blu-ray US
Язык : Russian
Default : Да
Forced : Да
Аудио #2
Идентификатор : 3
Формат : DTS
Формат/Информация : Digital Theater Systems
Идентификатор кодека : A_DTS
Продолжительность : 2 ч. 17 м.
Вид битрейта : Постоянный
Битрейт : 1 510 Кбит/сек
Каналы : 6 каналов
Channel layout : C L R Ls Rs LFE
Частота : 48,0 КГц
Частота кадров : 93,750 кадра/сек (512 SPF)
Битовая глубина : 24 бит
Метод сжатия : С потерями
Размер потока : 1,45 Гбайт (12%)
Заголовок : Blu-ray US
Язык : Russian
Default : Нет
Forced : Нет
Текст
Идентификатор : 4
Формат : UTF-8
Идентификатор кодека : S_TEXT/UTF8
Идентификатор кодека/Информация : UTF-8 Plain Text
Продолжительность : 2 ч. 11 м.
Битрейт : 20 бит/сек
Count of elements : 884
Размер потока : 20,1 Кбайт (0%)
Заголовок : Forced
Язык : English
Default : Нет
Forced : Нет
Меню
00:00:00.000 : en:Chapter 01
00:13:12.333 : en:Chapter 02
00:27:17.719 : en:Chapter 03
00:39:30.410 : en:Chapter 04
00:52:52.419 : en:Chapter 05
01:04:27.113 : en:Chapter 06
01:17:39.822 : en:Chapter 07
01:31:40.245 : en:Chapter 08
01:48:10.359 : en:Chapter 09
02:02:24.379 : en:Chapter 10

Скриншоты

         
 

The time now is: Today 09:00

All times are GMT + 3 Hours