Today is a free download without charge Download

Search found 500 matches

Author Message

Kon912

Post Today 22:44

[Quote]

Предатель / Il traditore / The Traitor- Год выхода: 2019
Страна: Италия, Франция, Бразилия, Германия
Студия: IBC Movie, Kavac Film, Rai Cinema
Жанр: Драма, биография, криминал
Продолжительность: 02:31:46
Перевод: Дублированный | iTunes-Режиссер:
Марко Беллоккьо-В ролях:
Пьерфранческо Фавино, Луиджи Ло Кашио, Фаусто Руссо Алези, Мария Фернанда Кандиду, Фабрицио Ферракане, Кали Никола, Джованни Калканьо, Бруно Карьелло, Бебо Сторти, Винченцо Пирротта-О фильме:
В начале 1980-х между боссами сицилийской мафии разгорается война за героиновый рынок. Один из мафиози, Томмазо Бушетта, пытается скрыться в Бразилии. В то время, как на его родине начинается бойня, Бушетта вынужден издалека наблюдать за тем, как его сыновей и братьев убивают в Палермо. Он понимает, что может стать следующим. Бразильская полиция арестовывает Бушетту и экстрадирует его в Италию. Мафиози принимает решение, которое кардинально изменит ситуацию для мафии, - он встречается с судьёй Джованни Фальконе и нарушает священную клятву, которую он дал Коза Ностре.- -Качество: BDRemux 1080p
Формат: MKV
Видео: MPEG-4 AVC, 1920x1080, 20.0 Mbit/s, 23.976 fps
Аудио #01: 48 kHz, AC3, 5.1, 384 Kbps | iTunes | RUS |
Аудио #02: 48 kHz, DTS-HD MA, 5.1, 1870 Kbps | Оригинал | ITA |
Субтитры: Русские (Forced), английские-

Скриншоты

       

MI

General
Unique ID : 320394415387122161610945371192649816150 (0xF109B848CCF8E7B77AD2691057AF9856)
Complete name : E:Video111The.Traitor.2019.BDREMUX.1080p.seleZen.mkv
Format : Matroska
Format version : Version 4
File size : 23.6 GiB
Duration : 2 h 31 min
Overall bit rate mode : Variable
Overall bit rate : 22.2 Mb/s
Movie name : The Traitor 2019 from селезень
Encoded date : UTC 2020-02-06 18:41:30
Writing application : mkvmerge v40.0.0 ('Old Town Road + Pony') 64-bit
Writing library : libebml v1.3.9 + libmatroska v1.5.2
Video
ID : 1
Format : AVC
Format/Info : Advanced Video Codec
Format profile : [email protected]
Format settings : CABAC / 4 Ref Frames
Format settings, CABAC : Yes
Format settings, Reference : 4 frames
Format settings, GOP : M=3, N=24
Codec ID : V_MPEG4/ISO/AVC
Duration : 2 h 31 min
Bit rate mode : Variable
Bit rate : 20.0 Mb/s
Maximum bit rate : 35.0 Mb/s
Width : 1 920 pixels
Height : 1 080 pixels
Display aspect ratio : 16:9
Frame rate mode : Constant
Frame rate : 23.976 (24000/1001) FPS
Standard : NTSC
Color space : YUV
Chroma subsampling : 4:2:0
Bit depth : 8 bits
Scan type : Progressive
Bits/(Pixel*Frame) : 0.402
Stream size : 21.2 GiB (90%)
Language : Italian
Default : Yes
Forced : No
Color range : Limited
Color primaries : BT.709
Transfer characteristics : BT.709
Matrix coefficients : BT.709
Audio #1
ID : 2
Format : AC-3
Format/Info : Audio Coding 3
Commercial name : Dolby Digital
Codec ID : A_AC3
Duration : 2 h 31 min
Bit rate mode : Constant
Bit rate : 384 kb/s
Channel(s) : 6 channels
Channel layout : L R C LFE Ls Rs
Sampling rate : 48.0 kHz
Frame rate : 31.250 FPS (1536 SPF)
Compression mode : Lossy
Stream size : 416 MiB (2%)
Title : iTunes
Language : Russian
Service kind : Complete Main
Default : Yes
Forced : Yes
Audio #2
ID : 3
Format : DTS XLL
Format/Info : Digital Theater Systems
Commercial name : DTS-HD Master Audio
Codec ID : A_DTS
Duration : 2 h 31 min
Bit rate mode : Variable
Bit rate : 1 870 kb/s
Channel(s) : 6 channels
Channel layout : C L R Ls Rs LFE
Sampling rate : 48.0 kHz
Frame rate : 93.750 FPS (512 SPF)
Bit depth : 16 bits
Compression mode : Lossless
Stream size : 1.98 GiB (8%)
Title : Original
Language : Italian
Default : No
Forced : No
Text #1
ID : 4
Format : UTF-8
Codec ID : S_TEXT/UTF8
Codec ID/Info : UTF-8 Plain Text
Duration : 41 min 1 s
Bit rate : 0 b/s
Count of elements : 3
Stream size : 148 Bytes (0%)
Title : Forced
Language : Russian
Default : Yes
Forced : Yes
Text #2
ID : 5
Format : UTF-8
Codec ID : S_TEXT/UTF8
Codec ID/Info : UTF-8 Plain Text
Duration : 2 h 21 min
Bit rate : 47 b/s
Count of elements : 1512
Stream size : 49.8 KiB (0%)
Title : Full
Language : English
Default : No
Forced : No
Menu
00:00:00.000 : :Chapter 01
00:11:01.577 : :Chapter 02
00:25:06.046 : :Chapter 03
00:40:19.792 : :Chapter 04
01:11:11.934 : :Chapter 05
01:18:45.345 : :Chapter 06
01:29:46.589 : :Chapter 07
01:36:46.550 : :Chapter 08
01:47:30.944 : :Chapter 09
01:52:13.393 : :Chapter 10
02:06:50.060 : :Chapter 11
02:15:47.222 : :Chapter 12
Релиз от:

Kon912

Post Today 22:41

[Quote]

Предатель / Il traditore / The Traitor- Год выхода: 2019
Страна: Италия, Франция, Бразилия, Германия
Студия: IBC Movie, Kavac Film, Rai Cinema
Жанр: Драма, биография, криминал
Продолжительность: 02:31:46
Перевод: Дублированный | iTunes-Режиссер:
Марко Беллоккьо-В ролях:
Пьерфранческо Фавино, Луиджи Ло Кашио, Фаусто Руссо Алези, Мария Фернанда Кандиду, Фабрицио Ферракане, Кали Никола, Джованни Калканьо, Бруно Карьелло, Бебо Сторти, Винченцо Пирротта-О фильме:
В начале 1980-х между боссами сицилийской мафии разгорается война за героиновый рынок. Один из мафиози, Томмазо Бушетта, пытается скрыться в Бразилии. В то время, как на его родине начинается бойня, Бушетта вынужден издалека наблюдать за тем, как его сыновей и братьев убивают в Палермо. Он понимает, что может стать следующим. Бразильская полиция арестовывает Бушетту и экстрадирует его в Италию. Мафиози принимает решение, которое кардинально изменит ситуацию для мафии, - он встречается с судьёй Джованни Фальконе и нарушает священную клятву, которую он дал Коза Ностре.- -Качество: BDRip 1080p
Видео: MPEG-4 AVC, 1920x1038, 10.0 Mbit/s, 23.976 fps
Аудио #01: 48 kHz, AC3, 5.1, 384 Kbps | iTunes | RUS |
Аудио #02: 48 kHz, AC3, 5.1, 640 Kbps | Оригинал | ITA |
Субтитры: Русские (Forced), английские-

Скриншоты

       

MI

General
Unique ID : 296892050319965455903451107297108010004 (0xDF5B543917E157875EB4D6D1F4D1A414)
Complete name : E:Video111The.Traitor.2019.BDRip.1080p.seleZen.mkv
Format : Matroska
Format version : Version 4
File size : 11.7 GiB
Duration : 2 h 31 min
Overall bit rate : 11.0 Mb/s
Movie name : The Traitor 2019 from селезень
Encoded date : UTC 2020-02-06 06:45:07
Writing application : mkvmerge v40.0.0 ('Old Town Road + Pony') 64-bit
Writing library : libebml v1.3.9 + libmatroska v1.5.2
Video
ID : 1
Format : AVC
Format/Info : Advanced Video Codec
Format profile : [email protected]
Format settings : CABAC / 4 Ref Frames
Format settings, CABAC : Yes
Format settings, Reference : 4 frames
Codec ID : V_MPEG4/ISO/AVC
Duration : 2 h 31 min
Bit rate : 10 000 kb/s
Width : 1 920 pixels
Height : 1 038 pixels
Display aspect ratio : 1.85:1
Frame rate mode : Constant
Frame rate : 23.976 (24000/1001) FPS
Color space : YUV
Chroma subsampling : 4:2:0
Bit depth : 8 bits
Scan type : Progressive
Bits/(Pixel*Frame) : 0.209
Stream size : 10.6 GiB (91%)
Title : Encoded by seleZen
Writing library : x264 core 142 r2431+42 c69a006 tMod [[email protected] X86_64]
Encoding settings : cabac=1 / ref=4 / deblock=1:-2:-2 / analyse=0x3:0x133 / me=umh / subme=10 / psy=1 / fade_compensate=0.00 / psy_rd=1.01:0.00 / mixed_ref=1 / me_range=32 / chroma_me=1 / trellis=2 / 8x8dct=1 / cqm=0 / deadzone=21,11 / fast_pskip=0 / chroma_qp_offset=-2 / threads=24 / lookahead_threads=4 / sliced_threads=0 / nr=0 / decimate=0 / interlaced=0 / bluray_compat=0 / constrained_intra=0 / fgo=0 / bframes=8 / b_pyramid=2 / b_adapt=2 / b_bias=0 / direct=3 / weightb=1 / open_gop=0 / weightp=2 / keyint=240 / keyint_min=23 / scenecut=40 / intra_refresh=0 / rc_lookahead=50 / rc=2pass / mbtree=0 / bitrate=10000 / ratetol=1.0 / qcomp=0.60 / qpmin=0:0:0 / qpmax=51:51:51 / qpstep=4 / cplxblur=20.0 / qblur=0.5 / vbv_maxrate=50000 / vbv_bufsize=62500 / nal_hrd=none / filler=0 / ip_ratio=1.40 / pb_ratio=1.30 / aq=3:0.80 / aq-sensitivity=10.00 / aq-factor=1.00:1.00:1.00 / aq2=0 / aq3=0
Language : English
Default : Yes
Forced : No
Audio #1
ID : 2
Format : AC-3
Format/Info : Audio Coding 3
Commercial name : Dolby Digital
Codec ID : A_AC3
Duration : 2 h 31 min
Bit rate mode : Constant
Bit rate : 384 kb/s
Channel(s) : 6 channels
Channel layout : L R C LFE Ls Rs
Sampling rate : 48.0 kHz
Frame rate : 31.250 FPS (1536 SPF)
Compression mode : Lossy
Stream size : 416 MiB (3%)
Title : iTunes
Language : Russian
Service kind : Complete Main
Default : Yes
Forced : Yes
Audio #2
ID : 3
Format : AC-3
Format/Info : Audio Coding 3
Commercial name : Dolby Digital
Codec ID : A_AC3
Duration : 2 h 31 min
Bit rate mode : Constant
Bit rate : 640 kb/s
Channel(s) : 6 channels
Channel layout : L R C LFE Ls Rs
Sampling rate : 48.0 kHz
Frame rate : 31.250 FPS (1536 SPF)
Compression mode : Lossy
Stream size : 694 MiB (6%)
Title : Original
Language : Italian
Service kind : Complete Main
Default : No
Forced : No
Text #1
ID : 4
Format : UTF-8
Codec ID : S_TEXT/UTF8
Codec ID/Info : UTF-8 Plain Text
Duration : 41 min 1 s
Bit rate : 0 b/s
Count of elements : 3
Stream size : 148 Bytes (0%)
Title : Forced
Language : Russian
Default : Yes
Forced : Yes
Text #2
ID : 5
Format : UTF-8
Codec ID : S_TEXT/UTF8
Codec ID/Info : UTF-8 Plain Text
Duration : 2 h 21 min
Bit rate : 47 b/s
Count of elements : 1512
Stream size : 49.8 KiB (0%)
Title : Full
Language : English
Default : No
Forced : No
Menu
00:00:00.000 : :Chapter 01
00:11:01.577 : :Chapter 02
00:25:06.046 : :Chapter 03
00:40:19.792 : :Chapter 04
01:11:11.934 : :Chapter 05
01:18:45.345 : :Chapter 06
01:29:46.589 : :Chapter 07
01:36:46.550 : :Chapter 08
01:47:30.944 : :Chapter 09
01:52:13.393 : :Chapter 10
02:06:50.060 : :Chapter 11
02:15:47.222 : :Chapter 12
Релиз от:

Kon912

Post Today 22:39

[Quote]

Предатель / Il traditore / The Traitor- Год выхода: 2019
Страна: Италия, Франция, Бразилия, Германия
Студия: IBC Movie, Kavac Film, Rai Cinema
Жанр: Драма, биография, криминал
Продолжительность: 02:31:46
Перевод: Дублированный | iTunes-Режиссер:
Марко Беллоккьо-В ролях:
Пьерфранческо Фавино, Луиджи Ло Кашио, Фаусто Руссо Алези, Мария Фернанда Кандиду, Фабрицио Ферракане, Кали Никола, Джованни Калканьо, Бруно Карьелло, Бебо Сторти, Винченцо Пирротта-О фильме:
В начале 1980-х между боссами сицилийской мафии разгорается война за героиновый рынок. Один из мафиози, Томмазо Бушетта, пытается скрыться в Бразилии. В то время, как на его родине начинается бойня, Бушетта вынужден издалека наблюдать за тем, как его сыновей и братьев убивают в Палермо. Он понимает, что может стать следующим. Бразильская полиция арестовывает Бушетту и экстрадирует его в Италию. Мафиози принимает решение, которое кардинально изменит ситуацию для мафии, - он встречается с судьёй Джованни Фальконе и нарушает священную клятву, которую он дал Коза Ностре.- -Качество: BDRip 720p
Формат: MKV
Видео: MPEG-4 AVC, 1280x692, 6254 Kbit/s, 23.976 fps
Аудио #01: 48 kHz, AC3, 5.1, 384 Kbps | iTunes | RUS |
Аудио #02: 48 kHz, AC3, 5.1, 640 Kbps | Оригинал | ITA |
Субтитры: Русские (Forced), английские-

Скриншоты

       

MI

General
Unique ID : 91125435823936181250042142181508241054 (0x448E1EDCAF05247E3404CCAE5DA3D69E)
Complete name : E:Video111The.Traitor.2019.BDRip.720p.seleZen.mkv
Format : Matroska
Format version : Version 4
File size : 7.70 GiB
Duration : 2 h 31 min
Overall bit rate : 7 263 kb/s
Movie name : The Traitor 2019 from селезень
Encoded date : UTC 2020-02-06 07:43:29
Writing application : mkvmerge v40.0.0 ('Old Town Road + Pony') 64-bit
Writing library : libebml v1.3.9 + libmatroska v1.5.2
Video
ID : 1
Format : AVC
Format/Info : Advanced Video Codec
Format profile : [email protected]
Format settings : CABAC / 9 Ref Frames
Format settings, CABAC : Yes
Format settings, Reference : 9 frames
Codec ID : V_MPEG4/ISO/AVC
Duration : 2 h 31 min
Bit rate : 6 254 kb/s
Width : 1 280 pixels
Height : 692 pixels
Display aspect ratio : 1.85:1
Frame rate mode : Constant
Frame rate : 23.976 (24000/1001) FPS
Color space : YUV
Chroma subsampling : 4:2:0
Bit depth : 8 bits
Scan type : Progressive
Bits/(Pixel*Frame) : 0.294
Stream size : 6.61 GiB (86%)
Title : Encoded by seleZen
Writing library : x264 core 142 r2431+42 c69a006 tMod [[email protected] X86_64]
Encoding settings : cabac=1 / ref=9 / deblock=1:-2:-2 / analyse=0x3:0x133 / me=umh / subme=10 / psy=1 / fade_compensate=0.00 / psy_rd=1.01:0.00 / mixed_ref=1 / me_range=32 / chroma_me=1 / trellis=2 / 8x8dct=1 / cqm=0 / deadzone=21,11 / fast_pskip=0 / chroma_qp_offset=-2 / threads=24 / lookahead_threads=4 / sliced_threads=0 / nr=0 / decimate=0 / interlaced=0 / bluray_compat=0 / constrained_intra=0 / fgo=0 / bframes=8 / b_pyramid=2 / b_adapt=2 / b_bias=0 / direct=3 / weightb=1 / open_gop=0 / weightp=2 / keyint=240 / keyint_min=23 / scenecut=40 / intra_refresh=0 / rc_lookahead=50 / rc=2pass / mbtree=0 / bitrate=6254 / ratetol=1.0 / qcomp=0.60 / qpmin=0:0:0 / qpmax=51:51:51 / qpstep=4 / cplxblur=20.0 / qblur=0.5 / vbv_maxrate=50000 / vbv_bufsize=62500 / nal_hrd=none / filler=0 / ip_ratio=1.40 / pb_ratio=1.30 / aq=3:0.80 / aq-sensitivity=10.00 / aq-factor=1.00:1.00:1.00 / aq2=0 / aq3=0
Language : English
Default : Yes
Forced : No
Audio #1
ID : 2
Format : AC-3
Format/Info : Audio Coding 3
Commercial name : Dolby Digital
Codec ID : A_AC3
Duration : 2 h 31 min
Bit rate mode : Constant
Bit rate : 384 kb/s
Channel(s) : 6 channels
Channel layout : L R C LFE Ls Rs
Sampling rate : 48.0 kHz
Frame rate : 31.250 FPS (1536 SPF)
Compression mode : Lossy
Stream size : 416 MiB (5%)
Title : iTunes
Language : Russian
Service kind : Complete Main
Default : Yes
Forced : Yes
Audio #2
ID : 3
Format : AC-3
Format/Info : Audio Coding 3
Commercial name : Dolby Digital
Codec ID : A_AC3
Duration : 2 h 31 min
Bit rate mode : Constant
Bit rate : 640 kb/s
Channel(s) : 6 channels
Channel layout : L R C LFE Ls Rs
Sampling rate : 48.0 kHz
Frame rate : 31.250 FPS (1536 SPF)
Compression mode : Lossy
Stream size : 694 MiB (9%)
Title : Original
Language : Italian
Service kind : Complete Main
Default : No
Forced : No
Text #1
ID : 4
Format : UTF-8
Codec ID : S_TEXT/UTF8
Codec ID/Info : UTF-8 Plain Text
Duration : 41 min 1 s
Bit rate : 0 b/s
Count of elements : 3
Stream size : 148 Bytes (0%)
Title : Forced
Language : Russian
Default : Yes
Forced : Yes
Text #2
ID : 5
Format : UTF-8
Codec ID : S_TEXT/UTF8
Codec ID/Info : UTF-8 Plain Text
Duration : 2 h 21 min
Bit rate : 47 b/s
Count of elements : 1512
Stream size : 49.8 KiB (0%)
Title : Full
Language : English
Default : No
Forced : No
Menu
00:00:00.000 : :Chapter 01
00:11:01.577 : :Chapter 02
00:25:06.046 : :Chapter 03
00:40:19.792 : :Chapter 04
01:11:11.934 : :Chapter 05
01:18:45.345 : :Chapter 06
01:29:46.589 : :Chapter 07
01:36:46.550 : :Chapter 08
01:47:30.944 : :Chapter 09
01:52:13.393 : :Chapter 10
02:06:50.060 : :Chapter 11
02:15:47.222 : :Chapter 12
Релиз от:

Kon912

Post Today 22:23

[Quote]

Маленькая мисс Дулиттл / Liliane Susewind - Ein tierisches Abenteuer / Little Miss Doolittle- Год выхода: 2018
Страна: Германия
Студия: Dreamtool Entertainment, Velvet Films
Жанр: Фэнтези, комедия, криминал, семейный
Продолжительность: 01:40:56
Перевод: Дублированный | iTunes-Режиссер:
Йоахим Масаннек-В ролях:
Пери Баумейстер, Айлин Тецель, Кристоф Мария Хербст, Мерет Беккер, Том Бек, Малу Ляйхер, Аарон Кисёв, Фелис Аренс, Даниэль Цильман, Арвед Бирнбаум-О фильме:
Рыжеволосая Лилиан не просто обожает животных, но и умеет понимать их язык и отвечать им. О ее невероятной способности знают только члены семьи, и они всячески оберегают тайну. Но любым тайнам в свое время всегда приходит конец, особенно если на кону стоит спасение зоопарка.- -Качество: BDRemux 1080p
Формат: MKV
Видео: MPEG-4 AVC, 1920x1080, 24.1 Mbit/s, 23.976 fps
Аудио #01: 48 kHz, AC3, 5.1, 384 Kbps | iTunes | RUS |
Аудио #02: 48 kHz, DTS-HD MA, 5.1, 3915 Kbps | Оригинал | ENG |
Субтитры: Русские (Forced [на непереведенные места]), английские-

Скриншоты

       
*С 01:09:26 по 01:10:48 (~ полторы минуты) отсутствует перевод. Этот отрезок времени переведен субтитрами.

MI

General
Unique ID : 149018699749489051632200402063488637207 (0x701BF526115E10C169A6E04A183ED917)
Complete name : E:Video111Little.Miss.Doolittle.2018.BDREMUX.1080.seleZen.mkv
Format : Matroska
Format version : Version 4
File size : 20.1 GiB
Duration : 1 h 40 min
Overall bit rate mode : Variable
Overall bit rate : 28.4 Mb/s
Encoded date : UTC 2020-02-06 21:56:34
Writing application : mkvmerge v40.0.0 ('Old Town Road + Pony') 64-bit
Writing library : libebml v1.3.9 + libmatroska v1.5.2
Video
ID : 1
Format : AVC
Format/Info : Advanced Video Codec
Format profile : [email protected]
Format settings : CABAC / 4 Ref Frames
Format settings, CABAC : Yes
Format settings, Reference : 4 frames
Codec ID : V_MPEG4/ISO/AVC
Duration : 1 h 40 min
Bit rate mode : Variable
Bit rate : 24.1 Mb/s
Maximum bit rate : 35.0 Mb/s
Width : 1 920 pixels
Height : 1 080 pixels
Display aspect ratio : 16:9
Frame rate mode : Constant
Frame rate : 23.976 (24000/1001) FPS
Standard : NTSC
Color space : YUV
Chroma subsampling : 4:2:0
Bit depth : 8 bits
Scan type : Progressive
Bits/(Pixel*Frame) : 0.486
Stream size : 17.0 GiB (85%)
Language : English
Default : Yes
Forced : No
Color range : Limited
Color primaries : BT.709
Transfer characteristics : BT.709
Matrix coefficients : BT.709
Audio #1
ID : 2
Format : AC-3
Format/Info : Audio Coding 3
Commercial name : Dolby Digital
Codec ID : A_AC3
Duration : 1 h 40 min
Bit rate mode : Constant
Bit rate : 384 kb/s
Channel(s) : 6 channels
Channel layout : L R C LFE Ls Rs
Sampling rate : 48.0 kHz
Frame rate : 31.250 FPS (1536 SPF)
Compression mode : Lossy
Stream size : 277 MiB (1%)
Title : iTunes
Language : Russian
Service kind : Complete Main
Default : Yes
Forced : Yes
Audio #2
ID : 3
Format : DTS XLL
Format/Info : Digital Theater Systems
Commercial name : DTS-HD Master Audio
Codec ID : A_DTS
Duration : 1 h 40 min
Bit rate mode : Variable
Bit rate : 3 915 kb/s
Channel(s) : 6 channels
Channel layout : C L R Ls Rs LFE
Sampling rate : 48.0 kHz
Frame rate : 93.750 FPS (512 SPF)
Bit depth : 24 bits
Compression mode : Lossless
Stream size : 2.76 GiB (14%)
Title : Original
Language : English
Default : No
Forced : No
Text #1
ID : 4
Format : UTF-8
Codec ID : S_TEXT/UTF8
Codec ID/Info : UTF-8 Plain Text
Duration : 1 min 22 s
Bit rate : 112 b/s
Count of elements : 20
Stream size : 1.14 KiB (0%)
Title : Forced [на непереведенные места]
Language : Russian
Default : Yes
Forced : Yes
Text #2
ID : 5
Format : UTF-8
Codec ID : S_TEXT/UTF8
Codec ID/Info : UTF-8 Plain Text
Duration : 1 h 36 min
Bit rate : 61 b/s
Count of elements : 1386
Stream size : 43.8 KiB (0%)
Title : SDH
Language : English
Default : No
Forced : No
Menu
00:00:00.000 : en:Глава 01
00:07:11.514 : en:Глава 02
00:15:21.504 : en:Глава 03
00:23:46.425 : en:Глава 04
00:33:07.527 : en:Глава 05
00:42:49.692 : en:Глава 06
00:51:15.239 : en:Глава 07
01:00:49.271 : en:Глава 08
01:08:14.090 : en:Глава 09
01:16:45.559 : en:Глава 10
01:24:02.788 : en:Глава 11
01:31:32.445 : en:Глава 12
Релиз от:

Kon912

Post Today 22:23

[Quote]

Маленькая мисс Дулиттл / Liliane Susewind - Ein tierisches Abenteuer / Little Miss Doolittle- Год выхода: 2018
Страна: Германия
Студия: Dreamtool Entertainment, Velvet Films
Жанр: Фэнтези, комедия, криминал, семейный
Продолжительность: 01:40:56
Перевод: Дублированный | iTunes-Режиссер:
Йоахим Масаннек-В ролях:
Пери Баумейстер, Айлин Тецель, Кристоф Мария Хербст, Мерет Беккер, Том Бек, Малу Ляйхер, Аарон Кисёв, Фелис Аренс, Даниэль Цильман, Арвед Бирнбаум-О фильме:
Рыжеволосая Лилиан не просто обожает животных, но и умеет понимать их язык и отвечать им. О ее невероятной способности знают только члены семьи, и они всячески оберегают тайну. Но любым тайнам в свое время всегда приходит конец, особенно если на кону стоит спасение зоопарка.- -Качество: BDRip 1080p
Формат: MKV
Видео: MPEG-4 AVC, 1920x804, 10.0 Mbit/s, 23.976 fps
Аудио #01: 48 kHz, AC3, 5.1, 384 Kbps | iTunes | RUS |
Аудио #02: 48 kHz, AC3, 5.1, 640 Kbps | Оригинал | ENG |
Субтитры: Русские (Forced [на непереведенные места]), английские-

Скриншоты

       
*С 01:09:26 по 01:10:48 (~ полторы минуты) отсутствует перевод. Этот отрезок времени переведен субтитрами.

MI

General
Unique ID : 199111840028964018247859213882147820308 (0x95CB8BA5D8F6E98A94C0869D043D5314)
Complete name : E:Video111Little.Miss.Doolittle.2018.BDRip.1080.seleZen.mkv
Format : Matroska
Format version : Version 4
File size : 7.75 GiB
Duration : 1 h 40 min
Overall bit rate : 11.0 Mb/s
Movie name : Little Miss Doolittle 2018 from селезень
Encoded date : UTC 2020-02-07 16:43:40
Writing application : mkvmerge v40.0.0 ('Old Town Road + Pony') 64-bit
Writing library : libebml v1.3.9 + libmatroska v1.5.2
Video
ID : 1
Format : AVC
Format/Info : Advanced Video Codec
Format profile : [email protected]
Format settings : CABAC / 5 Ref Frames
Format settings, CABAC : Yes
Format settings, Reference : 5 frames
Codec ID : V_MPEG4/ISO/AVC
Duration : 1 h 40 min
Bit rate : 10 000 kb/s
Width : 1 920 pixels
Height : 804 pixels
Display aspect ratio : 2.40:1
Frame rate mode : Constant
Frame rate : 23.976 (24000/1001) FPS
Color space : YUV
Chroma subsampling : 4:2:0
Bit depth : 8 bits
Scan type : Progressive
Bits/(Pixel*Frame) : 0.270
Stream size : 7.03 GiB (91%)
Title : Encoded by seleZen
Writing library : x264 core 142 r2431+42 c69a006 tMod [[email protected] X86_64]
Encoding settings : cabac=1 / ref=5 / deblock=1:-2:-2 / analyse=0x3:0x133 / me=umh / subme=10 / psy=1 / fade_compensate=0.00 / psy_rd=1.01:0.02 / mixed_ref=1 / me_range=32 / chroma_me=1 / trellis=2 / 8x8dct=1 / cqm=0 / deadzone=21,11 / fast_pskip=0 / chroma_qp_offset=-3 / threads=24 / lookahead_threads=4 / sliced_threads=0 / nr=0 / decimate=0 / interlaced=0 / bluray_compat=0 / constrained_intra=0 / fgo=0 / bframes=8 / b_pyramid=2 / b_adapt=2 / b_bias=0 / direct=3 / weightb=1 / open_gop=0 / weightp=2 / keyint=240 / keyint_min=23 / scenecut=40 / intra_refresh=0 / rc_lookahead=50 / rc=2pass / mbtree=0 / bitrate=10000 / ratetol=1.0 / qcomp=0.60 / qpmin=0:0:0 / qpmax=51:51:51 / qpstep=4 / cplxblur=20.0 / qblur=0.5 / vbv_maxrate=50000 / vbv_bufsize=62500 / nal_hrd=none / filler=0 / ip_ratio=1.40 / pb_ratio=1.30 / aq=3:0.80 / aq-sensitivity=10.00 / aq-factor=1.00:1.00:1.00 / aq2=0 / aq3=0
Language : English
Default : Yes
Forced : No
Audio #1
ID : 2
Format : AC-3
Format/Info : Audio Coding 3
Commercial name : Dolby Digital
Codec ID : A_AC3
Duration : 1 h 40 min
Bit rate mode : Constant
Bit rate : 384 kb/s
Channel(s) : 6 channels
Channel layout : L R C LFE Ls Rs
Sampling rate : 48.0 kHz
Frame rate : 31.250 FPS (1536 SPF)
Compression mode : Lossy
Stream size : 277 MiB (3%)
Title : iTunes
Language : Russian
Service kind : Complete Main
Default : Yes
Forced : Yes
Audio #2
ID : 3
Format : AC-3
Format/Info : Audio Coding 3
Commercial name : Dolby Digital
Codec ID : A_AC3
Duration : 1 h 40 min
Bit rate mode : Constant
Bit rate : 640 kb/s
Channel(s) : 6 channels
Channel layout : L R C LFE Ls Rs
Sampling rate : 48.0 kHz
Frame rate : 31.250 FPS (1536 SPF)
Compression mode : Lossy
Stream size : 462 MiB (6%)
Title : Original
Language : English
Service kind : Complete Main
Default : No
Forced : No
Text #1
ID : 4
Format : UTF-8
Codec ID : S_TEXT/UTF8
Codec ID/Info : UTF-8 Plain Text
Duration : 1 min 22 s
Bit rate : 112 b/s
Count of elements : 20
Stream size : 1.14 KiB (0%)
Title : Forced [на непереведенные места]
Language : Russian
Default : Yes
Forced : Yes
Text #2
ID : 5
Format : UTF-8
Codec ID : S_TEXT/UTF8
Codec ID/Info : UTF-8 Plain Text
Duration : 1 h 36 min
Bit rate : 61 b/s
Count of elements : 1386
Stream size : 43.8 KiB (0%)
Title : SDH
Language : English
Default : No
Forced : No
Menu
00:00:00.000 : en:Глава 01
00:07:11.514 : en:Глава 02
00:15:21.504 : en:Глава 03
00:23:46.425 : en:Глава 04
00:33:07.527 : en:Глава 05
00:42:49.692 : en:Глава 06
00:51:15.239 : en:Глава 07
01:00:49.271 : en:Глава 08
01:08:14.090 : en:Глава 09
01:16:45.559 : en:Глава 10
01:24:02.788 : en:Глава 11
01:31:32.445 : en:Глава 12
Релиз от:

Kon912

Post Today 22:23

[Quote]

Маленькая мисс Дулиттл / Liliane Susewind - Ein tierisches Abenteuer / Little Miss Doolittle- Год выхода: 2018
Страна: Германия
Студия: Dreamtool Entertainment, Velvet Films
Жанр: Фэнтези, комедия, криминал, семейный
Продолжительность: 01:40:56
Перевод: Дублированный | iTunes-Режиссер:
Йоахим Масаннек-В ролях:
Пери Баумейстер, Айлин Тецель, Кристоф Мария Хербст, Мерет Беккер, Том Бек, Малу Ляйхер, Аарон Кисёв, Фелис Аренс, Даниэль Цильман, Арвед Бирнбаум-О фильме:
Рыжеволосая Лилиан не просто обожает животных, но и умеет понимать их язык и отвечать им. О ее невероятной способности знают только члены семьи, и они всячески оберегают тайну. Но любым тайнам в свое время всегда приходит конец, особенно если на кону стоит спасение зоопарка.- -Качество: BDRip 720p
Формат: MKV
Видео: MPEG-4 AVC, 1280x536, 4689 Kbit/s, 23.976 fps
Аудио #01: 48 kHz, AC3, 5.1, 384 Kbps | iTunes | RUS |
Аудио #02: 48 kHz, AC3, 5.1, 640 Kbps | Оригинал | ENG |
Субтитры: Русские (Forced [на непереведенные места]), английские-

Скриншоты

       
*С 01:09:26 по 01:10:48 (~ полторы минуты) отсутствует перевод. Этот отрезок времени переведен субтитрами.

MI

General
Unique ID : 81525841939870426901841449067977184342 (0x3D554E578BA3556FAD550C1F10911456)
Complete name : E:Video111Little.Miss.Doolittle.2018.BDRip.720.seleZen.mkv
Format : Matroska
Format version : Version 4
File size : 4.02 GiB
Duration : 1 h 40 min
Overall bit rate : 5 704 kb/s
Movie name : Little Miss Doolittle 2018 from селезень
Encoded date : UTC 2020-02-07 16:57:13
Writing application : mkvmerge v40.0.0 ('Old Town Road + Pony') 64-bit
Writing library : libebml v1.3.9 + libmatroska v1.5.2
Video
ID : 1
Format : AVC
Format/Info : Advanced Video Codec
Format profile : [email protected]
Format settings : CABAC / 12 Ref Frames
Format settings, CABAC : Yes
Format settings, Reference : 12 frames
Codec ID : V_MPEG4/ISO/AVC
Duration : 1 h 40 min
Bit rate : 4 689 kb/s
Width : 1 280 pixels
Height : 536 pixels
Display aspect ratio : 2.40:1
Frame rate mode : Constant
Frame rate : 23.976 (24000/1001) FPS
Color space : YUV
Chroma subsampling : 4:2:0
Bit depth : 8 bits
Scan type : Progressive
Bits/(Pixel*Frame) : 0.285
Stream size : 3.30 GiB (82%)
Title : Encoded by seleZen
Writing library : x264 core 142 r2431+42 c69a006 tMod [[email protected] X86_64]
Encoding settings : cabac=1 / ref=12 / deblock=1:-2:-2 / analyse=0x3:0x133 / me=umh / subme=10 / psy=1 / fade_compensate=0.00 / psy_rd=1.01:0.02 / mixed_ref=1 / me_range=32 / chroma_me=1 / trellis=2 / 8x8dct=1 / cqm=0 / deadzone=21,11 / fast_pskip=0 / chroma_qp_offset=-3 / threads=24 / lookahead_threads=4 / sliced_threads=0 / nr=0 / decimate=0 / interlaced=0 / bluray_compat=0 / constrained_intra=0 / fgo=0 / bframes=8 / b_pyramid=2 / b_adapt=2 / b_bias=0 / direct=3 / weightb=1 / open_gop=0 / weightp=2 / keyint=240 / keyint_min=23 / scenecut=40 / intra_refresh=0 / rc_lookahead=50 / rc=2pass / mbtree=0 / bitrate=4689 / ratetol=1.0 / qcomp=0.60 / qpmin=0:0:0 / qpmax=51:51:51 / qpstep=4 / cplxblur=20.0 / qblur=0.5 / vbv_maxrate=50000 / vbv_bufsize=62500 / nal_hrd=none / filler=0 / ip_ratio=1.40 / pb_ratio=1.30 / aq=3:0.80 / aq-sensitivity=10.00 / aq-factor=1.00:1.00:1.00 / aq2=0 / aq3=0
Language : English
Default : Yes
Forced : No
Audio #1
ID : 2
Format : AC-3
Format/Info : Audio Coding 3
Commercial name : Dolby Digital
Codec ID : A_AC3
Duration : 1 h 40 min
Bit rate mode : Constant
Bit rate : 384 kb/s
Channel(s) : 6 channels
Channel layout : L R C LFE Ls Rs
Sampling rate : 48.0 kHz
Frame rate : 31.250 FPS (1536 SPF)
Compression mode : Lossy
Stream size : 277 MiB (7%)
Title : iTunes
Language : Russian
Service kind : Complete Main
Default : Yes
Forced : Yes
Audio #2
ID : 3
Format : AC-3
Format/Info : Audio Coding 3
Commercial name : Dolby Digital
Codec ID : A_AC3
Duration : 1 h 40 min
Bit rate mode : Constant
Bit rate : 640 kb/s
Channel(s) : 6 channels
Channel layout : L R C LFE Ls Rs
Sampling rate : 48.0 kHz
Frame rate : 31.250 FPS (1536 SPF)
Compression mode : Lossy
Stream size : 462 MiB (11%)
Title : Original
Language : English
Service kind : Complete Main
Default : No
Forced : No
Text #1
ID : 4
Format : UTF-8
Codec ID : S_TEXT/UTF8
Codec ID/Info : UTF-8 Plain Text
Duration : 1 min 22 s
Bit rate : 112 b/s
Count of elements : 20
Stream size : 1.14 KiB (0%)
Title : Forced [на непереведенные места]
Language : Russian
Default : Yes
Forced : Yes
Text #2
ID : 5
Format : UTF-8
Codec ID : S_TEXT/UTF8
Codec ID/Info : UTF-8 Plain Text
Duration : 1 h 36 min
Bit rate : 61 b/s
Count of elements : 1386
Stream size : 43.8 KiB (0%)
Title : SDH
Language : English
Default : No
Forced : No
Menu
00:00:00.000 : en:Глава 01
00:07:11.514 : en:Глава 02
00:15:21.504 : en:Глава 03
00:23:46.425 : en:Глава 04
00:33:07.527 : en:Глава 05
00:42:49.692 : en:Глава 06
00:51:15.239 : en:Глава 07
01:00:49.271 : en:Глава 08
01:08:14.090 : en:Глава 09
01:16:45.559 : en:Глава 10
01:24:02.788 : en:Глава 11
01:31:32.445 : en:Глава 12
Релиз от:

Kon912

Post Today 22:19

[Quote]

Расправь крылья / Donne moi des ailes- Год выхода: 2019
Страна: Франция, Норвегия
Студия: Canal+ [fr], Canopée Production, France 2 Cinéma
Жанр: Приключения, семейный
Продолжительность: 01:53:00
Перевод: Дублированный |iTunes-Режиссер:
Николя Ванье-В ролях:
Жан-Поль Рув, Мелани Дотей, Луис Васкес, Лилу Фогли, Фредерик Сорель, Грегори Баке, Доминик Пинон, Ариан Пири, Филипп Маньян, Седрик Месбурже-О фильме:
Подросток Тома навещает во время отдыха своего отца Кристиана, чудаковатого орнитолога. Но для юноши, увлеченного гаджетами и играми, разведение диких гусей во французской деревне и эксперименты отца наводят лишь тоску. Однако все меняется, когда Тома решает спасти исчезающий вид диких гусей и отправляется в воодушевляющее путешествие с «небесными ангелами», как их называет Кристиан.- -Качество: BDRemux 1080p
Формат: MKV
Видео: MPEG-4 AVC, 1920x1080, 38.1 Mbit/s, 24 fps
Аудио #01: 48 kHz, AC3, 5.1, 384 Kbps | iTunes | RUS |
Аудио #02: 48 kHz, DTS-HD MA, 5.1, 3045 Kbps | Оригинал | FRE |
Субтитры: Нет-

Скриншоты

       

MI

General
Unique ID : 194533063205025331210256508135963485605 (0x9259B4855D85B3DC03793192D001E5A5)
Complete name : E:Video111Donne.Moi.des.Ailes.2019.BDREMUX.1080p.seleZen.mkv
Format : Matroska
Format version : Version 4
File size : 32.8 GiB
Duration : 1 h 53 min
Overall bit rate mode : Variable
Overall bit rate : 41.5 Mb/s
Movie name : Donne Moi des Ailes 2019 from селезень
Encoded date : UTC 2020-02-13 08:26:19
Writing application : mkvmerge v40.0.0 ('Old Town Road + Pony') 64-bit
Writing library : libebml v1.3.9 + libmatroska v1.5.2
Video
ID : 1
Format : AVC
Format/Info : Advanced Video Codec
Format profile : [email protected]
Format settings : CABAC / 2 Ref Frames
Format settings, CABAC : Yes
Format settings, Reference : 2 frames
Codec ID : V_MPEG4/ISO/AVC
Duration : 1 h 53 min
Bit rate mode : Variable
Bit rate : 38.1 Mb/s
Width : 1 920 pixels
Height : 1 080 pixels
Display aspect ratio : 16:9
Frame rate mode : Constant
Frame rate : 24.000 FPS
Color space : YUV
Chroma subsampling : 4:2:0
Bit depth : 8 bits
Scan type : Progressive
Bits/(Pixel*Frame) : 0.765
Stream size : 30.1 GiB (92%)
Language : French
Default : Yes
Forced : No
Audio #1
ID : 2
Format : AC-3
Format/Info : Audio Coding 3
Commercial name : Dolby Digital
Codec ID : A_AC3
Duration : 1 h 53 min
Bit rate mode : Constant
Bit rate : 384 kb/s
Channel(s) : 6 channels
Channel layout : L R C LFE Ls Rs
Sampling rate : 48.0 kHz
Frame rate : 31.250 FPS (1536 SPF)
Compression mode : Lossy
Stream size : 310 MiB (1%)
Title : iTunes
Language : Russian
Service kind : Complete Main
Default : Yes
Forced : Yes
Audio #2
ID : 3
Format : DTS XLL
Format/Info : Digital Theater Systems
Commercial name : DTS-HD Master Audio
Codec ID : A_DTS
Duration : 1 h 53 min
Bit rate mode : Variable
Bit rate : 3 045 kb/s
Channel(s) : 6 channels
Channel layout : C L R Ls Rs LFE
Sampling rate : 48.0 kHz
Frame rate : 93.750 FPS (512 SPF)
Bit depth : 24 bits
Compression mode : Lossless
Stream size : 2.40 GiB (7%)
Title : Original
Language : French
Default : No
Forced : No
Menu
00:00:00.000 : en:00:00:00.000
00:10:22.208 : en:00:10:22.208
00:18:40.792 : en:00:18:40.792
00:28:41.625 : en:00:28:41.625
00:36:47.542 : en:00:36:47.542
00:46:19.333 : en:00:46:19.333
00:51:30.125 : en:00:51:30.125
01:02:36.625 : en:01:02:36.625
01:11:18.333 : en:01:11:18.333
01:20:06.708 : en:01:20:06.708
01:29:25.750 : en:01:29:25.750
01:37:34.333 : en:01:37:34.333
Релиз от:

Kon912

Post Today 22:19

[Quote]

Расправь крылья / Donne moi des ailes- Год выхода: 2019
Страна: Франция, Норвегия
Студия: Canal+ [fr], Canopée Production, France 2 Cinéma
Жанр: Приключения, семейный
Продолжительность: 01:53:00
Перевод: Дублированный |iTunes-Режиссер:
Николя Ванье-В ролях:
Жан-Поль Рув, Мелани Дотей, Луис Васкес, Лилу Фогли, Фредерик Сорель, Грегори Баке, Доминик Пинон, Ариан Пири, Филипп Маньян, Седрик Месбурже-О фильме:
Подросток Тома навещает во время отдыха своего отца Кристиана, чудаковатого орнитолога. Но для юноши, увлеченного гаджетами и играми, разведение диких гусей во французской деревне и эксперименты отца наводят лишь тоску. Однако все меняется, когда Тома решает спасти исчезающий вид диких гусей и отправляется в воодушевляющее путешествие с «небесными ангелами», как их называет Кристиан.- -Качество: BDRip 1080p
Формат: MKV
Видео: MPEG-4 AVC, 1920x804, 12.3 Mbit/s, 24 fps
Аудио #01: 48 kHz, AC3, 5.1, 384 Kbps | iTunes | RUS |
Аудио #02: 48 kHz, DTS, 5.1, 1510 Kbps | Оригинал | FRE |
Субтитры: Нет-

Скриншоты

       

MI

General
Unique ID : 154463144797303332765230873612465206295 (0x74348503A63C616CD61E83258F53F417)
Complete name : E:Video111Donne.Moi.des.Ailes.2019.BDRip.1080p.seleZen.mkv
Format : Matroska
Format version : Version 4
File size : 11.2 GiB
Duration : 1 h 53 min
Overall bit rate : 14.2 Mb/s
Movie name : Donne Moi des Ailes 2019 from селезень
Encoded date : UTC 2020-02-13 07:55:02
Writing application : mkvmerge v40.0.0 ('Old Town Road + Pony') 64-bit
Writing library : libebml v1.3.9 + libmatroska v1.5.2
Video
ID : 1
Format : AVC
Format/Info : Advanced Video Codec
Format profile : [email protected]
Format settings : CABAC / 5 Ref Frames
Format settings, CABAC : Yes
Format settings, Reference : 5 frames
Codec ID : V_MPEG4/ISO/AVC
Duration : 1 h 53 min
Bit rate : 12.3 Mb/s
Width : 1 920 pixels
Height : 804 pixels
Display aspect ratio : 2.40:1
Frame rate mode : Constant
Frame rate : 24.000 FPS
Color space : YUV
Chroma subsampling : 4:2:0
Bit depth : 8 bits
Scan type : Progressive
Bits/(Pixel*Frame) : 0.332
Stream size : 9.70 GiB (87%)
Title : BdC
Writing library : x264 core 157 r2969 d4099dd
Encoding settings : cabac=1 / ref=5 / deblock=1:-3:-3 / analyse=0x3:0x133 / me=umh / subme=10 / psy=1 / psy_rd=1.00:0.00 / mixed_ref=1 / me_range=32 / chroma_me=1 / trellis=2 / 8x8dct=1 / cqm=0 / deadzone=21,11 / fast_pskip=0 / chroma_qp_offset=-2 / threads=8 / lookahead_threads=1 / sliced_threads=0 / nr=0 / decimate=0 / interlaced=0 / bluray_compat=0 / constrained_intra=0 / bframes=8 / b_pyramid=2 / b_adapt=2 / b_bias=0 / direct=3 / weightb=1 / open_gop=0 / weightp=2 / keyint=240 / keyint_min=24 / scenecut=40 / intra_refresh=0 / rc_lookahead=60 / rc=2pass / mbtree=0 / bitrate=12299 / ratetol=1.0 / qcomp=0.60 / qpmin=0 / qpmax=69 / qpstep=4 / cplxblur=20.0 / qblur=0.5 / vbv_maxrate=62500 / vbv_bufsize=78125 / nal_hrd=none / filler=0 / ip_ratio=1.30 / pb_ratio=1.20 / aq=3:0.80
Language : French
Default : Yes
Forced : No
Color range : Limited
Color primaries : BT.709
Transfer characteristics : BT.709
Matrix coefficients : BT.709
Audio #1
ID : 2
Format : AC-3
Format/Info : Audio Coding 3
Commercial name : Dolby Digital
Codec ID : A_AC3
Duration : 1 h 53 min
Bit rate mode : Constant
Bit rate : 384 kb/s
Channel(s) : 6 channels
Channel layout : L R C LFE Ls Rs
Sampling rate : 48.0 kHz
Frame rate : 31.250 FPS (1536 SPF)
Compression mode : Lossy
Stream size : 310 MiB (3%)
Title : iTunes
Language : Russian
Service kind : Complete Main
Default : Yes
Forced : Yes
Audio #2
ID : 3
Format : DTS
Format/Info : Digital Theater Systems
Codec ID : A_DTS
Duration : 1 h 53 min
Bit rate mode : Constant
Bit rate : 1 509 kb/s
Channel(s) : 6 channels
Channel layout : C L R Ls Rs LFE
Sampling rate : 48.0 kHz
Frame rate : 93.750 FPS (512 SPF)
Bit depth : 24 bits
Compression mode : Lossy
Stream size : 1.19 GiB (11%)
Title : Original
Language : French
Default : No
Forced : No
Menu
00:00:00.000 : en:00:00:00.000
00:10:22.208 : en:00:10:22.208
00:18:40.792 : en:00:18:40.792
00:28:41.625 : en:00:28:41.625
00:36:47.542 : en:00:36:47.542
00:46:19.333 : en:00:46:19.333
00:51:30.125 : en:00:51:30.125
01:02:36.625 : en:01:02:36.625
01:11:18.333 : en:01:11:18.333
01:20:06.708 : en:01:20:06.708
01:29:25.750 : en:01:29:25.750
01:37:34.333 : en:01:37:34.333
Релиз от:

Kon912

Post Today 22:18

[Quote]

Расправь крылья / Donne moi des ailes- Год выхода: 2019
Страна: Франция, Норвегия
Студия: Canal+ [fr], Canopée Production, France 2 Cinéma
Жанр: Приключения, семейный
Продолжительность: 01:53:00
Перевод: Дублированный |iTunes-Режиссер:
Николя Ванье-В ролях:
Жан-Поль Рув, Мелани Дотей, Луис Васкес, Лилу Фогли, Фредерик Сорель, Грегори Баке, Доминик Пинон, Ариан Пири, Филипп Маньян, Седрик Месбурже-О фильме:
Подросток Тома навещает во время отдыха своего отца Кристиана, чудаковатого орнитолога. Но для юноши, увлеченного гаджетами и играми, разведение диких гусей во французской деревне и эксперименты отца наводят лишь тоску. Однако все меняется, когда Тома решает спасти исчезающий вид диких гусей и отправляется в воодушевляющее путешествие с «небесными ангелами», как их называет Кристиан.- -Качество: BDRip 720p
Формат: MKV
Видео: MPEG-4 AVC, 1280x536, 5999 Kbit/s, 24 fps
Аудио #01: 48 kHz, AC3, 5.1, 384 Kbps | iTunes | RUS |
Аудио #02: 48 kHz, DTS, 5.1, 1510 Kbps | Оригинал | ENG |
Субтитры: Нет-

Скриншоты

       

MI

General
Unique ID : 184277058490150062196682573053932278748 (0x8AA27872C08870071EAE3840763313DC)
Complete name : E:Video111Donne.Moi.des.Ailes.2019.BDRip.720p.seleZen.mkv
Format : Matroska
Format version : Version 4
File size : 6.23 GiB
Duration : 1 h 53 min
Overall bit rate : 7 891 kb/s
Movie name : Donne Moi des Ailes 2019 from селезень
Encoded date : UTC 2020-02-13 08:02:19
Writing application : mkvmerge v40.0.0 ('Old Town Road + Pony') 64-bit
Writing library : libebml v1.3.9 + libmatroska v1.5.2
Video
ID : 1
Format : AVC
Format/Info : Advanced Video Codec
Format profile : [email protected]
Format settings : CABAC / 12 Ref Frames
Format settings, CABAC : Yes
Format settings, Reference : 12 frames
Codec ID : V_MPEG4/ISO/AVC
Duration : 1 h 53 min
Bit rate : 5 999 kb/s
Width : 1 280 pixels
Height : 536 pixels
Display aspect ratio : 2.40:1
Frame rate mode : Constant
Frame rate : 24.000 FPS
Color space : YUV
Chroma subsampling : 4:2:0
Bit depth : 8 bits
Scan type : Progressive
Bits/(Pixel*Frame) : 0.364
Stream size : 4.73 GiB (76%)
Title : BdC
Writing library : x264 core 157 r2969 d4099dd
Encoding settings : cabac=1 / ref=12 / deblock=1:-3:-3 / analyse=0x3:0x133 / me=umh / subme=10 / psy=1 / psy_rd=1.00:0.00 / mixed_ref=1 / me_range=32 / chroma_me=1 / trellis=2 / 8x8dct=1 / cqm=0 / deadzone=21,11 / fast_pskip=0 / chroma_qp_offset=-2 / threads=8 / lookahead_threads=1 / sliced_threads=0 / nr=0 / decimate=0 / interlaced=0 / bluray_compat=0 / constrained_intra=0 / bframes=8 / b_pyramid=2 / b_adapt=2 / b_bias=0 / direct=3 / weightb=1 / open_gop=0 / weightp=2 / keyint=240 / keyint_min=24 / scenecut=40 / intra_refresh=0 / rc_lookahead=60 / rc=2pass / mbtree=0 / bitrate=5999 / ratetol=1.0 / qcomp=0.60 / qpmin=0 / qpmax=69 / qpstep=4 / cplxblur=20.0 / qblur=0.5 / vbv_maxrate=62500 / vbv_bufsize=78125 / nal_hrd=none / filler=0 / ip_ratio=1.30 / pb_ratio=1.20 / aq=3:0.80
Language : French
Default : Yes
Forced : No
Color range : Limited
Color primaries : BT.709
Transfer characteristics : BT.709
Matrix coefficients : BT.709
Audio #1
ID : 2
Format : AC-3
Format/Info : Audio Coding 3
Commercial name : Dolby Digital
Codec ID : A_AC3
Duration : 1 h 53 min
Bit rate mode : Constant
Bit rate : 384 kb/s
Channel(s) : 6 channels
Channel layout : L R C LFE Ls Rs
Sampling rate : 48.0 kHz
Frame rate : 31.250 FPS (1536 SPF)
Compression mode : Lossy
Stream size : 310 MiB (5%)
Title : iTunes
Language : Russian
Service kind : Complete Main
Default : Yes
Forced : Yes
Audio #2
ID : 3
Format : DTS
Format/Info : Digital Theater Systems
Codec ID : A_DTS
Duration : 1 h 53 min
Bit rate mode : Constant
Bit rate : 1 509 kb/s
Channel(s) : 6 channels
Channel layout : C L R Ls Rs LFE
Sampling rate : 48.0 kHz
Frame rate : 93.750 FPS (512 SPF)
Bit depth : 24 bits
Compression mode : Lossy
Stream size : 1.19 GiB (19%)
Title : Original
Language : French
Default : No
Forced : No
Menu
00:00:00.000 : en:00:00:00.000
00:10:22.208 : en:00:10:22.208
00:18:40.792 : en:00:18:40.792
00:28:41.625 : en:00:28:41.625
00:36:47.542 : en:00:36:47.542
00:46:19.333 : en:00:46:19.333
00:51:30.125 : en:00:51:30.125
01:02:36.625 : en:01:02:36.625
01:11:18.333 : en:01:11:18.333
01:20:06.708 : en:01:20:06.708
01:29:25.750 : en:01:29:25.750
01:37:34.333 : en:01:37:34.333
Релиз от:

Kon912

Post Today 22:18

[Quote]

Он и она / Deux moi / Someone, Somewhere- Год выхода: 2019
Страна: Франция, Бельгия
Студия: Ce Qui Me Meut, StudioCanal, France 2 Cinéma
Жанр: Драма, мелодрама, комедия
Продолжительность: 01:50:16
Перевод: Дублированный | iTunes-Режиссер:
Седрик Клапиш-В ролях:
Франсуа Сивиль, Ана Жирардо, Камилль Коттен, Франсуа Берлеан, Симон Абкарян, Эй Айдара, Ребекка Мардер, Пьер Нинэ, Зинедин Суалем, Вирджини Хок-О фильме:
Он и Она живут в самом романтичном городе мира - Париже. Они ходят в один магазин, ужинают в одном ресторане, но никогда не встречались. Они одиноки и мечтают встретить свою любовь. Пересекутся ли их дороги однажды?- -Качество: BDRemux 1080p
Формат: MKV
Видео: MPEG-4 AVC, 1920x1080, 36.0 Mbit/s, 23.976 fps
Аудио #01: 48 kHz, AC3, 5.1, 384 Kbps | iTunes | RUS |
Аудио #02: 48 kHz, DTS-HD MA, 5.1, 3611 Kbps | Оригинал | FRE |
Субтитры: Русские (Full), английские-

Скриншоты

       
Релиз от:

Kon912

Post Today 22:18

[Quote]

Он и она / Deux moi / Someone, Somewhere- Год выхода: 2019
Страна: Франция, Бельгия
Студия: Ce Qui Me Meut, StudioCanal, France 2 Cinéma
Жанр: Драма, мелодрама, комедия
Продолжительность: 01:50:16
Перевод: Дублированный | iTunes-Режиссер:
Седрик Клапиш-В ролях:
Франсуа Сивиль, Ана Жирардо, Камилль Коттен, Франсуа Берлеан, Симон Абкарян, Эй Айдара, Ребекка Мардер, Пьер Нинэ, Зинедин Суалем, Вирджини Хок-О фильме:
Он и Она живут в самом романтичном городе мира - Париже. Они ходят в один магазин, ужинают в одном ресторане, но никогда не встречались. Они одиноки и мечтают встретить свою любовь. Пересекутся ли их дороги однажды?- -Качество: BDRip 1080p
Формат: MKV
Видео: MPEG-4 AVC, 1920x1038, 16.1 Mbit/s, 23.976 fps
Аудио #01: 48 kHz, AC3, 5.1, 384 Kbps | iTunes | RUS |
Аудио #02: 48 kHz, AC3, 5.1, 640 Kbps | Оригинал | FRE |
Субтитры: Русские (Full), английские-

Скриншоты

       

MI

General
Unique ID : 250045528696792358597751964871145098142 (0xBC1D0461D3D65CEB892A46027C210B9E)
Complete name : E:Video111Someone.Somewhere.2019.BDRip.1080p.seleZen.mkv
Format : Matroska
Format version : Version 4
File size : 13.2 GiB
Duration : 1 h 50 min
Overall bit rate : 17.2 Mb/s
Movie name : Someone.Somewhere 2019 from селезень
Encoded date : UTC 2020-02-10 23:46:26
Writing application : mkvmerge v40.0.0 ('Old Town Road + Pony') 64-bit
Writing library : libebml v1.3.9 + libmatroska v1.5.2
Video
ID : 1
Format : AVC
Format/Info : Advanced Video Codec
Format profile : [email protected]
Format settings : CABAC / 4 Ref Frames
Format settings, CABAC : Yes
Format settings, Reference : 4 frames
Codec ID : V_MPEG4/ISO/AVC
Duration : 1 h 50 min
Bit rate : 16.1 Mb/s
Width : 1 920 pixels
Height : 1 038 pixels
Display aspect ratio : 1.85:1
Frame rate mode : Constant
Frame rate : 23.976 (24000/1001) FPS
Color space : YUV
Chroma subsampling : 4:2:0
Bit depth : 8 bits
Scan type : Progressive
Bits/(Pixel*Frame) : 0.338
Stream size : 12.4 GiB (94%)
Title : -EA
Writing library : x264 core 159 r2991+49 524a90c t_mod_New [[email protected] X86_64]
Encoding settings : cabac=1 / ref=4 / deblock=1:-3:-3 / analyse=0x3:0x133 / me=umh / subme=10 / psy=1 / fade_compensate=0.00 / psy_rd=1.02:0.00 / mixed_ref=1 / me_range=32 / chroma_me=1 / trellis=2 / 8x8dct=1 / cqm=0 / deadzone=21,11 / fast_pskip=0 / chroma_qp_offset=-2 / threads=18 / lookahead_threads=3 / sliced_threads=0 / nr=0 / decimate=0 / interlaced=0 / bluray_compat=0 / constrained_intra=0 / fgo=0 / bframes=9 / b_pyramid=2 / b_adapt=2 / b_bias=0 / direct=3 / weightb=1 / open_gop=0 / weightp=2 / keyint=240 / keyint_min=23 / scenecut=40 / intra_refresh=0 / rc_lookahead=60 / rc=crf / mbtree=0 / crf=20.1500 / qcomp=0.65 / qpmin=0:0:0 / qpmax=69:69:69 / qpstep=4 / vbv_maxrate=62500 / vbv_bufsize=78125 / crf_max=0.0 / nal_hrd=none / filler=0 / ip_ratio=1.40 / pb_ratio=1.30 / aq=3:0.85 / aq-sensitivity=10.00 / aq-factor=1.00:1.00:1.00 / aq2=0 / aq3=0 / zones=14643,17425,crf=19.7/44264,45786,crf=19.5/48477,49355,crf=19.6/152744,158621,crf=24
Language : French
Default : Yes
Forced : No
Color range : Limited
Color primaries : BT.709
Transfer characteristics : BT.709
Matrix coefficients : BT.709
Audio #1
ID : 2
Format : AC-3
Format/Info : Audio Coding 3
Commercial name : Dolby Digital
Codec ID : A_AC3
Duration : 1 h 50 min
Bit rate mode : Constant
Bit rate : 384 kb/s
Channel(s) : 6 channels
Channel layout : L R C LFE Ls Rs
Sampling rate : 48.0 kHz
Frame rate : 31.250 FPS (1536 SPF)
Compression mode : Lossy
Stream size : 303 MiB (2%)
Title : iTunes
Language : Russian
Service kind : Complete Main
Default : Yes
Forced : Yes
Audio #2
ID : 3
Format : AC-3
Format/Info : Audio Coding 3
Commercial name : Dolby Digital
Codec ID : A_AC3
Duration : 1 h 50 min
Bit rate mode : Constant
Bit rate : 640 kb/s
Channel(s) : 6 channels
Channel layout : L R C LFE Ls Rs
Sampling rate : 48.0 kHz
Frame rate : 31.250 FPS (1536 SPF)
Compression mode : Lossy
Stream size : 505 MiB (4%)
Title : Original
Language : French
Service kind : Complete Main
Default : No
Forced : No
Text #1
ID : 4
Format : UTF-8
Codec ID : S_TEXT/UTF8
Codec ID/Info : UTF-8 Plain Text
Duration : 1 h 45 min
Bit rate : 108 b/s
Count of elements : 2033
Stream size : 84.0 KiB (0%)
Title : Full
Language : Russian
Default : No
Forced : No
Text #2
ID : 5
Format : UTF-8
Codec ID : S_TEXT/UTF8
Codec ID/Info : UTF-8 Plain Text
Duration : 1 h 47 min
Bit rate : 46 b/s
Count of elements : 1439
Stream size : 36.8 KiB (0%)
Title : Full
Language : English
Default : No
Forced : No
Menu
00:00:00.000 : en:00:00:00.000
00:09:34.115 : en:00:09:34.115
00:20:51.625 : en:00:20:51.625
00:30:21.820 : en:00:30:21.820
00:43:44.956 : en:00:43:44.956
00:54:03.657 : en:00:54:03.657
01:03:48.950 : en:01:03:48.950
01:13:58.434 : en:01:13:58.434
01:22:39.788 : en:01:22:39.788
01:28:49.324 : en:01:28:49.324
01:37:53.659 : en:01:37:53.659
01:46:14.201 : en:01:46:14.201
Релиз от:

Kon912

Post Today 22:18

[Quote]

Он и она / Deux moi / Someone, Somewhere- Год выхода: 2019
Страна: Франция, Бельгия
Студия: Ce Qui Me Meut, StudioCanal, France 2 Cinéma
Жанр: Драма, мелодрама, комедия
Продолжительность: 01:50:16
Перевод: Дублированный | iTunes-Режиссер:
Седрик Клапиш-В ролях:
Франсуа Сивиль, Ана Жирардо, Камилль Коттен, Франсуа Берлеан, Симон Абкарян, Эй Айдара, Ребекка Мардер, Пьер Нинэ, Зинедин Суалем, Вирджини Хок-О фильме:
Он и Она живут в самом романтичном городе мира - Париже. Они ходят в один магазин, ужинают в одном ресторане, но никогда не встречались. Они одиноки и мечтают встретить свою любовь. Пересекутся ли их дороги однажды?- -Качество: BDRip 720p
Формат: MKV
Видео: MPEG-4 AVC, 1280x692, 8388 Kbit/s, 23.976 fps
Аудио #01: 48 kHz, AC3, 5.1, 384 Kbps | iTunes | RUS |
Аудио #02: 48 kHz, AC3, 5.1, 640 Kbps | Оригинал | FRE |
Субтитры: Русские (Full), английские-

Скриншоты

       

MI

General
Unique ID : 216057896593703614071513618679254945567 (0xA28B3CBE3162778EF5242E1B967B0F1F)
Complete name : E:Video111Someone.Somewhere.2019.BDRip.720p.seleZen.mkv
Format : Matroska
Format version : Version 4
File size : 7.25 GiB
Duration : 1 h 50 min
Overall bit rate : 9 414 kb/s
Movie name : Someone.Somewhere 2019 from селезень
Encoded date : UTC 2020-02-10 23:02:40
Writing application : mkvmerge v40.0.0 ('Old Town Road + Pony') 64-bit
Writing library : libebml v1.3.9 + libmatroska v1.5.2
Video
ID : 1
Format : AVC
Format/Info : Advanced Video Codec
Format profile : [email protected]
Format settings : CABAC / 9 Ref Frames
Format settings, CABAC : Yes
Format settings, Reference : 9 frames
Codec ID : V_MPEG4/ISO/AVC
Duration : 1 h 50 min
Bit rate : 8 388 kb/s
Width : 1 280 pixels
Height : 692 pixels
Display aspect ratio : 1.85:1
Frame rate mode : Constant
Frame rate : 23.976 (24000/1001) FPS
Color space : YUV
Chroma subsampling : 4:2:0
Bit depth : 8 bits
Scan type : Progressive
Bits/(Pixel*Frame) : 0.395
Stream size : 6.46 GiB (89%)
Title : playHD
Writing library : x264 core 159 r2991 1771b55
Encoding settings : cabac=1 / ref=9 / deblock=1:-3:-3 / analyse=0x3:0x133 / me=umh / subme=10 / psy=1 / psy_rd=1.05:0.00 / mixed_ref=1 / me_range=64 / chroma_me=1 / trellis=2 / 8x8dct=1 / cqm=0 / deadzone=21,11 / fast_pskip=0 / chroma_qp_offset=-2 / threads=22 / lookahead_threads=3 / sliced_threads=0 / nr=0 / decimate=0 / interlaced=0 / bluray_compat=0 / constrained_intra=0 / bframes=9 / b_pyramid=2 / b_adapt=2 / b_bias=0 / direct=3 / weightb=1 / open_gop=0 / weightp=2 / keyint=250 / keyint_min=23 / scenecut=40 / intra_refresh=0 / rc=crf / mbtree=0 / crf=18.2 / qcomp=0.65 / qpmin=0 / qpmax=69 / qpstep=4 / ip_ratio=1.30 / pb_ratio=1.20 / aq=3:0.80
Language : English
Default : Yes
Forced : No
Audio #1
ID : 2
Format : AC-3
Format/Info : Audio Coding 3
Commercial name : Dolby Digital
Codec ID : A_AC3
Duration : 1 h 50 min
Bit rate mode : Constant
Bit rate : 384 kb/s
Channel(s) : 6 channels
Channel layout : L R C LFE Ls Rs
Sampling rate : 48.0 kHz
Frame rate : 31.250 FPS (1536 SPF)
Compression mode : Lossy
Stream size : 303 MiB (4%)
Title : iTunes
Language : Russian
Service kind : Complete Main
Default : Yes
Forced : Yes
Audio #2
ID : 3
Format : AC-3
Format/Info : Audio Coding 3
Commercial name : Dolby Digital
Codec ID : A_AC3
Duration : 1 h 50 min
Bit rate mode : Constant
Bit rate : 640 kb/s
Channel(s) : 6 channels
Channel layout : L R C LFE Ls Rs
Sampling rate : 48.0 kHz
Frame rate : 31.250 FPS (1536 SPF)
Compression mode : Lossy
Stream size : 505 MiB (7%)
Title : Original
Language : French
Service kind : Complete Main
Default : No
Forced : No
Text #1
ID : 4
Format : UTF-8
Codec ID : S_TEXT/UTF8
Codec ID/Info : UTF-8 Plain Text
Duration : 1 h 45 min
Bit rate : 108 b/s
Count of elements : 2033
Stream size : 84.0 KiB (0%)
Title : Full
Language : Russian
Default : No
Forced : No
Text #2
ID : 5
Format : UTF-8
Codec ID : S_TEXT/UTF8
Codec ID/Info : UTF-8 Plain Text
Duration : 1 h 47 min
Bit rate : 46 b/s
Count of elements : 1439
Stream size : 36.8 KiB (0%)
Title : Full
Language : English
Default : No
Forced : No
Menu
00:00:00.000 : en:00:00:00.000
00:09:34.115 : en:00:09:34.115
00:20:51.625 : en:00:20:51.625
00:30:21.820 : en:00:30:21.820
00:43:44.956 : en:00:43:44.956
00:54:03.657 : en:00:54:03.657
01:03:48.950 : en:01:03:48.950
01:13:58.434 : en:01:13:58.434
01:22:39.788 : en:01:22:39.788
01:28:49.324 : en:01:28:49.324
01:37:53.659 : en:01:37:53.659
01:46:14.201 : en:01:46:14.201
Релиз от:

Kon912

Post Today 20:04

[Quote]

Тёмное наследие / Inheritance- Страна: США
Студия: Highland Film Group (HFG), Ingenious Media, Southpaw Entertainment
Жанр: триллер, драма, детектив
Год выпуска: 2020
Продолжительность: 01:51:27
Перевод: Дублированный | iTunes-Режиссер:
Вон Стайн / Vaughn Stein-В ролях:
Лили Коллинз, Саймон Пегг, Конни Нильсен, Чейс Кроуфорд, Марке Ричардсон II, Майкл Бич, Крис Гэнн, Хосе Херрера, Кристина ДеРоса, Харрисон Стоун-Описание:
Богатый и влиятельный отец семейства внезапно умирает. Его жена и дочь начинают разбираться в оставленном им наследстве. Погружаясь в прошлое отца, девушка узнает о завещании, оставленном для нее одной. Однако она не подозревает, что скоро столкнется с правдой, которая станет угрозой для всей её семьи.- -Качество: BDRemux 1080p
Формат: MKV
Видео: MPEG-4 AVC, 1920x1080, 28.2 Mbit/s, 23.976 fps
Аудио #01: 48 kHz, AC3, 5.1, 384 Kbps | iTunes | RUS |
Аудио #02: 48 kHz, TrueHD, 5.1, 2946 Kbps | Оригинал | ENG |
Аудио #03: 48 kHz, AC3, 5.1, 640 Kbps | Оригинал | ENG |
Субтитры: Русские (Full), английские-

Скриншоты

         

MI

General
Unique ID : 133127123443032057400988471877963813059 (0x642759F1BD65C9B4E6C88FA00A5F10C3)
Complete name : E:Video111Inheritance.2020.BDREMUX.1080p.seleZen.mkv
Format : Matroska
Format version : Version 4
File size : 25.1 GiB
Duration : 1 h 51 min
Overall bit rate mode : Variable
Overall bit rate : 32.2 Mb/s
Movie name : Inheritance 2020 from селезень
Encoded date : UTC 2020-07-09 10:38:32
Writing application : mkvmerge v40.0.0 ('Old Town Road + Pony') 64-bit
Writing library : libebml v1.3.9 + libmatroska v1.5.2
Video
ID : 1
Format : AVC
Format/Info : Advanced Video Codec
Format profile : [email protected]
Format settings : CABAC / 4 Ref Frames
Format settings, CABAC : Yes
Format settings, Reference frames : 4 frames
Codec ID : V_MPEG4/ISO/AVC
Duration : 1 h 51 min
Bit rate mode : Variable
Bit rate : 28.2 Mb/s
Maximum bit rate : 35.0 Mb/s
Width : 1 920 pixels
Height : 1 080 pixels
Display aspect ratio : 16:9
Frame rate mode : Constant
Frame rate : 23.976 (24000/1001) FPS
Standard : NTSC
Color space : YUV
Chroma subsampling : 4:2:0
Bit depth : 8 bits
Scan type : Progressive
Bits/(Pixel*Frame) : 0.568
Stream size : 22.0 GiB (87%)
Language : English
Default : Yes
Forced : No
Color range : Limited
Color primaries : BT.709
Transfer characteristics : BT.709
Matrix coefficients : BT.709
Audio #1
ID : 2
Format : AC-3
Format/Info : Audio Coding 3
Commercial name : Dolby Digital
Codec ID : A_AC3
Duration : 1 h 51 min
Bit rate mode : Constant
Bit rate : 384 kb/s
Channel(s) : 6 channels
Channel layout : L R C LFE Ls Rs
Sampling rate : 48.0 kHz
Frame rate : 31.250 FPS (1536 SPF)
Compression mode : Lossy
Stream size : 306 MiB (1%)
Title : iTunes
Language : Russian
Service kind : Complete Main
Default : Yes
Forced : Yes
Audio #2
ID : 3
Format : MLP FBA
Format/Info : Meridian Lossless Packing FBA
Commercial name : Dolby TrueHD
Codec ID : A_TRUEHD
Duration : 1 h 51 min
Bit rate mode : Variable
Bit rate : 2 946 kb/s
Maximum bit rate : 5 127 kb/s
Channel(s) : 6 channels
Channel layout : L R C LFE Ls Rs
Sampling rate : 48.0 kHz
Frame rate : 1 200.000 FPS (40 SPF)
Compression mode : Lossless
Stream size : 2.29 GiB (9%)
Title : Original
Language : English
Default : No
Forced : No
Audio #3
ID : 4
Format : AC-3
Format/Info : Audio Coding 3
Commercial name : Dolby Digital
Codec ID : A_AC3
Duration : 1 h 51 min
Bit rate mode : Constant
Bit rate : 640 kb/s
Channel(s) : 6 channels
Channel layout : L R C LFE Ls Rs
Sampling rate : 48.0 kHz
Frame rate : 31.250 FPS (1536 SPF)
Compression mode : Lossy
Stream size : 510 MiB (2%)
Language : English
Service kind : Complete Main
Default : No
Forced : No
Text #1
ID : 5
Format : UTF-8
Codec ID : S_TEXT/UTF8
Codec ID/Info : UTF-8 Plain Text
Duration : 1 h 47 min
Bit rate : 85 b/s
Count of elements : 1240
Stream size : 67.1 KiB (0%)
Title : Full
Language : Russian
Default : No
Forced : No
Text #2
ID : 6
Format : UTF-8
Codec ID : S_TEXT/UTF8
Codec ID/Info : UTF-8 Plain Text
Duration : 1 h 42 min
Bit rate : 53 b/s
Count of elements : 1380
Stream size : 39.8 KiB (0%)
Title : Full
Language : English
Default : No
Forced : No
Menu
00:00:00.000 : en:Глава 01
00:14:13.102 : en:Глава 02
00:29:59.089 : en:Глава 03
00:42:52.153 : en:Глава 04
00:56:46.236 : en:Глава 05
01:12:59.083 : en:Глава 06
01:27:31.371 : en:Глава 07
01:45:37.998 : en:Глава 08
Релиз от:

Kon912

Post Today 20:04

[Quote]

Тёмное наследие / Inheritance- Страна: США
Студия: Highland Film Group (HFG), Ingenious Media, Southpaw Entertainment
Жанр: триллер, драма, детектив
Год выпуска: 2020
Продолжительность: 01:51:27
Перевод: Дублированный | iTunes-Режиссер:
Вон Стайн / Vaughn Stein-В ролях:
Лили Коллинз, Саймон Пегг, Конни Нильсен, Чейс Кроуфорд, Марке Ричардсон II, Майкл Бич, Крис Гэнн, Хосе Херрера, Кристина ДеРоса, Харрисон Стоун-Описание:
Богатый и влиятельный отец семейства внезапно умирает. Его жена и дочь начинают разбираться в оставленном им наследстве. Погружаясь в прошлое отца, девушка узнает о завещании, оставленном для нее одной. Однако она не подозревает, что скоро столкнется с правдой, которая станет угрозой для всей её семьи.- -Качество: BDRip 1080p
Формат: MKV
Видео: MPEG-4 AVC, 1920x802, 9933 Kbit/s, 23.976 fps
Аудио #01: 48 kHz, AC3, 5.1, 384 Kbps | iTunes | RUS |
Аудио #02: 48 kHz, AC3, 5.1, 640 Kbps | Оригинал | ENG |
Субтитры: Русские (Full), английские-

Скриншоты

         

MI

General
Unique ID : 104595848379560636382948107473411485854 (0x4EB06D7A29349306F506230FCE4DB09E)
Complete name : E:Video111Inheritance.2020.BDRip.1080p.seleZen.mkv
Format : Matroska
Format version : Version 4
File size : 8.53 GiB
Duration : 1 h 51 min
Overall bit rate : 11.0 Mb/s
Movie name : Inheritance 2020 from селезень
Encoded date : UTC 2020-07-09 13:35:16
Writing application : mkvmerge v40.0.0 ('Old Town Road + Pony') 64-bit
Writing library : libebml v1.3.9 + libmatroska v1.5.2
Cover : Yes
Attachments : cover.jpg
Video
ID : 1
Format : AVC
Format/Info : Advanced Video Codec
Format profile : [email protected]
Format settings : CABAC / 5 Ref Frames
Format settings, CABAC : Yes
Format settings, Reference frames : 5 frames
Codec ID : V_MPEG4/ISO/AVC
Duration : 1 h 51 min
Bit rate : 9 933 kb/s
Width : 1 920 pixels
Height : 802 pixels
Display aspect ratio : 2.40:1
Frame rate mode : Constant
Frame rate : 23.976 (24000/1001) FPS
Color space : YUV
Chroma subsampling : 4:2:0
Bit depth : 8 bits
Scan type : Progressive
Bits/(Pixel*Frame) : 0.269
Stream size : 7.73 GiB (91%)
Title : Encoded by seleZen
Writing library : x264 core 142 r2431+42 c69a006 tMod [[email protected] X86_64]
Encoding settings : cabac=1 / ref=5 / deblock=1:-2:-2 / analyse=0x3:0x133 / me=umh / subme=10 / psy=1 / fade_compensate=0.00 / psy_rd=1.00:0.00 / mixed_ref=1 / me_range=32 / chroma_me=1 / trellis=2 / 8x8dct=1 / cqm=0 / deadzone=21,11 / fast_pskip=0 / chroma_qp_offset=-2 / threads=24 / lookahead_threads=4 / sliced_threads=0 / nr=0 / decimate=0 / interlaced=0 / bluray_compat=0 / constrained_intra=0 / fgo=0 / bframes=9 / b_pyramid=2 / b_adapt=2 / b_bias=0 / direct=1 / weightb=1 / open_gop=0 / weightp=2 / keyint=240 / keyint_min=23 / scenecut=40 / intra_refresh=0 / rc_lookahead=50 / rc=crf / mbtree=0 / crf=16.8000 / qcomp=0.60 / qpmin=0:0:0 / qpmax=51:51:51 / qpstep=4 / vbv_maxrate=50000 / vbv_bufsize=62500 / crf_max=0.0 / nal_hrd=none / filler=0 / ip_ratio=1.40 / pb_ratio=1.30 / aq=3:0.80 / aq-sensitivity=10.00 / aq-factor=1.00:1.00:1.00 / aq2=0 / aq3=0
Language : English
Default : Yes
Forced : No
Audio #1
ID : 2
Format : AC-3
Format/Info : Audio Coding 3
Commercial name : Dolby Digital
Codec ID : A_AC3
Duration : 1 h 51 min
Bit rate mode : Constant
Bit rate : 384 kb/s
Channel(s) : 6 channels
Channel layout : L R C LFE Ls Rs
Sampling rate : 48.0 kHz
Frame rate : 31.250 FPS (1536 SPF)
Compression mode : Lossy
Stream size : 306 MiB (4%)
Title : iTunes
Language : Russian
Service kind : Complete Main
Default : Yes
Forced : Yes
Audio #2
ID : 3
Format : AC-3
Format/Info : Audio Coding 3
Commercial name : Dolby Digital
Codec ID : A_AC3
Duration : 1 h 51 min
Bit rate mode : Constant
Bit rate : 640 kb/s
Channel(s) : 6 channels
Channel layout : L R C LFE Ls Rs
Sampling rate : 48.0 kHz
Frame rate : 31.250 FPS (1536 SPF)
Compression mode : Lossy
Stream size : 510 MiB (6%)
Title : Original
Language : English
Service kind : Complete Main
Default : No
Forced : No
Text #1
ID : 4
Format : UTF-8
Codec ID : S_TEXT/UTF8
Codec ID/Info : UTF-8 Plain Text
Duration : 1 h 47 min
Bit rate : 85 b/s
Count of elements : 1240
Stream size : 67.1 KiB (0%)
Title : Full
Language : Russian
Default : No
Forced : No
Text #2
ID : 5
Format : UTF-8
Codec ID : S_TEXT/UTF8
Codec ID/Info : UTF-8 Plain Text
Duration : 1 h 42 min
Bit rate : 53 b/s
Count of elements : 1380
Stream size : 39.8 KiB (0%)
Title : Full
Language : English
Default : No
Forced : No
Menu
00:00:00.000 : en:Chapter 01
00:14:12.852 : en:Chapter 02
00:29:59.005 : en:Chapter 03
00:42:51.944 : en:Chapter 04
00:56:45.944 : en:Chapter 05
01:12:59.083 : en:Chapter 06
01:27:31.913 : en:Chapter 07
01:45:38.415 : en:Chapter 08
Релиз от:

Kon912

Post Today 20:04

[Quote]

Тёмное наследие / Inheritance- Страна: США
Студия: Highland Film Group (HFG), Ingenious Media, Southpaw Entertainment
Жанр: триллер, драма, детектив
Год выпуска: 2020
Продолжительность: 01:51:27
Перевод: Дублированный | iTunes-Режиссер:
Вон Стайн / Vaughn Stein-В ролях:
Лили Коллинз, Саймон Пегг, Конни Нильсен, Чейс Кроуфорд, Марке Ричардсон II, Майкл Бич, Крис Гэнн, Хосе Херрера, Кристина ДеРоса, Харрисон Стоун-Описание:
Богатый и влиятельный отец семейства внезапно умирает. Его жена и дочь начинают разбираться в оставленном им наследстве. Погружаясь в прошлое отца, девушка узнает о завещании, оставленном для нее одной. Однако она не подозревает, что скоро столкнется с правдой, которая станет угрозой для всей её семьи.- -Качество: BDRip 720p
Формат: MKV
Видео: MPEG-4 AVC, 1280x536, 4900 Kbit/s, 23.976 fps
Аудио #01: 48 kHz, AC3, 5.1, 384 Kbps | iTunes | RUS |
Аудио #02: 48 kHz, AC3, 5.1, 640 Kbps | Оригинал | ENG |
Субтитры: Русские (Full), английские-

Скриншоты

         

MI

General
Unique ID : 140813416421632042381337343409179725500 (0x69EFAD72548228BCC10D6EDABD8E0EBC)
Complete name : E:Video111Inheritance.2020.BDRip.720p.seleZen.mkv
Format : Matroska
Format version : Version 4
File size : 4.61 GiB
Duration : 1 h 51 min
Overall bit rate : 5 922 kb/s
Movie name : Inheritance 2020 from селезень
Encoded date : UTC 2020-07-09 15:53:26
Writing application : mkvmerge v40.0.0 ('Old Town Road + Pony') 64-bit
Writing library : libebml v1.3.9 + libmatroska v1.5.2
Cover : Yes
Attachments : cover.jpg
Video
ID : 1
Format : AVC
Format/Info : Advanced Video Codec
Format profile : [email protected]
Format settings : CABAC / 12 Ref Frames
Format settings, CABAC : Yes
Format settings, Reference frames : 12 frames
Codec ID : V_MPEG4/ISO/AVC
Duration : 1 h 51 min
Bit rate : 4 900 kb/s
Width : 1 280 pixels
Height : 536 pixels
Display aspect ratio : 2.40:1
Frame rate mode : Constant
Frame rate : 23.976 (24000/1001) FPS
Color space : YUV
Chroma subsampling : 4:2:0
Bit depth : 8 bits
Scan type : Progressive
Bits/(Pixel*Frame) : 0.298
Stream size : 3.81 GiB (83%)
Title : Encoded by seleZen
Writing library : x264 core 142 r2431+42 c69a006 tMod [[email protected] X86_64]
Encoding settings : cabac=1 / ref=12 / deblock=1:-2:-2 / analyse=0x3:0x133 / me=umh / subme=10 / psy=1 / fade_compensate=0.00 / psy_rd=1.00:0.00 / mixed_ref=1 / me_range=32 / chroma_me=1 / trellis=2 / 8x8dct=1 / cqm=0 / deadzone=21, 11 / fast_pskip=0 / chroma_qp_offset=-2 / threads=24 / lookahead_threads=4 / sliced_threads=0 / nr=0 / decimate=0 / interlaced=0 / bluray_compat=0 / constrained_intra=0 / fgo=0 / bframes=9 / b_pyramid=2 / b_adapt=2 / b_bias=0 / direct=3 / weightb=1 / open_gop=0 / weightp=2 / keyint=240 / keyint_min=23 / scenecut=40 / intra_refresh=0 / rc_lookahead=50 / rc=2pass / mbtree=0 / bitrate=4900 / ratetol=1.0 / qcomp=0.60 / qpmin=0:0:0 / qpmax=51:51:51 / qpstep=4 / cplxblur=20.0 / qblur=0.5 / vbv_maxrate=50000 / vbv_bufsize=62500 / nal_hrd=none / filler=0 / ip_ratio=1.40 / pb_ratio=1.30 / aq=3:0.80 / aq-sensitivity=10.00 / aq-factor=1.00:1.00:1.00 / aq2=0 / aq3=0
Language : English
Default : Yes
Forced : No
Audio #1
ID : 2
Format : AC-3
Format/Info : Audio Coding 3
Commercial name : Dolby Digital
Codec ID : A_AC3
Duration : 1 h 51 min
Bit rate mode : Constant
Bit rate : 384 kb/s
Channel(s) : 6 channels
Channel layout : L R C LFE Ls Rs
Sampling rate : 48.0 kHz
Frame rate : 31.250 FPS (1536 SPF)
Compression mode : Lossy
Stream size : 306 MiB (6%)
Title : iTunes
Language : Russian
Service kind : Complete Main
Default : Yes
Forced : Yes
Audio #2
ID : 3
Format : AC-3
Format/Info : Audio Coding 3
Commercial name : Dolby Digital
Codec ID : A_AC3
Duration : 1 h 51 min
Bit rate mode : Constant
Bit rate : 640 kb/s
Channel(s) : 6 channels
Channel layout : L R C LFE Ls Rs
Sampling rate : 48.0 kHz
Frame rate : 31.250 FPS (1536 SPF)
Compression mode : Lossy
Stream size : 510 MiB (11%)
Title : Original
Language : English
Service kind : Complete Main
Default : No
Forced : No
Text #1
ID : 4
Format : UTF-8
Codec ID : S_TEXT/UTF8
Codec ID/Info : UTF-8 Plain Text
Duration : 1 h 47 min
Bit rate : 85 b/s
Count of elements : 1240
Stream size : 67.1 KiB (0%)
Title : Full
Language : Russian
Default : No
Forced : No
Text #2
ID : 5
Format : UTF-8
Codec ID : S_TEXT/UTF8
Codec ID/Info : UTF-8 Plain Text
Duration : 1 h 42 min
Bit rate : 53 b/s
Count of elements : 1380
Stream size : 39.8 KiB (0%)
Title : Full
Language : English
Default : No
Forced : No
Menu
00:00:00.000 : en:Chapter 01
00:14:12.852 : en:Chapter 02
00:29:59.005 : en:Chapter 03
00:42:51.944 : en:Chapter 04
00:56:45.944 : en:Chapter 05
01:12:59.083 : en:Chapter 06
01:27:31.913 : en:Chapter 07
01:45:38.415 : en:Chapter 08
Релиз от:
 

The time now is: Today 22:52

All times are GMT + 3 Hours