Today is a free download without charge Download

Search found 500 matches

Author Message

Kon912

Post 30-Jun-2020 22:57

[Quote]

Бюро человечества / The Humanity Bureau- Год выхода: 2017
Страна: Канада
Студия: Bridgegate Pictures, Minds Eye Entertainment, VMI Worldwide
Жанр: фантастика, боевик
Продолжительность: 01:34:35
Озвучивание: Профессиональное (многоголосое) | iTunes-Режиссер:
Роб В. Кинг-В ролях:
Николас Кейдж, Сара Линд, Хью Диллон, Виселос Реон Шеннон, Джейкоб Дейвис, Лорни Кардинал, Джетт Клине, Дэвид Ловгрен, Лео Фафард, Курт Макс Рунте-О фильме: В отдалённом будущем американское правительство утвердило секретную программу, по которой бедных, необразованных и неугодных стране людей сначала высылают в колонию, а затем уничтожают. Одно из таких дел попадает в руки агента. Проникшись симпатией к одинокой матери и её сыну, он решает помочь им бежать.- -Качество: BDRip 1080p
Формат: MKV
Видео: MPEG-4 AVC, 11.0 Мb/s, 1920x804
Аудио #1: Russian: 48 kHz, AC3 Dolby Digital, 2/0 (L, R) ch, ~192 Kbps | iTunes
Аудио #2: English: 48 kHz, AC3 Dolby Digital, 3/2 (L, C, R, l, r) + LFE ch, ~640 Kbps | Original
Субтитры: Нет
Дополнительно: Сохранены оригинальные чаптеры.-

MediaInfo:

Complete name: Byuro.chelovechestva.2017.1080p.BluRay.ELEKTRI4KA.UNIONGANG.mkv
Format: Matroska
Format version: Version 4 / Version 2
File size: 7.81 GiB
Duration: 1 h 34 min
Overall bit rate: 11.8 Mb/s
Movie name: .ELEKTRI4KA.UNIONGANG.
Encoded date: UTC 2020-06-29 20:49:16
Writing application: mkvmerge v8.3.0 ('Over the Horizon') 64bit
Writing library: libebml v1.3.1 + libmatroska v1.4.2
Video
ID: 1
Format: AVC
Format/Info: Advanced Video Codec
Format profile: [email protected]
Format settings, CABAC: Yes
Format settings, Reference frames: 10 frames
Codec ID: V_MPEG4/ISO/AVC
Duration: 1 h 34 min
Bit rate: 11.0 Mb/s
Width: 1 920 pixels
Height: 804 pixels
Display aspect ratio: 2.40:1
Frame rate mode: Constant
Frame rate: 24.000 FPS
Color space: YUV
Chroma subsampling: 4:2:0
Bit depth: 8 bits
Scan type: Progressive
Bits/(Pixel*Frame): 0.297
Stream size: 7.26 GiB (93%)
Title: .ELEKTRI4KA.UNIONGANG.
Writing library: x264 core 142 r2431+42 c69a006 tMod [[email protected] X86_64]
Encoding settings: cabac=1 / ref=10 / deblock=1:-3:-3 / analyse=0x3:0x113 / me=umh / subme=11 / psy=1 / fade_compensate=0.00 / psy_rd=1.05:1.05 / mixed_ref=1 / me_range=48 / chroma_me=1 / trellis=2 / 8x8dct=1 / cqm=0 / deadzone=21, 11 / fast_pskip=0 / chroma_qp_offset=-4 / threads=16 / lookahead_threads=2 / sliced_threads=0 / nr=0 / decimate=0 / interlaced=0 / bluray_compat=0 / constrained_intra=0 / fgo=0 / bframes=8 / b_pyramid=2 / b_adapt=2 / b_bias=0 / direct=3 / weightb=1 / open_gop=0 / weightp=2 / keyint=240 / keyint_min=24 / scenecut=40 / intra_refresh=0 / rc_lookahead=150 / rc=2pass / mbtree=0 / bitrate=11000 / ratetol=1.0 / qcomp=0.60 / qpmin=0:0:0 / qpmax=69:69:69 / qpstep=4 / cplxblur=20.0 / qblur=0.5 / vbv_maxrate=300000 / vbv_bufsize=300000 / nal_hrd=none / filler=0 / ip_ratio=1.30 / pb_ratio=1.20 / aq=2:0.90 / aq-sensitivity=10.00 / aq-factor=1.00:1.00:1.00 / aq2=0 / aq3=0
Default: Yes
Forced: No
Color range: Limited
Color primaries: BT.709
Transfer characteristics: BT.709
Matrix coefficients: BT.709
Audio #1
ID: 2
Format: AC-3
Format/Info: Audio Coding 3
Mode extension: CM (complete main)
Format settings, Endianness: Big
Codec ID: A_AC3
Duration: 1 h 34 min
Bit rate mode: Constant
Bit rate: 192 kb/s
Channel(s): 2 channels
Channel positions: Front: L R
Sampling rate: 48.0 kHz
Frame rate: 31.250 FPS (1536 spf)
Bit depth: 16 bits
Compression mode: Lossy
Stream size: 130 MiB (2%)
Title: iTunes
Language: Russian
Default: Yes
Forced: No
Audio #2
ID: 3
Format: AC-3
Format/Info: Audio Coding 3
Mode extension: CM (complete main)
Format settings, Endianness: Big
Codec ID: A_AC3
Duration: 1 h 34 min
Bit rate mode: Constant
Bit rate: 640 kb/s
Channel(s): 6 channels
Channel positions: Front: L C R, Side: L R, LFE
Sampling rate: 48.0 kHz
Frame rate: 31.250 FPS (1536 spf)
Bit depth: 16 bits
Compression mode: Lossy
Stream size: 433 MiB (5%)
Language: English
Default: No
Forced: No
Menu
00:00:00.000: en:00:00:00.000
00:00:34.042: en:00:00:34.042
00:09:47.917: en:00:09:47.917
00:15:59.208: en:00:15:59.208
00:24:11.625: en:00:24:11.625
00:32:02.542: en:00:32:02.542
00:38:55.375: en:00:38:55.375
00:48:29.375: en:00:48:29.375
00:55:07.000: en:00:55:07.000
01:04:01.833: en:01:04:01.833
01:12:48.500: en:01:12:48.500
01:20:40.083: en:01:20:40.083
01:29:33.667: en:01:29:33.667

Скриншоты

       

Спасибо Релиз группе: ELEKTRI4KA

Kon912

Post 30-Jun-2020 22:56

[Quote]

Бюро человечества / The Humanity Bureau- Год выхода: 2017
Страна: Канада
Студия: Bridgegate Pictures, Minds Eye Entertainment, VMI Worldwide
Жанр: фантастика, боевик
Продолжительность: 01:34:35
Озвучивание: Профессиональное (многоголосое) | iTunes-Режиссер:
Роб В. Кинг-В ролях:
Николас Кейдж, Сара Линд, Хью Диллон, Виселос Реон Шеннон, Джейкоб Дейвис, Лорни Кардинал, Джетт Клине, Дэвид Ловгрен, Лео Фафард, Курт Макс Рунте-О фильме: В отдалённом будущем американское правительство утвердило секретную программу, по которой бедных, необразованных и неугодных стране людей сначала высылают в колонию, а затем уничтожают. Одно из таких дел попадает в руки агента. Проникшись симпатией к одинокой матери и её сыну, он решает помочь им бежать.- -Качество: BDRip 720p
Формат: MKV
Видео: MPEG-4 AVC, 5000 Kb/s, 1280x536
Аудио #1: Russian: 48 kHz, AC3 Dolby Digital, 2/0 (L, R) ch, ~192 Kbps | iTunes
Аудио #2: English: 48 kHz, AC3 Dolby Digital, 3/2 (L, C, R, l, r) + LFE ch, ~640 Kbps | Original
Субтитры: Нет
Дополнительно: Сохранены оригинальные чаптеры.-

MediaInfo:

Complete name: Byuro.chelovechestva.2017.720p.BluRay.ELEKTRI4KA.UNIONGANG.mkv
Format: Matroska
Format version: Version 4 / Version 2
File size: 3.85 GiB
Duration: 1 h 34 min
Overall bit rate: 5 829 kb/s
Movie name: .ELEKTRI4KA.UNIONGANG.
Encoded date: UTC 2020-06-29 20:54:18
Writing application: mkvmerge v8.3.0 ('Over the Horizon') 64bit
Writing library: libebml v1.3.1 + libmatroska v1.4.2
Video
ID: 1
Format: AVC
Format/Info: Advanced Video Codec
Format profile: [email protected]
Format settings, CABAC: Yes
Format settings, Reference frames: 10 frames
Codec ID: V_MPEG4/ISO/AVC
Duration: 1 h 34 min
Bit rate: 5 000 kb/s
Width: 1 280 pixels
Height: 536 pixels
Display aspect ratio: 2.40:1
Frame rate mode: Constant
Frame rate: 24.000 FPS
Color space: YUV
Chroma subsampling: 4:2:0
Bit depth: 8 bits
Scan type: Progressive
Bits/(Pixel*Frame): 0.304
Stream size: 3.30 GiB (86%)
Title: .ELEKTRI4KA.UNIONGANG.
Writing library: x264 core 142 r2431+42 c69a006 tMod [[email protected] X86_64]
Encoding settings: cabac=1 / ref=10 / deblock=1:-3:-3 / analyse=0x3:0x113 / me=umh / subme=11 / psy=1 / fade_compensate=0.00 / psy_rd=1.05:1.05 / mixed_ref=1 / me_range=48 / chroma_me=1 / trellis=2 / 8x8dct=1 / cqm=0 / deadzone=21, 11 / fast_pskip=0 / chroma_qp_offset=-4 / threads=16 / lookahead_threads=2 / sliced_threads=0 / nr=0 / decimate=0 / interlaced=0 / bluray_compat=0 / constrained_intra=0 / fgo=0 / bframes=8 / b_pyramid=2 / b_adapt=2 / b_bias=0 / direct=3 / weightb=1 / open_gop=0 / weightp=2 / keyint=240 / keyint_min=24 / scenecut=40 / intra_refresh=0 / rc_lookahead=150 / rc=2pass / mbtree=0 / bitrate=5000 / ratetol=1.0 / qcomp=0.60 / qpmin=0:0:0 / qpmax=69:69:69 / qpstep=4 / cplxblur=20.0 / qblur=0.5 / vbv_maxrate=300000 / vbv_bufsize=300000 / nal_hrd=none / filler=0 / ip_ratio=1.30 / pb_ratio=1.20 / aq=2:0.90 / aq-sensitivity=10.00 / aq-factor=1.00:1.00:1.00 / aq2=0 / aq3=0
Default: Yes
Forced: No
Color range: Limited
Color primaries: BT.709
Transfer characteristics: BT.709
Matrix coefficients: BT.709
Audio #1
ID: 2
Format: AC-3
Format/Info: Audio Coding 3
Mode extension: CM (complete main)
Format settings, Endianness: Big
Codec ID: A_AC3
Duration: 1 h 34 min
Bit rate mode: Constant
Bit rate: 192 kb/s
Channel(s): 2 channels
Channel positions: Front: L R
Sampling rate: 48.0 kHz
Frame rate: 31.250 FPS (1536 spf)
Bit depth: 16 bits
Compression mode: Lossy
Stream size: 130 MiB (3%)
Title: iTunes
Language: Russian
Default: Yes
Forced: No
Audio #2
ID: 3
Format: AC-3
Format/Info: Audio Coding 3
Mode extension: CM (complete main)
Format settings, Endianness: Big
Codec ID: A_AC3
Duration: 1 h 34 min
Bit rate mode: Constant
Bit rate: 640 kb/s
Channel(s): 6 channels
Channel positions: Front: L C R, Side: L R, LFE
Sampling rate: 48.0 kHz
Frame rate: 31.250 FPS (1536 spf)
Bit depth: 16 bits
Compression mode: Lossy
Stream size: 433 MiB (11%)
Language: English
Default: No
Forced: No
Menu
00:00:00.000: en:00:00:00.000
00:00:34.042: en:00:00:34.042
00:09:47.917: en:00:09:47.917
00:15:59.208: en:00:15:59.208
00:24:11.625: en:00:24:11.625
00:32:02.542: en:00:32:02.542
00:38:55.375: en:00:38:55.375
00:48:29.375: en:00:48:29.375
00:55:07.000: en:00:55:07.000
01:04:01.833: en:01:04:01.833
01:12:48.500: en:01:12:48.500
01:20:40.083: en:01:20:40.083
01:29:33.667: en:01:29:33.667

Скриншоты

       

Спасибо Релиз группе: ELEKTRI4KA

Kon912

Post 30-Jun-2020 22:56

[Quote]

Вооружённый ответ / Armed Response- Год выхода: 2017
Страна: США
Студия: Erebus Pictures, Maandi Films, Saban Films, WWE Studios
Жанр: ужасы, триллер, боевик
Продолжительность: 01:33:52
Озвучивание: Профессиональное (многоголосое) | iTunes-Режиссер:
Джон Стокуэлл-В ролях:
Уэсли Снайпс, Энн Хеч, Дэйв Эннэйбл, Колби Лопес, Кайл Расселл Клементс, Морган Робертс, Эйас Юнис, Мэтт Галлини, Майкл Сил, Джон Л. Армихо-О фильме:
Команда высокопрофессиональных оперативников оказывается в ловушке внутри воинской части. Без того удушающую атмосферу накаляет тот факт, что в этом самом здании уже погибла группа их предшественников.- -Качество: BDRip 1080p
Формат: MKV
Видео: MPEG-4 AVC, 12.0 Мb/s, 1920x1040
Аудио #1: Russian: 48 kHz, AC3 Dolby Digital, 2/0 (L, R) ch, ~192 Kbps | iTunes
Аудио #2: English: 48 kHz, AC3 Dolby Digital, 3/2 (L, C, R, l, r) + LFE ch, ~640 Kbps | Original
Субтитры: English
Дополнительно: Сохранены оригинальные чаптеры.-

MediaInfo:

Complete name: Vooruzhennyiy.otvet.2017.1080p.BluRay.ELEKTRI4KA.UNIONGANG.mkv
Format: Matroska
Format version: Version 4 / Version 2
File size: 8.41 GiB
Duration: 1 h 33 min
Overall bit rate mode: Variable
Overall bit rate: 12.8 Mb/s
Movie name: .ELEKTRI4KA.UNIONGANG.
Encoded date: UTC 2020-06-30 13:14:42
Writing application: mkvmerge v8.3.0 ('Over the Horizon') 64bit
Writing library: libebml v1.3.1 + libmatroska v1.4.2
Video
ID: 1
Format: AVC
Format/Info: Advanced Video Codec
Format profile: [email protected]
Format settings, CABAC: Yes
Format settings, Reference frames: 3 frames
Codec ID: V_MPEG4/ISO/AVC
Duration: 1 h 33 min
Bit rate mode: Variable
Bit rate: 12.0 Mb/s
Maximum bit rate: 62.5 Mb/s
Width: 1 920 pixels
Height: 1 040 pixels
Display aspect ratio: 1.85:1
Frame rate mode: Constant
Frame rate: 23.976 (24000/1001) FPS
Color space: YUV
Chroma subsampling: 4:2:0
Bit depth: 8 bits
Scan type: Progressive
Bits/(Pixel*Frame): 0.251
Stream size: 7.86 GiB (93%)
Title: .ELEKTRI4KA.UNIONGANG.
Writing library: x264 core 142 r2431+42 c69a006 tMod [[email protected] X86_64]
Encoding settings: cabac=1 / ref=4 / deblock=1:-3:-3 / analyse=0x3:0x133 / me=umh / subme=11 / psy=1 / fade_compensate=0.00 / psy_rd=1.05:1.05 / mixed_ref=1 / me_range=48 / chroma_me=1 / trellis=2 / 8x8dct=1 / cqm=0 / deadzone=21, 11 / fast_pskip=0 / chroma_qp_offset=-4 / threads=16 / lookahead_threads=2 / sliced_threads=0 / nr=0 / decimate=0 / interlaced=0 / bluray_compat=0 / constrained_intra=0 / fgo=0 / bframes=8 / b_pyramid=1 / b_adapt=2 / b_bias=0 / direct=3 / weightb=1 / open_gop=0 / weightp=2 / keyint=240 / keyint_min=23 / scenecut=40 / intra_refresh=0 / rc_lookahead=100 / rc=2pass / mbtree=0 / bitrate=12000 / ratetol=1.0 / qcomp=0.70 / qpmin=0:0:0 / qpmax=69:69:69 / qpstep=4 / cplxblur=20.0 / qblur=0.5 / vbv_maxrate=62500 / vbv_bufsize=78125 / nal_hrd=vbr / filler=0 / ip_ratio=1.30 / pb_ratio=1.20 / aq=2:0.80 / aq-sensitivity=10.00 / aq-factor=1.00:1.00:1.00 / aq2=0 / aq3=0
Default: Yes
Forced: No
Color range: Limited
Color primaries: BT.709
Transfer characteristics: BT.709
Matrix coefficients: BT.709
Audio #1
ID: 2
Format: AC-3
Format/Info: Audio Coding 3
Mode extension: CM (complete main)
Format settings, Endianness: Big
Codec ID: A_AC3
Duration: 1 h 33 min
Bit rate mode: Constant
Bit rate: 192 kb/s
Channel(s): 2 channels
Channel positions: Front: L R
Sampling rate: 48.0 kHz
Frame rate: 31.250 FPS (1536 spf)
Bit depth: 16 bits
Compression mode: Lossy
Stream size: 129 MiB (1%)
Title: iTunes
Language: Russian
Default: Yes
Forced: No
Audio #2
ID: 3
Format: AC-3
Format/Info: Audio Coding 3
Mode extension: CM (complete main)
Format settings, Endianness: Big
Codec ID: A_AC3
Duration: 1 h 33 min
Bit rate mode: Constant
Bit rate: 640 kb/s
Channel(s): 6 channels
Channel positions: Front: L C R, Side: L R, LFE
Sampling rate: 48.0 kHz
Frame rate: 31.250 FPS (1536 spf)
Bit depth: 16 bits
Compression mode: Lossy
Stream size: 430 MiB (5%)
Language: English
Default: No
Forced: No
Text
ID: 4
Format: PGS
Muxing mode: zlib
Codec ID: S_HDMV/PGS
Codec ID/Info: Picture based subtitle format used on BDs/HD-DVDs
Duration: 1 h 28 min
Bit rate: 11.0 kb/s
Count of elements: 2236
Stream size: 6.94 MiB (0%)
Language: English
Default: Yes
Forced: No
Menu
00:00:00.000: en:00:00:00.000
00:07:37.916: en:00:07:37.916
00:12:55.024: en:00:12:55.024
00:17:50.528: en:00:17:50.528
00:23:24.903: en:00:23:24.903
00:30:37.961: en:00:30:37.961
00:34:48.295: en:00:34:48.295
00:41:14.806: en:00:41:14.806
00:45:35.900: en:00:45:35.900
00:51:25.541: en:00:51:25.541
00:56:45.861: en:00:56:45.861
01:02:47.263: en:01:02:47.263
01:10:40.987: en:01:10:40.987
01:16:32.713: en:01:16:32.713
01:21:38.602: en:01:21:38.602
01:29:49.384: en:01:29:49.384

Скриншоты

       

Спасибо Релиз группе: ELEKTRI4KA

Kon912

Post 30-Jun-2020 22:56

[Quote]

Вооружённый ответ / Armed Response- Год выхода: 2017
Страна: США
Студия: Erebus Pictures, Maandi Films, Saban Films, WWE Studios
Жанр: ужасы, триллер, боевик
Продолжительность: 01:33:52
Озвучивание: Профессиональное (многоголосое) | iTunes-Режиссер:
Джон Стокуэлл-В ролях:
Уэсли Снайпс, Энн Хеч, Дэйв Эннэйбл, Колби Лопес, Кайл Расселл Клементс, Морган Робертс, Эйас Юнис, Мэтт Галлини, Майкл Сил, Джон Л. Армихо-О фильме:
Команда высокопрофессиональных оперативников оказывается в ловушке внутри воинской части. Без того удушающую атмосферу накаляет тот факт, что в этом самом здании уже погибла группа их предшественников.- -Качество: BDRip 720p
Формат: MKV
Видео: MPEG-4 AVC, 4350 Kb/s, 1280x694
Аудио #1: Russian: 48 kHz, AC3 Dolby Digital, 2/0 (L, R) ch, ~192 Kbps | iTunes
Аудио #2: English: 48 kHz, AC3 Dolby Digital, 3/2 (L, C, R, l, r) + LFE ch, ~640 Kbps | Original
Субтитры: English
Дополнительно: Сохранены оригинальные чаптеры.-

MediaInfo:

Complete name: D:\Vooruzhennyiy.otvet.2017.720p.BluRay.ELEKTRI4KA.UNIONGANG.mkv
Format: Matroska
Format version: Version 4 / Version 2
File size: 3.41 GiB
Duration: 1 h 33 min
Overall bit rate: 5 195 kb/s
Movie name: .ELEKTRI4KA.UNIONGANG.
Encoded date: UTC 2020-06-30 13:19:32
Writing application: mkvmerge v8.3.0 ('Over the Horizon') 64bit
Writing library: libebml v1.3.1 + libmatroska v1.4.2
Video
ID: 1
Format: AVC
Format/Info: Advanced Video Codec
Format profile: [email protected]
Format settings, CABAC: Yes
Format settings, Reference frames: 12 frames
Codec ID: V_MPEG4/ISO/AVC
Duration: 1 h 33 min
Bit rate: 4 350 kb/s
Width: 1 280 pixels
Height: 694 pixels
Display aspect ratio: 1.85:1
Frame rate mode: Constant
Frame rate: 23.976 (24000/1001) FPS
Color space: YUV
Chroma subsampling: 4:2:0
Bit depth: 8 bits
Scan type: Progressive
Bits/(Pixel*Frame): 0.204
Stream size: 2.85 GiB (84%)
Title: .ELEKTRI4KA.UNIONGANG.
Writing library: x264 core 148 r2692+46 0f71ed5 7mod [[email protected] X86_64]
Encoding settings: cabac=1 / ref=12 / deblock=1:-3:-3 / analyse=0x3:0x113 / me=umh / subme=11 / psy=1 / fade_compensate=0.00 / psy_rd=1.00:0.00 / mixed_ref=1 / me_range=32 / chroma_me=1 / trellis=2 / 8x8dct=1 / cqm=0 / deadzone=11, 6 / fast_pskip=0 / chroma_qp_offset=-2 / threads=22 / lookahead_threads=3 / sliced_threads=0 / nr=0 / decimate=0 / interlaced=0 / bluray_compat=0 / constrained_intra=0 / fgo=0 / bframes=8 / b_pyramid=2 / b_adapt=2 / b_bias=0 / direct=3 / weightb=1 / open_gop=0 / weightp=2 / keyint=250 / keyint_min=23 / scenecut=40 / intra_refresh=0 / rc_lookahead=60 / rc=crf / mbtree=0 / crf=17.0000 / qcomp=0.60 / qpmin=0:0:0 / qpmax=32:32:32 / qpstep=4 / vbv_maxrate=40000 / vbv_bufsize=30000 / crf_max=0.0 / nal_hrd=none / filler=0 / ip_ratio=1.30 / pb_ratio=1.20 / aq=4:0.80 / aq-sensitivity=10.00 / aq-factor=1.00:1.00:1.00 / aq2=0 / aq3=0
Language: English
Default: Yes
Forced: No
Color range: Limited
Color primaries: BT.709
Transfer characteristics: BT.709
Matrix coefficients: BT.709
Audio #1
ID: 2
Format: AC-3
Format/Info: Audio Coding 3
Mode extension: CM (complete main)
Format settings, Endianness: Big
Codec ID: A_AC3
Duration: 1 h 33 min
Bit rate mode: Constant
Bit rate: 192 kb/s
Channel(s): 2 channels
Channel positions: Front: L R
Sampling rate: 48.0 kHz
Frame rate: 31.250 FPS (1536 spf)
Bit depth: 16 bits
Compression mode: Lossy
Stream size: 129 MiB (4%)
Title: iTunes
Language: Russian
Default: Yes
Forced: No
Audio #2
ID: 3
Format: AC-3
Format/Info: Audio Coding 3
Mode extension: CM (complete main)
Format settings, Endianness: Big
Codec ID: A_AC3
Duration: 1 h 33 min
Bit rate mode: Constant
Bit rate: 640 kb/s
Channel(s): 6 channels
Channel positions: Front: L C R, Side: L R, LFE
Sampling rate: 48.0 kHz
Frame rate: 31.250 FPS (1536 spf)
Bit depth: 16 bits
Compression mode: Lossy
Stream size: 430 MiB (12%)
Language: English
Default: No
Forced: No
Text
ID: 4
Format: PGS
Muxing mode: zlib
Codec ID: S_HDMV/PGS
Codec ID/Info: Picture based subtitle format used on BDs/HD-DVDs
Duration: 1 h 28 min
Bit rate: 11.0 kb/s
Count of elements: 2236
Stream size: 6.94 MiB (0%)
Language: English
Default: Yes
Forced: No
Menu
00:00:00.000: en:00:00:00.000
00:07:37.916: en:00:07:37.916
00:12:55.024: en:00:12:55.024
00:17:50.528: en:00:17:50.528
00:23:24.903: en:00:23:24.903
00:30:37.961: en:00:30:37.961
00:34:48.295: en:00:34:48.295
00:41:14.806: en:00:41:14.806
00:45:35.900: en:00:45:35.900
00:51:25.541: en:00:51:25.541
00:56:45.861: en:00:56:45.861
01:02:47.263: en:01:02:47.263
01:10:40.987: en:01:10:40.987
01:16:32.713: en:01:16:32.713
01:21:38.602: en:01:21:38.602
01:29:49.384: en:01:29:49.384

Скриншоты

       

Спасибо Релиз группе: ELEKTRI4KA

Kon912

Post 30-Jun-2020 22:50

[Quote]

Восточный ветер 3: Наследие Оры / Ostwind 3: Aufbruch nach Ora - Год выхода: 2017
Страна: Германия
Студия: Constantin Film Produktion GmbH, SamFilm GmbH
Жанр: драма, мелодрама, приключения, семейный
Продолжительность: 01:50:07
Озвучивание: Дублированное | iTunes-Режиссер:
Катя фон Гарнье-В ролях:
Ханна Бинке, Лея ван Акен, Яннис Нивёнер, Николетт Кребиц, Амбер Бонгард, Марвин Линке, Тило Прюкнер, Корнелия Фробёсс, Томас Зарбахер, Мартин Файфель-О фильме:
Главную героиню фильма бунтарку Мику из-за плохих оценок в школе родители отправляет на целое лето на ранчо к строгой бабуле. Приехав в деревенскую глушь, девушка обнаруживает для себя кроме чтения книг довольно интересное занятие. В самом дальнем амбаре Мика встречает дикого норовистого жеребца по кличке Восточный ветер.
Мика внезапно чувствует в этом жеребце родственную душу и ночью приходит в амбар к Восточному ветру. Так начинается дружба двух неукротимых душ. Удастся ли Мике вопреки всему укротить жеребца?- -Качество: BDRip 1080p
Формат: MKV
Видео: AVC, 15.1 Mb/s, 1920x1040
Аудио #1: Russian: 48 kHz, AC-3, 3/2 (L, C, R, l, r) + LFE ch, ~384 Kbps | iTunes
Аудио #2: German: 48 kHz, AC-3, 3/2 (L, C, R, l, r) + LFE ch, ~640 Kbps | Original
Субтитры: Russian, English
Дополнительно: Сохранены оригинальные чаптеры.-

MediaInfo:

Complete name: Ostwind.3.2017.BDRip.1080p.ELEKTRI4KA.UNIONGANG.mkv
Format: Matroska
Format version: Version 4 / Version 2
File size: 11.1 GiB
Duration: 1 h 50 min
Overall bit rate: 14.5 Mb/s
Movie name: .ELEKTRI4KA.UNIONGANG.
Encoded date: UTC 2020-06-30 10:36:26
Writing application: mkvmerge v8.3.0 ('Over the Horizon') 64bit
Writing library: libebml v1.3.1 + libmatroska v1.4.2
Video
ID: 1
Format: AVC
Format/Info: Advanced Video Codec
Format profile: [email protected]
Format settings, CABAC: Yes
Format settings, Reference frames: 5 frames
Codec ID: V_MPEG4/ISO/AVC
Duration: 1 h 50 min
Bit rate: 13.4 Mb/s
Width: 1 920 pixels
Height: 804 pixels
Display aspect ratio: 2.40:1
Frame rate mode: Constant
Frame rate: 24.000 FPS
Color space: YUV
Chroma subsampling: 4:2:0
Bit depth: 8 bits
Scan type: Progressive
Bits/(Pixel*Frame): 0.363
Stream size: 10.3 GiB (93%)
Title: .ELEKTRI4KA.UNIONGANG.
Writing library: x264 core 152 r2851+58 429492e t_mod_Custom [[email protected] X86_64]
Encoding settings: cabac=1 / ref=5 / deblock=1:-3:-3 / analyse=0x3:0x133 / me=umh / subme=10 / psy=1 / fade_compensate=0.00 / psy_rd=1.02:0.00 / mixed_ref=1 / me_range=48 / chroma_me=1 / trellis=2 / 8x8dct=1 / cqm=0 / deadzone=21, 11 / fast_pskip=0 / chroma_qp_offset=-2 / threads=24 / lookahead_threads=4 / sliced_threads=0 / nr=0 / decimate=0 / interlaced=0 / bluray_compat=0 / constrained_intra=0 / fgo=0 / bframes=9 / b_pyramid=2 / b_adapt=2 / b_bias=0 / direct=3 / weightb=1 / open_gop=0 / weightp=2 / keyint=250 / keyint_min=24 / scenecut=40 / intra_refresh=0 / rc_lookahead=60 / rc=crf / mbtree=0 / crf=17.0000 / qcomp=0.60 / qpmin=0:0:0 / qpmax=69:69:69 / qpstep=4 / vbv_maxrate=62500 / vbv_bufsize=78125 / crf_max=0.0 / nal_hrd=none / filler=0 / ip_ratio=1.30 / pb_ratio=1.20 / aq=3:0.80 / aq-sensitivity=10.00 / aq-factor=1.00:1.00:1.00 / aq2=0 / aq3=0 / zones=24, 311, crf=13.5/682, 931, crf=14.5/4005, 4012, crf=13.5/14313, 14699, crf=14.5/15203, 15250, crf=13.5/17595, 17782, crf=15/18524, 18778, crf=14.5/18923, 19278, crf=14.5/19849, 21703, crf=14/21944, 23142, crf=13/21419, 21493, crf=14.5/24631, 25275, crf=15.5/28087, 28904, crf=14.5/41015, 41138, crf=14/41608, 41884, crf=14.5/43736, 43838, crf=14.5/44005, 44415, crf=14.5/44767, 45716, crf=12.5/46249, 47859, crf=14/48044, 48437, crf=14.5/48619, 49389, crf=14.5/49860, 50166, crf=15/65017, 66054, crf=14.5/68775, 68914, crf=14.5/86451, 86534, crf=14.5/90345, 90625, crf=14.5/90988, 91212, crf=13.5/91241, 93604, crf=14.5/94050, 94240, crf=14.5/94499, 94537, crf=14.5/94697, 94807, crf=14.5/95012, 95163, crf=14/101627, 101675, crf=14.5/105591, 105785, crf=14/107999, 108061, crf=14/112343, 112360, crf=13.5/113028, 113102, crf=12/113524, 113560, crf=13/113641, 113997, crf=14.5/114126, 114181, crf=14.5/137789, 138148, crf=14.5/138618, 138946, crf=13.5/142980, 143090, crf=14.5/144913, 145327, crf=13.5/145484, 145535, crf=14.5/145737, 145869, crf=14.5/145913, 146349, crf=14.5/146706, 146822, crf=14.5/147785, 147856, crf=13/147970, 148254, crf=14.5/148341, 148540, crf=13.5/148715, 148780, crf=13.5/148897, 150313, crf=13.5/150684, 150765, crf=14.5/151491, 151613, crf=13.5/153118, 157797, b=0.2
Default: Yes
Forced: No
Audio #1
ID: 2
Format: AC-3
Format/Info: Audio Coding 3
Mode extension: CM (complete main)
Format settings, Endianness: Big
Codec ID: A_AC3
Duration: 1 h 50 min
Bit rate mode: Constant
Bit rate: 384 kb/s
Channel(s): 6 channels
Channel positions: Front: L C R, Side: L R, LFE
Sampling rate: 48.0 kHz
Frame rate: 31.250 FPS (1536 spf)
Bit depth: 16 bits
Compression mode: Lossy
Stream size: 302 MiB (3%)
Title: iTunes
Language: Russian
Default: Yes
Forced: No
Audio #2
ID: 3
Format: AC-3
Format/Info: Audio Coding 3
Mode extension: CM (complete main)
Format settings, Endianness: Big
Codec ID: A_AC3
Duration: 1 h 50 min
Bit rate mode: Constant
Bit rate: 640 kb/s
Channel(s): 6 channels
Channel positions: Front: L C R, Side: L R, LFE
Sampling rate: 48.0 kHz
Frame rate: 31.250 FPS (1536 spf)
Bit depth: 16 bits
Compression mode: Lossy
Stream size: 504 MiB (4%)
Language: German
Default: No
Forced: No
Text #1
ID: 4
Format: UTF-8
Codec ID: S_TEXT/UTF8
Codec ID/Info: UTF-8 Plain Text
Duration: 1 h 45 min
Bit rate: 58 b/s
Count of elements: 767
Stream size: 45.6 KiB (0%)
Title: Full
Language: Russian
Default: Yes
Forced: No
Text #2
ID: 5
Format: UTF-8
Codec ID: S_TEXT/UTF8
Codec ID/Info: UTF-8 Plain Text
Duration: 1 h 42 min
Bit rate: 27 b/s
Count of elements: 728
Stream size: 20.9 KiB (0%)
Language: English
Default: No
Forced: No
Menu
00:00:00.000: en:00:00:00.000
00:06:00.000: en:00:06:00.000
00:12:51.833: en:00:12:51.833
00:20:39.708: en:00:20:39.708
00:25:51.417: en:00:25:51.417
00:32:33.792: en:00:32:33.792
00:38:32.417: en:00:38:32.417
00:45:09.042: en:00:45:09.042
00:50:19.167: en:00:50:19.167
00:58:57.042: en:00:58:57.042
01:05:14.792: en:01:05:14.792
01:11:37.458: en:01:11:37.458
01:18:17.500: en:01:18:17.500
01:22:58.542: en:01:22:58.542
01:31:03.250: en:01:31:03.250
01:39:15.000: en:01:39:15.000
01:44:23.083: en:01:44:23.083

Скриншоты

       

Спасибо Релиз группе: ELEKTRI4KA

Kon912

Post 30-Jun-2020 22:50

[Quote]

Восточный ветер 2 / Ostwind 2- Год выхода: 2015
Страна: Германия
Студия: Constantin Film Produktion, SamFilm Produktion
Жанр: драма, мелодрама, приключения, семейный
Продолжительность: 01:47:56
Озвучивание: Дублированное | iTunes-Режиссер:
Катя фон Гарнье-В ролях:
Ханна Бинке, Марвин Линке, Корнелия Фробёсс, Тило Прюкнер, Юрген Фогель, Нина Кронъегер, Детлев Бук, Марла Мен, Амбер Бонгард-О фильме:
Наступили летние каникулы, и Мика возвращается в Кальтенбах в тревоге за своего вороного друга Оствинда. В поместье бабушки тоже не все гладко: Кальтенбах на грани банкротства, и единственный шанс спасти его от разорения — принять участие в очередном турнире. Также Мике придется выяснить, откуда у Оствинда странные шрамы, узнать, кто такая Тридцать Третья, и пойти на сделку с незнакомцем, утверждающим, что он может помочь девушке выиграть турнир.- -Качество: BDRip 1080p
Формат: MKV
Видео: AVC, 13.7 Mb/s, 1920x802
Аудио #1: Russian: 48 kHz, AC3 Dolby Digital, 3/2 (L, C, R, l, r) + LFE ch, ~384 Kbps | iTunes
Аудио #2: German: 48 kHz, AC3 Dolby Digital, 3/2 (L, C, R, l, r) + LFE ch, ~640 Kbps | Original
Субтитры: Russian (Full), English, German
Дополнительно: Сохранены оригинальные чаптеры.-

MediaInfo:

Complete name: Ostwind.2.2015.BDRip.1080p.ELEKTRI4KA.UNIONGANG.mkv
Format: Matroska
Format version: Version 4 / Version 2
File size: 11.1 GiB
Duration: 1 h 47 min
Overall bit rate: 14.7 Mb/s
Movie name: .ELEKTRI4KA.UNIONGANG.
Encoded date: UTC 2020-06-14 18:42:28
Writing application: mkvmerge v8.3.0 ('Over the Horizon') 64bit
Writing library: libebml v1.3.1 + libmatroska v1.4.2
Video
ID: 1
Format: AVC
Format/Info: Advanced Video Codec
Format profile: [email protected]
Format settings, CABAC: Yes
Format settings, Reference frames: 5 frames
Codec ID: V_MPEG4/ISO/AVC
Duration: 1 h 47 min
Bit rate: 13.7 Mb/s
Width: 1 920 pixels
Height: 802 pixels
Display aspect ratio: 2.40:1
Frame rate mode: Constant
Frame rate: 24.000 FPS
Color space: YUV
Chroma subsampling: 4:2:0
Bit depth: 8 bits
Scan type: Progressive
Bits/(Pixel*Frame): 0.371
Stream size: 10.3 GiB (93%)
Writing library: x264 core 155 r2867+82 a249126 t_mod_Custom_2 [[email protected] X86_64]
Encoding settings: cabac=1 / ref=5 / deblock=1:-3:-3 / analyse=0x3:0x133 / me=umh / subme=10 / psy=1 / fade_compensate=0.00 / psy_rd=1.00:0.00 / mixed_ref=1 / me_range=48 / chroma_me=1 / trellis=2 / 8x8dct=1 / cqm=0 / deadzone=21, 11 / fast_pskip=0 / chroma_qp_offset=-2 / threads=24 / lookahead_threads=2 / sliced_threads=0 / nr=0 / decimate=0 / interlaced=0 / bluray_compat=0 / constrained_intra=0 / fgo=0 / bframes=6 / b_pyramid=2 / b_adapt=2 / b_bias=0 / direct=3 / weightb=1 / open_gop=0 / weightp=2 / keyint=250 / keyint_min=24 / scenecut=40 / intra_refresh=0 / rc_lookahead=60 / rc=crf / mbtree=0 / crf=16.5000 / qcomp=0.60 / qpmin=0:0:0 / qpmax=69:69:69 / qpstep=4 / vbv_maxrate=62500 / vbv_bufsize=78125 / crf_max=0.0 / nal_hrd=none / filler=0 / ip_ratio=1.30 / pb_ratio=1.20 / aq=1:0.85 / aq-sensitivity=10.00 / aq-factor=1.00:1.00:1.00 / aq2=0 / aq3=0 / zones=75515, 75578, crf=11
Default: Yes
Forced: No
Audio #1
ID: 2
Format: AC-3
Format/Info: Audio Coding 3
Mode extension: CM (complete main)
Format settings, Endianness: Big
Codec ID: A_AC3
Duration: 1 h 47 min
Bit rate mode: Constant
Bit rate: 384 kb/s
Channel(s): 6 channels
Channel positions: Front: L C R, Side: L R, LFE
Sampling rate: 48.0 kHz
Frame rate: 31.250 FPS (1536 spf)
Bit depth: 16 bits
Compression mode: Lossy
Stream size: 296 MiB (3%)
Title: iTunes
Language: Russian
Default: Yes
Forced: No
Audio #2
ID: 3
Format: AC-3
Format/Info: Audio Coding 3
Mode extension: CM (complete main)
Format settings, Endianness: Big
Codec ID: A_AC3
Duration: 1 h 47 min
Bit rate mode: Constant
Bit rate: 640 kb/s
Channel(s): 6 channels
Channel positions: Front: L C R, Side: L R, LFE
Sampling rate: 48.0 kHz
Frame rate: 31.250 FPS (1536 spf)
Bit depth: 16 bits
Compression mode: Lossy
Stream size: 494 MiB (4%)
Language: German
Default: No
Forced: No
Text #1
ID: 4
Format: UTF-8
Codec ID: S_TEXT/UTF8
Codec ID/Info: UTF-8 Plain Text
Duration: 1 h 42 min
Bit rate: 63 b/s
Count of elements: 689
Stream size: 47.9 KiB (0%)
Title: Full
Language: Russian
Default: Yes
Forced: No
Text #2
ID: 5
Format: UTF-8
Codec ID: S_TEXT/UTF8
Codec ID/Info: UTF-8 Plain Text
Duration: 1 h 40 min
Bit rate: 33 b/s
Count of elements: 758
Stream size: 24.7 KiB (0%)
Language: English
Default: No
Forced: No
Text #3
ID: 6
Format: UTF-8
Codec ID: S_TEXT/UTF8
Codec ID/Info: UTF-8 Plain Text
Duration: 1 h 46 min
Bit rate: 33 b/s
Count of elements: 694
Stream size: 26.2 KiB (0%)
Language: German
Default: No
Forced: No
Menu
00:00:00.000: en:00:00:00.000
00:05:16.375: en:00:05:16.375
00:11:31.375: en:00:11:31.375
00:16:41.542: en:00:16:41.542
00:22:25.750: en:00:22:25.750
00:28:07.625: en:00:28:07.625
00:32:59.500: en:00:32:59.500
00:37:17.708: en:00:37:17.708
00:42:52.333: en:00:42:52.333
00:49:01.917: en:00:49:01.917
00:56:16.292: en:00:56:16.292
01:05:14.208: en:01:05:14.208
01:12:54.917: en:01:12:54.917
01:20:40.208: en:01:20:40.208
01:28:01.375: en:01:28:01.375
01:35:25.542: en:01:35:25.542
01:41:54.958: en:01:41:54.958

Скриншоты

       

Спасибо Релиз группе: ELEKTRI4KA

Kon912

Post 30-Jun-2020 22:49

[Quote]

Восточный ветер / Ostwind - Zusammen sind wir frei- Год выхода: 2013
Страна Германия
Студия: Constantin Film Produktion GmbH, SamFilm GmbH
Жанр: драма, мелодрама, приключения, семейный
Продолжительность: 01:45:28
Озвучивание: Дублированное | iTunes-Режиссер:
Катя фон Гарнье-В ролях:
Детлев Бук, Корнелия Фробесс, Ханна Хёппнер, Нина Кронягер, Марвин Линке, Тило Прюкнер, Мартин Тон, Юрген Фогель-О фильме:
Главную героиню фильма бунтарку Мику из-за плохих оценок в школе родители отправляет на целое лето на ранчо к строгой бабуле. Приехав в деревенскую глушь, девушка обнаруживает для себя кроме чтения книг довольно интересное занятие. В самом дальнем амбаре Мика встречает дикого норовистого жеребца по кличке Восточный ветер.
Мика внезапно чувствует в этом жеребце родственную душу и ночью приходит в амбар к Восточному ветру. Так начинается дружба двух неукротимых душ. Удастся ли Мике вопреки всему укротить жеребца?- -Качество: BDRip 1080p
Формат: MKV
Видео: AVC, 15.1 Mb/s, 1920x1040
Аудио #1: Russian: 48 kHz, AC-3, 3/2 (L, C, R, l, r) + LFE ch, ~384 Kbps | iTunes
Аудио #2: German: 48 kHz, AC-3, 3/2 (L, C, R, l, r) + LFE ch, ~640 Kbps | Original
Субтитры: Russian, English
Дополнительно: Сохранены оригинальные чаптеры.-

MediaInfo:

Complete name : Ostwind.2013.1080p.BluRay.ELEKTRI4KA.UNIONGANG.mkv
Format : Matroska
Format version : Version 4 / Version 2
File size : 11.9 GiB
Duration : 1 h 45 min
Overall bit rate : 16.1 Mb/s
Movie name : .ELEKTRI4KA.UNIONGANG.
Encoded date : UTC 2020-06-02 22:00:48
Writing application : mkvmerge v8.3.0 ('Over the Horizon') 64bit
Writing library : libebml v1.3.1 + libmatroska v1.4.2
Video
ID : 1
Format : AVC
Format/Info : Advanced Video Codec
Format profile : [email protected]
Format settings, CABAC : Yes
Format settings, Reference frames : 4 frames
Codec ID : V_MPEG4/ISO/AVC
Duration : 1 h 45 min
Bit rate : 15.1 Mb/s
Width : 1 920 pixels
Height : 1 040 pixels
Display aspect ratio : 1.85:1
Frame rate mode : Constant
Frame rate : 24.000 FPS
Color space : YUV
Chroma subsampling : 4:2:0
Bit depth : 8 bits
Scan type : Progressive
Bits/(Pixel*Frame) : 0.315
Stream size : 11.1 GiB (94%)
Writing library : x264 core 155 r2867+82 a249126 t_mod_Custom_2 [[email protected] X86_64]
Encoding settings : cabac=1 / ref=4 / deblock=1:-3:-3 / analyse=0x3:0x133 / me=umh / subme=10 / psy=1 / fade_compensate=0.00 / psy_rd=1.00:0.00 / mixed_ref=1 / me_range=32 / chroma_me=1 / trellis=2 / 8x8dct=1 / cqm=0 / deadzone=21, 11 / fast_pskip=0 / chroma_qp_offset=-2 / threads=24 / lookahead_threads=2 / sliced_threads=0 / nr=0 / decimate=0 / interlaced=0 / bluray_compat=0 / constrained_intra=0 / fgo=0 / bframes=6 / b_pyramid=2 / b_adapt=2 / b_bias=0 / direct=3 / weightb=1 / open_gop=0 / weightp=2 / keyint=250 / keyint_min=24 / scenecut=40 / intra_refresh=0 / rc_lookahead=60 / rc=crf / mbtree=0 / crf=17.4000 / qcomp=0.60 / qpmin=0:0:0 / qpmax=69:69:69 / qpstep=4 / vbv_maxrate=62500 / vbv_bufsize=78125 / crf_max=0.0 / nal_hrd=none / filler=0 / ip_ratio=1.40 / pb_ratio=1.30 / aq=3:0.70 / aq-sensitivity=10.00 / aq-factor=1.00:1.00:1.00 / aq2=0 / aq3=0 / zones=34, 240, crf=14/441, 467, crf=14/2580, 2646, crf=15/9126, 9315, crf=14/10050, 10311, crf=15.5/18239, 18413, crf=15.5/19034, 19116, crf=13.5/20247, 20407, crf=14/21532, 21708, crf=13/39631, 39678, crf=14
Language : English
Default : Yes
Forced : No
Audio #1
ID : 2
Format : AC-3
Format/Info : Audio Coding 3
Mode extension : CM (complete main)
Format settings, Endianness : Big
Codec ID : A_AC3
Duration : 1 h 45 min
Bit rate mode : Constant
Bit rate : 384 kb/s
Channel(s) : 6 channels
Channel positions : Front: L C R, Side: L R, LFE
Sampling rate : 48.0 kHz
Frame rate : 31.250 FPS (1536 spf)
Bit depth : 16 bits
Compression mode : Lossy
Stream size : 290 MiB (2%)
Title : iTunes
Language : Russian
Default : Yes
Forced : No
Audio #2
ID : 3
Format : AC-3
Format/Info : Audio Coding 3
Mode extension : CM (complete main)
Format settings, Endianness : Big
Codec ID : A_AC3
Duration : 1 h 45 min
Bit rate mode : Constant
Bit rate : 640 kb/s
Channel(s) : 6 channels
Channel positions : Front: L C R, Side: L R, LFE
Sampling rate : 48.0 kHz
Frame rate : 31.250 FPS (1536 spf)
Bit depth : 16 bits
Compression mode : Lossy
Stream size : 483 MiB (4%)
Language : German
Default : No
Forced : No
Text #1
ID : 4
Format : UTF-8
Codec ID : S_TEXT/UTF8
Codec ID/Info : UTF-8 Plain Text
Duration : 1 h 38 min
Bit rate : 55 b/s
Count of elements : 647
Stream size : 40.0 KiB (0%)
Language : Russian
Default : No
Forced : No
Text #2
ID : 5
Format : UTF-8
Codec ID : S_TEXT/UTF8
Codec ID/Info : UTF-8 Plain Text
Duration : 1 h 38 min
Bit rate : 31 b/s
Count of elements : 720
Stream size : 23.1 KiB (0%)
Language : English
Default : No
Forced : No
Menu
00:00:00.000 : en:00:00:00.000
00:05:40.833 : en:00:05:40.833
00:11:08.292 : en:00:11:08.292
00:17:12.917 : en:00:17:12.917
00:22:34.958 : en:00:22:34.958
00:28:08.792 : en:00:28:08.792
00:34:10.625 : en:00:34:10.625
00:38:38.333 : en:00:38:38.333
00:44:53.333 : en:00:44:53.333
00:50:01.583 : en:00:50:01.583
00:56:06.125 : en:00:56:06.125
01:01:09.292 : en:01:01:09.292
01:06:29.250 : en:01:06:29.250
01:11:34.542 : en:01:11:34.542
01:17:01.167 : en:01:17:01.167
01:22:37.375 : en:01:22:37.375
01:27:42.750 : en:01:27:42.750
01:32:58.417 : en:01:32:58.417
01:37:51.458 : en:01:37:51.458
01:40:27.542 : en:01:40:27.542

Скриншоты

       

Спасибо Релиз группе: ELEKTRI4KA

Kon912

Post 29-Jun-2020 21:45

[Quote]

Только Бог простит / Only God Forgives- Год выхода: 2013
Выпущено: Франция, Таиланд, США, Швеция
Студия: A Grand Elephant, Bold Films, Film i Väst
Жанр: триллер, драма, криминал
Продолжительность: 01:29:29
Озвучивание: Дублированное | iTunes-Режиссер:
Николас Виндинг Рефн-В ролях:
Райан Гослинг, Кристин Скотт Томас, Витхая Пансрингарм, Ейяинг Рхатха Пхонгам, Том Бёрк, Байрон Гибсон, Гордон Браун, Чарли-О фильме: Джулиан, бежавший от американского правосудия, руководит в Бангкоке клубом тайского бокса, который служит ему прикрытием для торговли наркотиками. Его мать, глава крупной преступной организации, приезжает из США, чтобы забрать тело своего любимого сына Билли: брата Джулиана только что убили за зверскую расправу над молодой проституткой. Охваченная яростью и жаждой мести мать требует, чтобы Джулиан нашел и покарал убийц. Молодому человеку придется столкнуться с Чангом — странным полицейским на пенсии, которого обожают его коллеги.- -Качество: BDRip 1080p
Формат: MKV
Видео: MPEG-4 AVC, 11.6 Mb/s, 1920x1036
Аудио #1: Russian: 48 kHz, AC3 Dolby Digital, 3/2 (L, C, R, l, r) + LFE ch, ~384 Kbps | iTunes
Аудио #2: English: 48 kHz, Digital Theater Systems, 3/2 (L, C, R, l, r) + LFE ch, ~1509 Kbps | Original
Субтитры: Russian (Full), English
Дополнительно: Сохранены оригинальные чаптеры.-

MediaInfo:

Complete name: D:Tolko.Bog.prostit.2013.BluRay.1080p.ELEKTRI4KA.UNIONGANG.mkv
Format: Matroska
Format version: Version 4 / Version 2
File size: 8.65 GiB
Duration: 1 h 29 min
Overall bit rate: 13.8 Mb/s
Movie name: .ELEKTRI4KA.UNIONGANG.
Encoded date: UTC 2020-06-27 19:58:58
Writing application: mkvmerge v8.3.0 ('Over the Horizon') 64bit
Writing library: libebml v1.3.1 + libmatroska v1.4.2
Video
ID: 1
Format: AVC
Format/Info: Advanced Video Codec
Format profile: [email protected]
Format settings, CABAC: Yes
Format settings, Reference frames: 4 frames
Codec ID: V_MPEG4/ISO/AVC
Duration: 1 h 29 min
Bit rate: 11.6 Mb/s
Width: 1 920 pixels
Height: 1 036 pixels
Display aspect ratio: 1.85:1
Frame rate mode: Constant
Frame rate: 23.976 (24000/1001) FPS
Color space: YUV
Chroma subsampling: 4:2:0
Bit depth: 8 bits
Scan type: Progressive
Bits/(Pixel*Frame): 0.243
Stream size: 7.25 GiB (84%)
Writing library: x264 core 138 r2358 9e941d1
Encoding settings: cabac=1 / ref=4 / deblock=1:-3:-2 / analyse=0x3:0x133 / me=umh / subme=10 / psy=0 / mixed_ref=1 / me_range=48 / chroma_me=1 / trellis=2 / 8x8dct=1 / cqm=0 / deadzone=21, 11 / fast_pskip=0 / chroma_qp_offset=-2 / threads=6 / lookahead_threads=1 / sliced_threads=0 / nr=101 / decimate=1 / interlaced=0 / bluray_compat=0 / constrained_intra=0 / bframes=10 / b_pyramid=2 / b_adapt=2 / b_bias=0 / direct=3 / weightb=1 / open_gop=0 / weightp=2 / keyint=240 / keyint_min=22 / scenecut=40 / intra_refresh=0 / rc_lookahead=120 / rc=2pass / mbtree=1 / bitrate=11599 / ratetol=1.0 / qcomp=0.50 / qpmin=10 / qpmax=59 / qpstep=4 / cplxblur=20.0 / qblur=0.5 / vbv_maxrate=50000 / vbv_bufsize=62500 / nal_hrd=none / ip_ratio=1.40 / aq=1:1.00
Language: English
Default: Yes
Forced: No
Color range: Limited
Matrix coefficients: BT.709
Audio #1
ID: 2
Format: AC-3
Format/Info: Audio Coding 3
Mode extension: CM (complete main)
Format settings, Endianness: Big
Codec ID: A_AC3
Duration: 1 h 29 min
Bit rate mode: Constant
Bit rate: 384 kb/s
Channel(s): 6 channels
Channel positions: Front: L C R, Side: L R, LFE
Sampling rate: 48.0 kHz
Frame rate: 31.250 FPS (1536 spf)
Bit depth: 16 bits
Compression mode: Lossy
Stream size: 246 MiB (3%)
Title: iTunes
Language: Russian
Default: Yes
Forced: No
Audio #2
ID: 3
Format: DTS
Format/Info: Digital Theater Systems
Format profile: MA / Core
Mode: 16
Format settings, Endianness: Big
Codec ID: A_DTS
Duration: 1 h 29 min
Bit rate mode: Variable / Constant
Bit rate: 1 856 kb/s / 1 509 kb/s
Channel(s): 6 channels
Channel positions: Front: L C R, Side: L R, LFE
Sampling rate: 48.0 kHz
Frame rate: 93.750 FPS (512 spf)
Bit depth: 16 bits
Compression mode: Lossless / Lossy
Stream size: 1.16 GiB (13%)
Language: English
Default: No
Forced: No
Text #1
ID: 4
Format: UTF-8
Codec ID: S_TEXT/UTF8
Codec ID/Info: UTF-8 Plain Text
Duration: 1 h 14 min
Bit rate: 24 b/s
Count of elements: 261
Stream size: 13.4 KiB (0%)
Title: Full
Language: Russian
Default: Yes
Forced: No
Text #2
ID: 5
Format: UTF-8
Codec ID: S_TEXT/UTF8
Codec ID/Info: UTF-8 Plain Text
Duration: 58 min 15 s
Bit rate: 4 b/s
Count of elements: 62
Stream size: 1.80 KiB (0%)
Title: English For Foreign Parts
Language: English
Default: No
Forced: Yes
Text #3
ID: 6
Format: UTF-8
Codec ID: S_TEXT/UTF8
Codec ID/Info: UTF-8 Plain Text
Duration: 1 h 11 min
Bit rate: 10 b/s
Count of elements: 185
Stream size: 5.57 KiB (0%)
Language: English
Default: No
Forced: No
Menu
00:00:00.000: en:00:00:00.000
00:06:43.320: en:00:06:43.320
00:17:57.285: en:00:17:57.285
00:23:58.312: en:00:23:58.312
00:29:55.585: en:00:29:55.585
00:37:12.814: en:00:37:12.814
00:46:54.353: en:00:46:54.353
00:54:06.994: en:00:54:06.994
01:01:20.260: en:01:01:20.260
01:08:08.710: en:01:08:08.710
01:15:42.872: en:01:15:42.872
01:26:46.159: en:01:26:46.159

Скриншоты

       

Релиз от ELEKTRI4KA

Kon912

Post 29-Jun-2020 21:43

[Quote]

Только Бог простит / Only God Forgives- Год выхода: 2013
Выпущено: Франция, Таиланд, США, Швеция
Студия: A Grand Elephant, Bold Films, Film i Väst
Жанр: триллер, драма, криминал
Продолжительность: 01:29:29
Озвучивание: Дублированное | iTunes-Режиссер:
Николас Виндинг Рефн-В ролях:
Райан Гослинг, Кристин Скотт Томас, Витхая Пансрингарм, Ейяинг Рхатха Пхонгам, Том Бёрк, Байрон Гибсон, Гордон Браун, Чарли-О фильме:
Джулиан, бежавший от американского правосудия, руководит в Бангкоке клубом тайского бокса, который служит ему прикрытием для торговли наркотиками. Его мать, глава крупной преступной организации, приезжает из США, чтобы забрать тело своего любимого сына Билли: брата Джулиана только что убили за зверскую расправу над молодой проституткой. Охваченная яростью и жаждой мести мать требует, чтобы Джулиан нашел и покарал убийц. Молодому человеку придется столкнуться с Чангом — странным полицейским на пенсии, которого обожают его коллеги.- -Качество: BDRip 720p
Формат: MKV
Видео: MPEG-4 AVC, 5158 Kb/s, 1280x690
Аудио #1: Russian: 48 kHz, AC3 Dolby Digital, 3/2 (L, C, R, l, r) + LFE ch, ~384 Kbps | iTunes
Аудио #2: English: 48 kHz, Digital Theater Systems, 3/2 (L, C, R, l, r) + LFE ch, ~1509 Kbps | Original
Субтитры: Russian (Full), English
Дополнительно: Сохранены оригинальные чаптеры.-

MediaInfo:

Complete name: Tolko.Bog.prostit.2013.BluRay.720p.ELEKTRI4KA.UNIONGANG.mkv
Format: Matroska
Format version: Version 4 / Version 2
File size: 4.63 GiB
Duration: 1 h 29 min
Overall bit rate: 7 400 kb/s
Movie name: .ELEKTRI4KA.UNIONGANG.
Encoded date: UTC 2020-06-27 20:02:58
Writing application: mkvmerge v8.3.0 ('Over the Horizon') 64bit
Writing library: libebml v1.3.1 + libmatroska v1.4.2
Video
ID: 1
Format: AVC
Format/Info: Advanced Video Codec
Format profile: [email protected]
Format settings, CABAC: Yes
Format settings, Reference frames: 12 frames
Codec ID: V_MPEG4/ISO/AVC
Duration: 1 h 29 min
Bit rate: 5 158 kb/s
Width: 1 280 pixels
Height: 690 pixels
Display aspect ratio: 1.85:1
Frame rate mode: Constant
Frame rate: 23.976 (24000/1001) FPS
Color space: YUV
Chroma subsampling: 4:2:0
Bit depth: 8 bits
Scan type: Progressive
Bits/(Pixel*Frame): 0.244
Stream size: 3.22 GiB (70%)
Writing library: x264 core 125 r2208 d9d2288
Encoding settings: cabac=1 / ref=12 / deblock=1:-3:-3 / analyse=0x3:0x133 / me=tesa / subme=11 / psy=1 / psy_rd=1.00:0.05 / mixed_ref=1 / me_range=24 / chroma_me=1 / trellis=2 / 8x8dct=1 / cqm=0 / deadzone=21, 11 / fast_pskip=0 / chroma_qp_offset=-3 / threads=12 / lookahead_threads=2 / sliced_threads=0 / nr=0 / decimate=1 / interlaced=0 / bluray_compat=0 / constrained_intra=0 / bframes=7 / b_pyramid=2 / b_adapt=2 / b_bias=0 / direct=1 / weightb=1 / open_gop=0 / weightp=2 / keyint=250 / keyint_min=23 / scenecut=40 / intra_refresh=0 / rc=crf / mbtree=0 / crf=17.9 / qcomp=0.60 / qpmin=0 / qpmax=69 / qpstep=4 / ip_ratio=1.30 / pb_ratio=1.15 / aq=2:1.00
Language: English
Default: Yes
Forced: No
Audio #1
ID: 2
Format: AC-3
Format/Info: Audio Coding 3
Mode extension: CM (complete main)
Format settings, Endianness: Big
Codec ID: A_AC3
Duration: 1 h 29 min
Bit rate mode: Constant
Bit rate: 384 kb/s
Channel(s): 6 channels
Channel positions: Front: L C R, Side: L R, LFE
Sampling rate: 48.0 kHz
Frame rate: 31.250 FPS (1536 spf)
Bit depth: 16 bits
Compression mode: Lossy
Stream size: 246 MiB (5%)
Title: iTunes
Language: Russian
Default: Yes
Forced: No
Audio #2
ID: 3
Format: DTS
Format/Info: Digital Theater Systems
Format profile: MA / Core
Mode: 16
Format settings, Endianness: Big
Codec ID: A_DTS
Duration: 1 h 29 min
Bit rate mode: Variable / Constant
Bit rate: 1 856 kb/s / 1 509 kb/s
Channel(s): 6 channels
Channel positions: Front: L C R, Side: L R, LFE
Sampling rate: 48.0 kHz
Frame rate: 93.750 FPS (512 spf)
Bit depth: 16 bits
Compression mode: Lossless / Lossy
Stream size: 1.16 GiB (25%)
Language: English
Default: No
Forced: No
Text #1
ID: 4
Format: UTF-8
Codec ID: S_TEXT/UTF8
Codec ID/Info: UTF-8 Plain Text
Duration: 1 h 14 min
Bit rate: 24 b/s
Count of elements: 261
Stream size: 13.4 KiB (0%)
Title: Full
Language: Russian
Default: Yes
Forced: No
Text #2
ID: 5
Format: UTF-8
Codec ID: S_TEXT/UTF8
Codec ID/Info: UTF-8 Plain Text
Duration: 58 min 15 s
Bit rate: 4 b/s
Count of elements: 62
Stream size: 1.80 KiB (0%)
Title: English For Foreign Parts
Language: English
Default: No
Forced: Yes
Text #3
ID: 6
Format: UTF-8
Codec ID: S_TEXT/UTF8
Codec ID/Info: UTF-8 Plain Text
Duration: 1 h 11 min
Bit rate: 10 b/s
Count of elements: 185
Stream size: 5.57 KiB (0%)
Language: English
Default: No
Forced: No
Menu
00:00:00.000: en:00:00:00.000
00:06:43.320: en:00:06:43.320
00:17:57.285: en:00:17:57.285
00:23:58.312: en:00:23:58.312
00:29:55.585: en:00:29:55.585
00:37:12.814: en:00:37:12.814
00:46:54.353: en:00:46:54.353
00:54:06.994: en:00:54:06.994
01:01:20.260: en:01:01:20.260
01:08:08.710: en:01:08:08.710
01:15:42.872: en:01:15:42.872
01:26:46.159: en:01:26:46.159

Скриншоты

       

Релиз от ELEKTRI4KA

Kon912

Post 29-Jun-2020 17:24

[Quote]

Принц на Рождество: Королевское дитя / A Christmas Prince: The Royal Baby- Год выпуска: 2019
Страна: США
Студия: NetFlix, Motion Picture Corporation of America
Жанр: Мелодрама, комедия
Продолжительность: 01:25:27
Перевод: Профессиональный (дублированный) Пифагор-Режиссер:
Джон Шульц-В ролях:
Роуз МакАйвер, Бен Лэмб, Элис Крайдж, Хонор Книфси, Кевин Шен, Момо Енг, Сара Дуглас, Тео Девани, Ричард Эштон, Раджендра Баджадж-О фильме:
В Альдовии наступает Рождество и королевское дитя уже в пути. Амбер и Ричард принимают королевских особ из далёкого королевства, чтобы возобновить священное перемирие. Но когда проект их договора внезапно исчезает, мир снова подвергается опасности, и древнее проклятие угрожает их семье.- -Качество: WEB-DL 1080p
Контейнер: MKV
Видео: MPEG-4 AVC, 1920x1080, 23.976 fps, 5360 Kbps
Аудио 1: E-AC3, 48 KHz, 6 ch, 640 kbps (Дубляж)
Аудио 2: E-AC3, 48 KHz, 6 ch, 762 kbps (Original)
Субтитры: Русские (Forced, Full), английские (SDH)-

Скриншоты

       

MediaInfo

Общее
Уникальный идентификатор : 228920485084179417573150364688373102990 (0xAC387B5164EBC407B356246F6DB1B98E)
Полное имя : E:RELEASEA.Christmas.Prince.The.Royal.Baby.2019.1080p.WEB-DL.DUB.EniaHD.mkv
Формат : Matroska
Версия формата : Version 4
Размер файла : 3,90 Гбайт
Продолжительность : 1 ч. 25 м.
Режим общего битрейта : Переменный
Общий поток : 6536 Кбит/сек
Название фильма : Рождественский принц: Королевский ребёнок
Дата кодирования : UTC 2019-12-05 14:34:32
Программа кодирования : mkvmerge v40.0.0 ('Old Town Road + Pony') 64-bit
Библиотека кодирования : libebml v1.3.9 + libmatroska v1.5.2
Обложка : Yes
Attachments : cover.jpg
Видео
Идентификатор : 1
Формат : AVC
Формат/Информация : Advanced Video Codec
Профиль формата : [email protected]
Настройки формата : CABAC / 3 Ref Frames
Параметр CABAC формата : Да
Параметр RefFrames формата : 3 кадра
Идентификатор кодека : V_MPEG4/ISO/AVC
Продолжительность : 1 ч. 25 м.
Вид битрейта : Переменный
Битрейт : 5360 Кбит/сек
Максимальный битрейт : 8040 Кбит/сек
Ширина : 1920 пикселей
Высота : 1080 пикселей
Соотношение сторон : 16:9
Режим частоты кадров : Постоянный
Частота кадров : 23,976 (24000/1001) кадра/сек
Цветовое пространство : YUV
Субдискретизация насыщенности : 4:2:0
Битовая глубина : 8 бит
Тип развёртки : Прогрессивная
Бит/(Пиксели*Кадры) : 0.108
Размер потока : 3,06 Гбайт (78%)
Заголовок : A.Christmas.Prince.The.Royal.Baby.2019.1080p.WEB-DL.DUB.EniaHD
Библиотека кодирования : x264 core 148 r2715 7e75228
Настройки программы : cabac=1 / ref=3 / deblock=1:0:0 / analyse=0x1:0x111 / me=umh / subme=10 / psy=1 / psy_rd=1.00:0.00 / mixed_ref=1 / me_range=24 / chroma_me=1 / trellis=2 / 8x8dct=0 / cqm=0 / deadzone=21,11 / fast_pskip=1 / chroma_qp_offset=-2 / threads=8 / lookahead_threads=1 / sliced_threads=0 / nr=0 / decimate=1 / interlaced=0 / bluray_compat=0 / stitchable=1 / constrained_intra=0 / bframes=2 / b_pyramid=0 / b_adapt=2 / b_bias=0 / direct=3 / weightb=1 / open_gop=0 / weightp=2 / keyint=250 / keyint_min=23 / scenecut=0 / intra_refresh=0 / rc_lookahead=48 / rc=2pass / mbtree=1 / bitrate=5360 / ratetol=1.0 / qcomp=0.50 / qpmin=6 / qpmax=51 / qpstep=4 / cplxblur=20.0 / qblur=0.5 / vbv_maxrate=8040 / vbv_bufsize=10720 / nal_hrd=vbr / filler=0 / ip_ratio=1.40 / aq=1:1.00
Язык : English
Default : Да
Forced : Нет
Аудио #1
Идентификатор : 2
Формат : E-AC-3
Формат/Информация : Enhanced AC-3
Коммерческое название : Dolby Digital Plus
Идентификатор кодека : A_EAC3
Продолжительность : 1 ч. 25 м.
Вид битрейта : Постоянный
Битрейт : 640 Кбит/сек
Каналы : 6 каналов
ChannelLayout : L R C LFE Ls Rs
Частота : 48,0 КГц
Частота кадров : 31,250 кадров/сек (1536 SPF)
Метод сжатия : С потерями
Размер потока : 391 Мбайт (10%)
Заголовок : E-AC3 5.1 @ 640 kbps - DUB, Пифагор
Язык : Russian
Default : Да
Forced : Нет
Аудио #2
Идентификатор : 3
Формат : E-AC-3 JOC
Формат/Информация : Enhanced AC-3 with Joint Object Coding
Коммерческое название : Dolby Digital Plus with Dolby Atmos
Идентификатор кодека : A_EAC3
Продолжительность : 1 ч. 25 м.
Вид битрейта : Постоянный
Битрейт : 768 Кбит/сек
Каналы : 6 каналов
ChannelLayout : L R C LFE Ls Rs
Частота : 48,0 КГц
Частота кадров : 31,250 кадров/сек (1536 SPF)
Метод сжатия : С потерями
Размер потока : 469 Мбайт (12%)
Заголовок : E-AC3 + Atmos 5.1 @ 768 kbps - Original
Язык : English
Default : Нет
Forced : Нет
Текст #1
Идентификатор : 4
Формат : UTF-8
Идентификатор кодека : S_TEXT/UTF8
Идентификатор кодека/Информация : UTF-8 Plain Text
Продолжительность : 1 ч. 24 м.
Битрейт : 1 бит/сек
ElementCount : 25
Размер потока : 851 байт (0%)
Заголовок : Forced
Язык : Russian
Default : Да
Forced : Да
Текст #2
Идентификатор : 5
Формат : UTF-8
Идентификатор кодека : S_TEXT/UTF8
Идентификатор кодека/Информация : UTF-8 Plain Text
Продолжительность : 1 ч. 24 м.
Битрейт : 106 бит/сек
ElementCount : 1381
Размер потока : 65,4 Кбайт (0%)
Заголовок : Full
Язык : Russian
Default : Нет
Forced : Нет
Текст #3
Идентификатор : 6
Формат : UTF-8
Идентификатор кодека : S_TEXT/UTF8
Идентификатор кодека/Информация : UTF-8 Plain Text
Продолжительность : 1 ч. 21 м.
Битрейт : 92 бит/сек
ElementCount : 1733
Размер потока : 55,3 Кбайт (0%)
Заголовок : Full SDH
Язык : English
Default : Нет
Forced : Нет

Kon912

Post 29-Jun-2020 17:24

[Quote]

Рождественский принц: Королевская свадьба / A Christmas Prince: The Royal Wedding- Год выпуска: 2018
Страна: США
Студия: NetFlix, Motion Picture Corporation of America
Жанр: Мелодрама, комедия
Продолжительность: 01:32:58
Перевод: Профессиональный (дублированный) Пифагор-Режиссер:
Джон Шульц-В ролях:
Роуз МакАйвер, Бен Лэмб, Элис Крайдж, Хонор Книфси, Тео Девани, Сара Дуглас, Том Найт, Билл Энжел, Ричард Эштон, Саймон Даттон, Дэвид Бротон Дейвис, Джон Гуэрассио, Энди Лукас, Катарина Час-О фильме:
Спустя год после того, как Эмбер помогла Ричарду закрепить королевскую власть, эти двое настроены связать себя узами брака на Королевской рождественской свадьбе. Однако их планы ставятся под угрозу, когда Эмбер начинает сомневаться, сможет ли она быть королевой, а Ричард сталкивается с политическим кризисом, который угрожает не только праздникам, но и будущему королевства.- -Качество: WEB-DL 1080p
Контейнер: MKV
Видео: MPEG-4 AVC, 1920x1080 (16:9), 5360 Kbps, 23.976 fps
Аудио 1: E-AC3, 48 KHz, 6 ch, 640 kbps (Дубляж)
Аудио 2: E-AC3, 48 KHz, 6 ch, 640 kbps (Original)
Субтитры: Русские (Forced, Full), английские (SDH)-

Скриншоты

       

MediaInfo

General
Unique ID : 164341796438353536298463050743339490768 (0x7BA31424DD36428F1CBD846E88231DD0)
Complete name : A.Christmas.Prince.The.Royal.Wedding.2018.1080p.WEB-DL.DUB.EniaHD.mkv
Format : Matroska
Format version : Version 4
File size : 4.30 GiB
Duration : 1 h 32 min
Overall bit rate mode : Variable
Overall bit rate : 6 616 kb/s
Movie name : Принц на Рождество. Королевская свадьба (2018)
Encoded date : UTC 2018-12-01 14:41:11
Writing application : mkvmerge v28.2.0 ('The Awakening') 32-bit
Writing library : libebml v1.3.6 + libmatroska v1.4.9
Cover : Yes
Attachments : cover.jpg
FileExtension_Invalid : mkv mk3d mka mks
Video
ID : 1
Format : AVC
Format/Info : Advanced Video Codec
Format profile : [email protected]
Format settings : CABAC / 3 Ref Frames
Format settings, CABAC : Yes
Format settings, RefFrames : 3 frames
Codec ID : V_MPEG4/ISO/AVC
Duration : 1 h 32 min
Bit rate mode : Variable
Bit rate : 5 360 kb/s
Maximum bit rate : 8 040 kb/s
Width : 1 920 pixels
Height : 1 080 pixels
Display aspect ratio : 16:9
Frame rate mode : Constant
Frame rate : 23.976 (24000/1001) FPS
Color space : YUV
Chroma subsampling : 4:2:0
Bit depth : 8 bits
Scan type : Progressive
Bits/(Pixel*Frame) : 0.108
Stream size : 3.38 GiB (79%)
Title : A.Christmas.Prince.The.Royal.Wedding.2018.1080p.WEB-DL.DUB.EniaHD
Writing library : x264 core 148 r2715 7e75228
Encoding settings : cabac=1 / ref=3 / deblock=1:0:0 / analyse=0x1:0x111 / me=umh / subme=10 / psy=1 / psy_rd=1.00:0.00 / mixed_ref=1 / me_range=24 / chroma_me=1 / trellis=2 / 8x8dct=0 / cqm=0 / deadzone=21,11 / fast_pskip=1 / chroma_qp_offset=-2 / threads=6 / lookahead_threads=1 / sliced_threads=0 / nr=0 / decimate=1 / interlaced=0 / bluray_compat=0 / stitchable=1 / constrained_intra=0 / bframes=2 / b_pyramid=0 / b_adapt=2 / b_bias=0 / direct=3 / weightb=1 / open_gop=0 / weightp=2 / keyint=48 / keyint_min=25 / scenecut=0 / intra_refresh=0 / rc_lookahead=48 / rc=2pass / mbtree=1 / bitrate=5360 / ratetol=1.0 / qcomp=0.50 / qpmin=6 / qpmax=51 / qpstep=4 / cplxblur=20.0 / qblur=0.5 / vbv_maxrate=8040 / vbv_bufsize=10720 / nal_hrd=vbr / filler=0 / ip_ratio=1.40 / aq=1:1.00
Language : English
Default : Yes
Forced : No
Audio #1
ID : 2
Format : E-AC-3
Format/Info : Enhanced AC-3
Commercial name : Dolby Digital Plus
Codec ID : A_EAC3
Duration : 1 h 32 min
Bit rate mode : Constant
Bit rate : 640 kb/s
Channel(s) : 6 channels
Channel layout : L R C LFE Ls Rs
Sampling rate : 48.0 kHz
Frame rate : 31.250 FPS (1536 SPF)
Compression mode : Lossy
Stream size : 426 MiB (10%)
Title : E-AC3 5.1 @ 640 kbps - DUB, Пифагор
Language : Russian
Service kind : Complete Main
Default : Yes
Forced : No
Audio #2
ID : 3
Format : E-AC-3
Format/Info : Enhanced AC-3
Commercial name : Dolby Digital Plus
Codec ID : A_EAC3
Duration : 1 h 32 min
Bit rate mode : Constant
Bit rate : 640 kb/s
Channel(s) : 6 channels
Channel layout : L R C LFE Ls Rs
Sampling rate : 48.0 kHz
Frame rate : 31.250 FPS (1536 SPF)
Compression mode : Lossy
Stream size : 426 MiB (10%)
Title : E-AC3 5.1 @ 640 kbps - Original
Language : English
Service kind : Complete Main
Default : No
Forced : No
Text #1
ID : 4
Format : UTF-8
Codec ID : S_TEXT/UTF8
Codec ID/Info : UTF-8 Plain Text
Title : Forced
Language : Russian
Default : Yes
Forced : Yes
Text #2
ID : 5
Format : UTF-8
Codec ID : S_TEXT/UTF8
Codec ID/Info : UTF-8 Plain Text
Title : Full
Language : Russian
Default : No
Forced : No
Text #3
ID : 6
Format : UTF-8
Codec ID : S_TEXT/UTF8
Codec ID/Info : UTF-8 Plain Text
Title : Full SDH
Language : English
Default : No
Forced : No
Text #4
ID : 7
Format : UTF-8
Codec ID : S_TEXT/UTF8
Codec ID/Info : UTF-8 Plain Text
Title : Brazilian
Language : Portuguese
Default : No
Forced : No
Text #5
ID : 8
Format : UTF-8
Codec ID : S_TEXT/UTF8
Codec ID/Info : UTF-8 Plain Text
Language : Danish
Default : No
Forced : No
Text #6
ID : 9
Format : UTF-8
Codec ID : S_TEXT/UTF8
Codec ID/Info : UTF-8 Plain Text
Language : Dutch
Default : No
Forced : No
Text #7
ID : 10
Format : UTF-8
Codec ID : S_TEXT/UTF8
Codec ID/Info : UTF-8 Plain Text
Title : European
Language : Spanish
Default : No
Forced : No
Text #8
ID : 11
Format : UTF-8
Codec ID : S_TEXT/UTF8
Codec ID/Info : UTF-8 Plain Text
Language : Finnish
Default : No
Forced : No
Text #9
ID : 12
Format : UTF-8
Codec ID : S_TEXT/UTF8
Codec ID/Info : UTF-8 Plain Text
Language : French
Default : No
Forced : No
Text #10
ID : 13
Format : UTF-8
Codec ID : S_TEXT/UTF8
Codec ID/Info : UTF-8 Plain Text
Language : German
Default : No
Forced : No
Text #11
ID : 14
Format : UTF-8
Codec ID : S_TEXT/UTF8
Codec ID/Info : UTF-8 Plain Text
Language : Greek
Default : No
Forced : No
Text #12
ID : 15
Format : UTF-8
Codec ID : S_TEXT/UTF8
Codec ID/Info : UTF-8 Plain Text
Language : Indonesian
Default : No
Forced : No
Text #13
ID : 16
Format : UTF-8
Codec ID : S_TEXT/UTF8
Codec ID/Info : UTF-8 Plain Text
Language : Italian
Default : No
Forced : No
Text #14
ID : 17
Format : UTF-8
Codec ID : S_TEXT/UTF8
Codec ID/Info : UTF-8 Plain Text
Language : Norwegian Bokmal
Default : No
Forced : No
Text #15
ID : 18
Format : UTF-8
Codec ID : S_TEXT/UTF8
Codec ID/Info : UTF-8 Plain Text
Language : Polish
Default : No
Forced : No
Text #16
ID : 19
Format : UTF-8
Codec ID : S_TEXT/UTF8
Codec ID/Info : UTF-8 Plain Text
Language : Portuguese
Default : No
Forced : No
Text #17
ID : 20
Format : UTF-8
Codec ID : S_TEXT/UTF8
Codec ID/Info : UTF-8 Plain Text
Language : Spanish
Default : No
Forced : No
Text #18
ID : 21
Format : UTF-8
Codec ID : S_TEXT/UTF8
Codec ID/Info : UTF-8 Plain Text
Language : Swedish
Default : No
Forced : No
Text #19
ID : 22
Format : UTF-8
Codec ID : S_TEXT/UTF8
Codec ID/Info : UTF-8 Plain Text
Language : Turkish
Default : No
Forced : No

Kon912

Post 29-Jun-2020 17:23

[Quote]

Принц на Рождество / A Christmas Prince- Год выпуска: 2017
Страна: США
Студия: NetFlix, Motion Picture Corporation of America
Жанр: Мелодрама, комедия
Продолжительность: 01:32:06
Перевод: Профессиональный (дублированный) Пифагор-Режиссер:
Алекс Замм-В ролях:
Роуз МакАйвер, Бен Лэмб, Том Найт, Тео Девани, Сара Дуглас, Дэниэл Фазерс, Вон Джонсеф, Хонор Книфси, Элис Крайдж, Эми Марстон-Описание:
В канун Рождества начинающая журналистка Эмбер отправляется в королевство Алдовию, чтобы сделать репортаж о вступлении на престол наследного принца. Хитростью задержавшись при дворе, она попробует узнать всю правду о будущем короле — ведь пока прессе скрытный наследник известен только громкими расставаниями с девушками.- -Качество: WEB-DL 1080p
Контейнер: MKV
Видео: AVC, 1920x1080 (16:9), 23.976 fps, ~ 4640 Kbps
Аудио 1: AC3, 48 KHz, 6 ch, 384 kbps (Дубляж)
Аудио 2: AC3, 48 KHz, 6 ch, 384 kbps (Original)
Субтитры: Русские (Forced; Full), английские (SDH)-

MediaInfo

Complete name : D:A.Christmas.Prince.2017.1080p.NF.mkv
Format : Matroska
Format version : Version 4 / Version 2
File size : 3.46 GiB
Duration : 1 h 32 min
Overall bit rate mode : Variable
Overall bit rate : 5 376 kb/s
Encoded date : UTC 2018-10-28 04:45:21
Writing application : mkvmerge v9.9.0 ('Pick Up') 32bit
Writing library : libebml v1.3.4 + libmatroska v1.4.5
Video
ID : 1
Format : AVC
Format/Info : Advanced Video Codec
Format profile : [email protected]
Format settings : CABAC / 3 Ref Frames
Format settings, CABAC : Yes
Format settings, RefFrames : 3 frames
Codec ID : V_MPEG4/ISO/AVC
Duration : 1 h 32 min
Bit rate mode : Variable
Bit rate : 4 640 kb/s
Maximum bit rate : 6 960 kb/s
Width : 1 920 pixels
Height : 1 080 pixels
Display aspect ratio : 16:9
Frame rate mode : Constant
Frame rate : 23.976 (24000/1001) FPS
Color space : YUV
Chroma subsampling : 4:2:0
Bit depth : 8 bits
Scan type : Progressive
Bits/(Pixel*Frame) : 0.093
Stream size : 2.96 GiB (86%)
Writing library : x264 core 148
Encoding settings : cabac=1 / ref=3 / deblock=1:0:0 / analyse=0x1:0x111 / me=umh / subme=10 / psy=1 / psy_rd=1.00:0.00 / mixed_ref=1 / me_range=24 / chroma_me=1 / trellis=2 / 8x8dct=0 / cqm=0 / deadzone=21,11 / fast_pskip=1 / chroma_qp_offset=-2 / threads=8 / lookahead_threads=1 / sliced_threads=0 / nr=0 / decimate=1 / interlaced=0 / bluray_compat=0 / stitchable=1 / constrained_intra=0 / bframes=2 / b_pyramid=0 / b_adapt=2 / b_bias=0 / direct=3 / weightb=1 / open_gop=0 / weightp=2 / keyint=48 / keyint_min=25 / scenecut=0 / intra_refresh=0 / rc_lookahead=48 / rc=2pass / mbtree=1 / bitrate=4640 / ratetol=1.0 / qcomp=0.50 / qpmin=6 / qpmax=51 / qpstep=4 / cplxblur=20.0 / qblur=0.5 / vbv_maxrate=6960 / vbv_bufsize=9280 / nal_hrd=vbr / filler=0 / ip_ratio=1.40 / aq=1:1.00
Language : English
Default : Yes
Forced : No
Audio #1
ID : 2
Format : AC-3
Format/Info : Audio Coding 3
Format settings, Endianness : Big
Codec ID : A_AC3
Duration : 1 h 32 min
Bit rate mode : Constant
Bit rate : 384 kb/s
Channel(s) : 6 channels
Channel positions : Front: L C R, Side: L R, LFE
Sampling rate : 48.0 kHz
Frame rate : 31.250 FPS (1536 SPF)
Bit depth : 16 bits
Compression mode : Lossy
Stream size : 253 MiB (7%)
Title : Dub
Language : Russian
Service kind : Complete Main
Default : Yes
Forced : No
Audio #2
ID : 3
Format : AC-3
Format/Info : Audio Coding 3
Format settings, Endianness : Big
Codec ID : A_AC3
Duration : 1 h 32 min
Bit rate mode : Constant
Bit rate : 384 kb/s
Channel(s) : 6 channels
Channel positions : Front: L C R, Side: L R, LFE
Sampling rate : 48.0 kHz
Frame rate : 31.250 FPS (1536 SPF)
Bit depth : 16 bits
Compression mode : Lossy
Stream size : 253 MiB (7%)
Title : Original
Language : English
Service kind : Complete Main
Default : No
Forced : No
Text #1
ID : 4
Format : UTF-8
Codec ID : S_TEXT/UTF8
Codec ID/Info : UTF-8 Plain Text
Duration : 1 h 31 min
Bit rate : 1 b/s
Count of elements : 15
Stream size : 952 Bytes (0%)
Title : Forced
Language : Russian
Default : Yes
Forced : No
Text #2
ID : 5
Format : UTF-8
Codec ID : S_TEXT/UTF8
Codec ID/Info : UTF-8 Plain Text
Duration : 1 h 31 min
Bit rate : 100 b/s
Count of elements : 1255
Stream size : 67.0 KiB (0%)
Title : Full
Language : Russian
Default : No
Forced : No
Text #3
ID : 6
Format : UTF-8
Codec ID : S_TEXT/UTF8
Codec ID/Info : UTF-8 Plain Text
Duration : 1 h 28 min
Bit rate : 71 b/s
Count of elements : 1372
Stream size : 46.1 KiB (0%)
Title : SDH
Language : English
Default : No
Forced : No

Скриншоты

       

Kon912

Post 28-Jun-2020 13:05

[Quote]

Дрожь земли 6 / Tremors: A Cold Day in Hell- Год выхода: 2018
Страна: США, ЮАР
Студия: Universal 1440 Entertainment
Жанр: Ужасы, фантастика, боевик, триллер, комедия, приключения
Продолжительность: 01:37:58
Перевод: Дублированный | ТВ3-Режиссер:
Дон Майкл Пол-В ролях:
Майкл Гросс, Джейми Кеннеди, Таня ван Граан, Джессика Энсти, Грег Крик, Стефани Шилдкнект, Дженна Аптон, Роб ван Вуурен, Эдриэнн Пирс, Поль дю Туа, Оскар Петерсен-О фильме:
Берт Гаммер и его сын Трэвис Уэлкер отправляются в Канаду, чтобы расследовать серию атак гигантских червей, и оказываются среди грабоидов. Берт начинает подозревать, что военные пытаются приспособить подземных монстров для своих нужд, но тут дело принимает неожиданный оборот: один из грабоидов отравляет его. Единственное спасение — сделать антидот из свежего яда, но для этого надо подоить грабоида.- -Качество: BDRip 720p
Формат: MKV
Видео: MPEG-4 AVC/H.264, 3 050 Кбит/сек, 1280x720
Аудио #1: Русский (АС3, 6 ch, 384 Кбит/с, 48.0 KHz) Профессиональный (дублированный) ТВ3
Аудио #2: Английский (АС3, 6 ch, 448 Кбит/с, 48.0 KHz)
Субтитры: Русские (Forced), английские, французские, немецкие [вшитые отключаемые]-

MediaInfo:

Общее
Уникальный идентификатор : 121376099882837380808750945638062741828 (0x5B502FC0698EE52F907C3B70807BD944)
Полное имя : F:\РЕЛИЗЫ ФИЛЬМОВ\01. ФИЛЬМЫ\Дрожь земли 6 Tremors A Cold Day in Hell (2018)\Tremors A Cold Day in Hell (2018) BDRip 720p.mkv
Формат : Matroska
Версия формата : Version 4
Размер файла : 2,70 Гбайт
Продолжительность : 1 ч. 37 м.
Общий поток : 3 939 Кбит/сек
Программа кодирования : Lavf
Библиотека кодирования : Lavf
Авторское право : CVATVT
ErrorDetectionType : Per level 1
Attachments : poster.jpg
Язык : und
Видео
Идентификатор : 1
Формат : AVC
Формат/Информация : Advanced Video Codec
Профиль формата : [email protected]
Настройки формата : 8 Ref Frames
Параметр CABAC формата : Нет
Параметр RefFrames формата : 8 кадров
Идентификатор кодека : V_MPEG4/ISO/AVC
Продолжительность : 1 ч. 37 м.
Битрейт : 3 050 Кбит/сек
Ширина : 1 280 пикселей
Высота : 720 пикселей
Соотношение сторон : 16:9
Режим частоты кадров : Постоянный
Частота кадров : 23,976 (24000/1001) кадра/сек
Цветовое пространство : YUV
Субдискретизация насыщенности : 4:2:0
Битовая глубина : 8 бит
Тип развёртки : Прогрессивная
Бит/(Пиксели*Кадры) : 0.138
Размер потока : 2,07 Гбайт (77%)
Заголовок : USA, South Africa (Universal 1440 Entertainment)
Библиотека кодирования : x264 core 157 r2958 57baac4
Настройки программы : cabac=0 / ref=9 / deblock=1:-3:-3 / analyse=0x3:0x133 / me=umh / subme=11 / psy=1 / psy_rd=1.05:0.10 / mixed_ref=1 / me_range=32 / chroma_me=1 / trellis=2 / 8x8dct=1 / cqm=0 / deadzone=21,11 / fast_pskip=0 / chroma_qp_offset=-3 / threads=13 / lookahead_threads=1 / sliced_threads=0 / nr=0 / decimate=1 / interlaced=0 / bluray_compat=0 / constrained_intra=0 / bframes=11 / b_pyramid=1 / b_adapt=1 / b_bias=10 / direct=1 / weightb=1 / open_gop=0 / weightp=1 / keyint=240 / keyint_min=24 / scenecut=40 / intra_refresh=0 / rc_lookahead=60 / rc=abr / mbtree=1 / bitrate=3050 / ratetol=1.0 / qcomp=0.70 / qpmin=3 / qpmax=69 / qpstep=4 / ip_ratio=1.40 / aq=2:1.00
Язык : English
Default : Да
Forced : Нет
Цветовой диапазон : Limited
Основные цвета : BT.709
Характеристики трансфера : BT.709
Коэффициенты матрицы : BT.709
Duration_Source : General_Duration
Аудио #1
Идентификатор : 2
Формат : AC-3
Формат/Информация : Audio Coding 3
Коммерческое название : Dolby Digital
Идентификатор кодека : A_AC3
Продолжительность : 1 ч. 37 м.
Вид битрейта : Постоянный
Битрейт : 384 Кбит/сек
Каналы : 6 каналов
Channel layout : L R C LFE Ls Rs
Частота : 48,0 КГц
Частота кадров : 31,250 кадров/сек (1536 SPF)
Битовая глубина : 32 бит
Метод сжатия : С потерями
Размер потока : 269 Мбайт (10%)
Заголовок : Dub (TV3)
Язык : Russian
Service kind : Complete Main
Default : Да
Forced : Нет
Duration_Source : General_Duration
Аудио #2
Идентификатор : 3
Формат : AC-3
Формат/Информация : Audio Coding 3
Коммерческое название : Dolby Digital
Идентификатор кодека : A_AC3
Продолжительность : 1 ч. 37 м.
Вид битрейта : Постоянный
Битрейт : 448 Кбит/сек
Каналы : 6 каналов
Channel layout : L R C LFE Ls Rs
Частота : 48,0 КГц
Частота кадров : 31,250 кадров/сек (1536 SPF)
Битовая глубина : 32 бит
Метод сжатия : С потерями
Размер потока : 314 Мбайт (11%)
Заголовок : Original (English)
Язык : English
Service kind : Complete Main
Default : Нет
Forced : Нет
Duration_Source : General_Duration
Текст #1
Идентификатор : 4
Формат : UTF-8
Идентификатор кодека : S_TEXT/UTF8
Идентификатор кодека/Информация : UTF-8 Plain Text
Заголовок : Forced
Язык : Russian
Default : Да
Forced : Нет
Текст #2
Идентификатор : 5
Формат : UTF-8
Идентификатор кодека : S_TEXT/UTF8
Идентификатор кодека/Информация : UTF-8 Plain Text
Язык : English
Default : Нет
Forced : Нет
Текст #3
Идентификатор : 6
Формат : PGS
Идентификатор кодека : S_HDMV/PGS
Идентификатор кодека/Информация : Picture based subtitle format used on BDs/HD-DVDs
Язык : English
Default : Нет
Forced : Нет
Текст #4
Идентификатор : 7
Формат : PGS
Идентификатор кодека : S_HDMV/PGS
Идентификатор кодека/Информация : Picture based subtitle format used on BDs/HD-DVDs
Язык : French
Default : Нет
Forced : Нет
Текст #5
Идентификатор : 8
Формат : PGS
Идентификатор кодека : S_HDMV/PGS
Идентификатор кодека/Информация : Picture based subtitle format used on BDs/HD-DVDs
Язык : German
Default : Нет
Forced : Нет
Меню
00:00:00.000 : :Chapter 1
00:04:18.382 : :Chapter 2
00:10:18.242 : :Chapter 3
00:14:55.269 : :Chapter 4
00:19:17.906 : :Chapter 5
00:24:28.800 : :Chapter 6
00:31:32.473 : :Chapter 7
00:37:49.558 : :Chapter 8
00:40:04.193 : :Chapter 9
00:47:55.747 : :Chapter 10
00:51:02.017 : :Chapter 11
00:56:11.326 : :Chapter 12
01:02:27.493 : :Chapter 13
01:06:31.570 : :Chapter 14
01:11:22.194 : :Chapter 15
01:17:28.769 : :Chapter 16
01:22:39.704 : :Chapter 17
01:26:15.211 : :Chapter 18
01:28:33.975 : :Chapter 19
01:33:30.688 : :Chapter 20

Скриншоты

     
Дополнительно: Сохранены оригинальные главы (чаптеры)-

Kon912

Post 28-Jun-2020 13:02

[Quote]

[align=centhter]Воскрешая чемпиона / Resurrecting the Champ- Год выхода: 2007
Страна: США
Выпущено:Alberta Film Entertainment
Жанр: : драма, спорт
Продолжительность: 01:52:00
Перевод 1: Профессиональный (многоголосый закадровый) телеканал МАТЧ
Перевод 2: Любительский (двухголосый закадровый) InterFilm-Режиссер:
Род Лури-В ролях:
Сэмюэл Л. Джексон, Джош Хартнетт, Кэтрин Моррис, Дакота Гойо, Алан Алда, Рейчел Николс, Тери Хэтчер, Кристен Шоу, Ник Сэндоу, Дэвид Пэймер-О фильме:
Неудачливый спортивный обозреватель Эрик Кернан, вечно находящийся в тени своего легендарного отца, встречает бездомного человека, который называет себя Чемпионом. Вскоре Эрик выясняет, что его новый знакомый - знаменитый в прошлом боксер Боб Саттерфилд, действительно носивший звание чемпиона. Взявшись поведать миру сенсационную историю о человеке-легенде, Эрик в то же время начинает переосмысливать собственную жизнь: отношения с сыном и женой, с которой он недавно расстался…- -Качество: BDRip 1080p
Формат: MKV
Видео: MPEG-4, 1916x818 (2,35:1), 10970 kbps, 23.976 fps, 0.292 bit/pixel
Аудио 1: Русский AC3, 48000 Гц, 2ch, 192 kbps - MVO
Аудио 2: Русский AC3, 48000 Гц, 6ch, 448 kbps - DVO
Аудио 3: Английский DTS 5.1 / 48 kHz / 1509 kbps / 16-bit
Субтитры: Русские, английские (full, SDH), испанские, французские, немецкие, итальянские-

MediaInfo

frame I:1114 Avg QP:16.19 size:147017
frame P:32263 Avg QP:17.20 size: 84312
frame B:127732 Avg QP:18.72 size: 49557
consecutive B-frames: 1.4% 1.6% 6.4% 13.0% 12.9% 57.2% 5.1% 0.8% 1.0% 0.6%
mb I I16..4: 3.9% 87.6% 8.5%
mb P I16..4: 1.1% 20.0% 1.1% P16..4: 26.3% 33.8% 9.5% 0.9% 0.0% skip: 7.3%
mb B I16..4: 0.2% 2.9% 0.2% B16..8: 49.5% 25.9% 4.0% direct: 5.4% skip:11.9% L0:43.9% L1:42.8% BI:13.3%
ref P L0: 51.1% 8.4% 25.5% 14.7% 0.3% 0.0%
ref B L0: 85.0% 12.1% 2.9%
ref B L1: 93.0% 7.0%
encoded 161109 frames, 4.21 fps, 10969.73 kb/s
Общее
Уникальный идентификатор : 43693198202216037303754056127823440962 (0x20DF00FE2C3DE8C80E2693C84C1B6C42)
Полное имя : D:Resurrecting.the.Champ.2007.BDRip.1080p-ylnian.mkv
Формат : Matroska
Версия формата : Version 4
Размер файла : 10,3 Гбайт
Продолжительность : 1 ч. 52 м.
Общий поток : 13,1 Мбит/сек
Название фильма : Resurrecting.the.Champ.2007.BDRip.1080p-ylnian
Дата кодирования : UTC 2019-03-13 17:39:59
Программа кодирования : mkvmerge v32.0.0 ('Astral Progressions') 64-bit
Библиотека кодирования : libebml v1.3.7 + libmatroska v1.5.0
Видео
Идентификатор : 1
Формат : AVC
Формат/Информация : Advanced Video Codec
Профиль формата : [email protected]
Настройки формата : CABAC / 4 Ref Frames
Параметр CABAC формата : Да
Параметр RefFrames формата : 4 кадра
Идентификатор кодека : V_MPEG4/ISO/AVC
Продолжительность : 1 ч. 51 м.
Битрейт : 11,0 Мбит/сек
Ширина : 1916 пикселей
Высота : 818 пикселей
Соотношение сторон : 2,35:1
Режим частоты кадров : Постоянный
Частота кадров : 23,976 (24000/1001) кадра/сек
Цветовое пространство : YUV
Субдискретизация насыщенности : 4:2:0
Битовая глубина : 8 бит
Тип развёртки : Прогрессивная
Бит/(Пиксели*Кадры) : 0.292
Размер потока : 8,58 Гбайт (84%)
Заголовок : Resurrecting.the.Champ.2007.BDRip.1080p-ylnian
Библиотека кодирования : x264 core 157 r2935 545de2f
Настройки программы : cabac=1 / ref=4 / deblock=1:-3:-3 / analyse=0x3:0x133 / me=umh / subme=11 / psy=1 / psy_rd=1.05:0.00 / mixed_ref=1 / me_range=64 / chroma_me=1 / trellis=2 / 8x8dct=1 / cqm=0 / deadzone=21,11 / fast_pskip=1 / chroma_qp_offset=-4 / threads=12 / lookahead_threads=2 / sliced_threads=0 / nr=0 / decimate=1 / interlaced=0 / bluray_compat=0 / constrained_intra=0 / bframes=9 / b_pyramid=2 / b_adapt=2 / b_bias=0 / direct=2 / weightb=1 / open_gop=0 / weightp=2 / keyint=250 / keyint_min=23 / scenecut=40 / intra_refresh=0 / rc_lookahead=250 / rc=crf / mbtree=0 / crf=18.5 / qcomp=0.80 / qpmin=0 / qpmax=69 / qpstep=4 / vbv_maxrate=50000 / vbv_bufsize=62500 / crf_max=0.0 / nal_hrd=none / filler=0 / ip_ratio=1.30 / pb_ratio=1.20 / aq=2:0.90
Язык : English
Default : Да
Forced : Да
Аудио #1
Идентификатор : 2
Формат : AC-3
Формат/Информация : Audio Coding 3
Коммерческое название : Dolby Digital
Идентификатор кодека : A_AC3
Продолжительность : 1 ч. 52 м.
Вид битрейта : Постоянный
Битрейт : 192 Кбит/сек
Каналы : 2 канала
Channel layout : L R
Частота : 48,0 КГц
Частота кадров : 31,250 кадров/сек (1536 SPF)
Битовая глубина : 16 бит
Метод сжатия : С потерями
Размер потока : 154 Мбайт (1%)
Заголовок : MVO
Язык : Russian
ServiceKind/String : Complete Main
Default : Да
Forced : Да
Аудио #2
Идентификатор : 3
Формат : AC-3
Формат/Информация : Audio Coding 3
Коммерческое название : Dolby Digital
Идентификатор кодека : A_AC3
Продолжительность : 1 ч. 52 м.
Вид битрейта : Постоянный
Битрейт : 448 Кбит/сек
Каналы : 6 каналов
Channel layout : L R C LFE Ls Rs
Частота : 48,0 КГц
Частота кадров : 31,250 кадров/сек (1536 SPF)
Битовая глубина : 16 бит
Метод сжатия : С потерями
Размер потока : 359 Мбайт (3%)
Заголовок : DVO
Язык : Russian
ServiceKind/String : Complete Main
Default : Нет
Forced : Нет
Аудио #3
Идентификатор : 4
Формат : DTS
Формат/Информация : Digital Theater Systems
Идентификатор кодека : A_DTS
Продолжительность : 1 ч. 52 м.
Вид битрейта : Постоянный
Битрейт : 1509 Кбит/сек
Каналы : 6 каналов
Channel layout : C L R Ls Rs LFE
Частота : 48,0 КГц
Частота кадров : 93,750 кадра/сек (512 SPF)
Битовая глубина : 16 бит
Метод сжатия : С потерями
Размер потока : 1,18 Гбайт (11%)
Язык : English
Default : Нет
Forced : Нет
Текст #1
Идентификатор : 5
Формат : UTF-8
Идентификатор кодека : S_TEXT/UTF8
Идентификатор кодека/Информация : UTF-8 Plain Text
Продолжительность : 1 ч. 47 м.
Битрейт : 122 бит/сек
ElementCount : 1357
Размер потока : 96,9 Кбайт (0%)
Язык : Russian
Default : Нет
Forced : Нет
Текст #2
Идентификатор : 6
Формат : UTF-8
Идентификатор кодека : S_TEXT/UTF8
Идентификатор кодека/Информация : UTF-8 Plain Text
Продолжительность : 1 ч. 47 м.
Битрейт : 78 бит/сек
ElementCount : 1592
Размер потока : 62,2 Кбайт (0%)
Заголовок : full
Язык : English
Default : Нет
Forced : Нет
Текст #3
Идентификатор : 7
Формат : UTF-8
Идентификатор кодека : S_TEXT/UTF8
Идентификатор кодека/Информация : UTF-8 Plain Text
Продолжительность : 1 ч. 47 м.
Битрейт : 87 бит/сек
ElementCount : 1698
Размер потока : 68,7 Кбайт (0%)
Заголовок : SDH
Язык : English
Default : Нет
Forced : Нет
Текст #4
Идентификатор : 8
Формат : UTF-8
Идентификатор кодека : S_TEXT/UTF8
Идентификатор кодека/Информация : UTF-8 Plain Text
Продолжительность : 1 ч. 50 м.
Битрейт : 77 бит/сек
ElementCount : 1595
Размер потока : 62,7 Кбайт (0%)
Язык : Spanish
Default : Нет
Forced : Нет
Текст #5
Идентификатор : 9
Формат : UTF-8
Идентификатор кодека : S_TEXT/UTF8
Идентификатор кодека/Информация : UTF-8 Plain Text
Продолжительность : 1 ч. 51 м.
Битрейт : 54 бит/сек
ElementCount : 1618
Размер потока : 44,4 Кбайт (0%)
Язык : French
Default : Нет
Forced : Нет
Текст #6
Идентификатор : 10
Формат : UTF-8
Идентификатор кодека : S_TEXT/UTF8
Идентификатор кодека/Информация : UTF-8 Plain Text
Продолжительность : 1 ч. 47 м.
Битрейт : 85 бит/сек
ElementCount : 1563
Размер потока : 67,5 Кбайт (0%)
Язык : German
Default : Нет
Forced : Нет
Текст #7
Идентификатор : 11
Формат : UTF-8
Идентификатор кодека : S_TEXT/UTF8
Идентификатор кодека/Информация : UTF-8 Plain Text
Продолжительность : 1 ч. 47 м.
Битрейт : 85 бит/сек
ElementCount : 1664
Размер потока : 67,6 Кбайт (0%)
Язык : Italian
Default : Нет
Forced : Нет
Меню
00:00:00.000 : en:01
00:04:59.716 : en:02
00:10:00.432 : en:03
00:14:59.731 : en:04
00:19:59.906 : en:05
00:24:59.955 : en:06
00:30:00.507 : en:07
00:35:00.181 : en:08
00:40:00.523 : en:09
00:44:59.697 : en:10
00:50:00.121 : en:11
00:55:00.130 : en:12
00:59:59.721 : en:13
01:05:00.271 : en:14
01:09:59.612 : en:15
01:15:00.037 : en:16
01:20:00.295 : en:17
01:24:59.969 : en:18
01:30:00.228 : en:19
01:35:00.110 : en:20
01:40:00.493 : en:21
01:45:00.418 : en:22
01:49:59.759 : en:23

Скриншоты

     

Kon912

Post 27-Jun-2020 21:27

[Quote]

Королевские каникулы / Trouble- Год выхода: 2019
Страна: Канада, США, Каймановы острова
Студия: 3QU Media, Cinesite Animation, Vanguard Animation
Жанр: Мультфильм, комедия, семейный
Продолжительность: 01:27:40
Перевод: Дублированный | iTunes-Режиссер:
Кевин Джонсон-В ролях:
Биг Шон, Памела Адлон, Люси Хейл, Марисса Джэрет Винокур, Джоэл МакХэйл, Уилмер Вальдеррама, Сет Роллинз, Ди Брэдли Бэйкер, Кевин Чэмберлин, Лудо Лефевр-О фильме:
Наследник миллионного состояния и кучки неблагодарных родственников, его псиятельство Принц вышел из зоны комфорта и оказался на улице. Теперь он мечтает вернуться домой. Для этого ему нужно найти новых друзей, избавиться от назойливых белок и сбросить с хвоста матерого охотника. Королевские каникулы начинаются.- -Качество: BDRip 1080p
Формат: MKV
Видео: MPEG-4 AVC, 1920x1038, 11.0 Mbit/s, 24.000 fps
Аудио #01: 48 kHz, AC3, 5.1, 384 Kbps | iTunes | RUS |
Аудио #02: 48 kHz, AC3, 5.1, 640 Kbps | Оригинал | ENG |
Субтитры: Нет-

Скриншоты

     

MI

General
Unique ID : 225860054626396564316029387926033859913 (0xA9EB1072556300958D8A2C70AFDF0549)
Complete name : E:Video111Trouble.2019.BDRip.1080p.seleZen.mkv
Format : Matroska
Format version : Version 2
File size : 7.36 GiB
Duration : 1 h 27 min
Overall bit rate : 12.0 Mb/s
Movie name : Trouble 2019 from селезень
Encoded date : UTC 2020-04-10 18:15:39
Writing application : mkvmerge v7.8.0 ('River Man') 32bit built on Apr 3 2015 12:11:22
Writing library : libebml v1.3.1 + libmatroska v1.4.2
Video
ID : 1
Format : AVC
Format/Info : Advanced Video Codec
Format profile : [email protected]
Format settings : CABAC / 4 Ref Frames
Format settings, CABAC : Yes
Format settings, Reference : 4 frames
Codec ID : V_MPEG4/ISO/AVC
Duration : 1 h 27 min
Bit rate : 11.0 Mb/s
Width : 1 920 pixels
Height : 1 038 pixels
Display aspect ratio : 1.85:1
Frame rate mode : Constant
Frame rate : 24.000 FPS
Color space : YUV
Chroma subsampling : 4:2:0
Bit depth : 8 bits
Scan type : Progressive
Bits/(Pixel*Frame) : 0.230
Stream size : 6.59 GiB (89%)
Title : Encoded by seleZen
Writing library : x264 core 142 r2431+42 c69a006 tMod [[email protected] X86_64]
Encoding settings : cabac=1 / ref=4 / deblock=1:-2:-2 / analyse=0x3:0x133 / me=umh / subme=10 / psy=1 / fade_compensate=0.00 / psy_rd=1.00:0.00 / mixed_ref=1 / me_range=32 / chroma_me=1 / trellis=2 / 8x8dct=1 / cqm=0 / deadzone=21,11 / fast_pskip=0 / chroma_qp_offset=-2 / threads=24 / lookahead_threads=4 / sliced_threads=0 / nr=0 / decimate=0 / interlaced=0 / bluray_compat=0 / constrained_intra=0 / fgo=0 / bframes=8 / b_pyramid=2 / b_adapt=2 / b_bias=0 / direct=3 / weightb=1 / open_gop=0 / weightp=2 / keyint=240 / keyint_min=24 / scenecut=40 / intra_refresh=0 / rc_lookahead=50 / rc=2pass / mbtree=0 / bitrate=11000 / ratetol=1.0 / qcomp=0.60 / qpmin=0:0:0 / qpmax=51:51:51 / qpstep=4 / cplxblur=20.0 / qblur=0.5 / vbv_maxrate=50000 / vbv_bufsize=62500 / nal_hrd=none / filler=0 / ip_ratio=1.40 / pb_ratio=1.30 / aq=3:0.80 / aq-sensitivity=10.00 / aq-factor=1.00:1.00:1.00 / aq2=0 / aq3=0
Language : English
Default : Yes
Forced : No
Audio #1
ID : 2
Format : AC-3
Format/Info : Audio Coding 3
Commercial name : Dolby Digital
Codec ID : A_AC3
Duration : 1 h 27 min
Bit rate mode : Constant
Bit rate : 384 kb/s
Channel(s) : 6 channels
Channel layout : L R C LFE Ls Rs
Sampling rate : 48.0 kHz
Frame rate : 31.250 FPS (1536 SPF)
Compression mode : Lossy
Stream size : 241 MiB (3%)
Title : iTunes
Language : Russian
Service kind : Complete Main
Default : Yes
Forced : Yes
Audio #2
ID : 3
Format : AC-3
Format/Info : Audio Coding 3
Commercial name : Dolby Digital
Codec ID : A_AC3
Duration : 1 h 27 min
Bit rate mode : Constant
Bit rate : 640 kb/s
Channel(s) : 6 channels
Channel layout : L R C LFE Ls Rs
Sampling rate : 48.0 kHz
Frame rate : 31.250 FPS (1536 SPF)
Compression mode : Lossy
Stream size : 401 MiB (5%)
Title : Original
Language : English
Service kind : Complete Main
Default : No
Forced : No
Menu
00:00:00.000 : en:Chapter 01
00:12:11.250 : en:Chapter 02
00:23:03.292 : en:Chapter 03
00:30:35.542 : en:Chapter 04
00:43:59.792 : en:Chapter 05
00:54:18.958 : en:Chapter 06
01:06:18.000 : en:Chapter 07
01:18:34.583 : en:Chapter 08
Релиз от:
 

The time now is: Today 03:02

All times are GMT + 3 Hours