Today is a free download without charge Download

Search found 500 matches

Author Message

Theseus

Post 18-Feb-2020 14:34

[Quote]

Джуманджи: Новый уровень / Jumanji: The Next Level- Год выхода: 2019
Страна: США
Жанр: фэнтези, боевик, комедия, приключения
Продолжительность: 02:03:11
Перевод Дублированный [Звук с онлайн-кинотеатра]
Субтитры: Корейские (hardsub), английские (full)-Режиссер: Джейк Кэздан-В ролях: Дуэйн Джонсон, Джек Блэк, Кевин Харт, Карен Гиллан, Ник Джонас, Аквафина, Риз Дэрби, Дэнни ДеВито, Дэнни Гловер, Морган Тернер-О фильме: Чтобы спасти одного из приятелей, остальным приходится вернуться в игру. К их удивлению, правила Джуманджи изменились, и все идет наперекосяк. Чтобы выжить друзьям предстоит отправиться в путешествие по самым неизведанным и таинственным уголкам игры — от засушливой пустыни до заснеженных гор- -Качество: WEBRip 1080p
Формат: MKV
Видео кодек: x.264
Аудио кодек: AC3
Видео: AVC, 1920x804 (2.40:1), 29.970 fps, 6 750 kb/s
Аудио 1: AC-3, 48.0 kHz, 2 ch, 192 kb/s (Russian)
Аудио 2: AC-3, 48.0 kHz, 2 ch, 192 kb/s (English)-Рекламы нет | Сэмпл-

MediaInfo

Код:
General
Unique ID                                : 177186086487497177380198894585782733620 (0x854CCC8943F9A7ABADEFCF463B640B34)
Complete name                            : Jumanji.The.Next.Level.(2019).WEBRip.1080p.mkv
Format                                   : Matroska
Format version                           : Version 4
File size                                : 6.13 GiB
Duration                                 : 2 h 3 min
Overall bit rate                         : 7 124 kb/s
Encoded date                             : UTC 2020-02-17 11:42:48
Writing application                      : mkvmerge v8.3.0 ('Over the Horizon') 64bit
Writing library                          : libebml v1.3.1 + libmatroska v1.4.2
Video
ID                                       : 1
Format                                   : AVC
Format/Info                              : Advanced Video Codec
Format profile                           : [email protected]
Format settings                          : CABAC / 4 Ref Frames
Format settings, CABAC                   : Yes
Format settings, ReFrames                : 4 frames
Codec ID                                 : V_MPEG4/ISO/AVC
Duration                                 : 2 h 3 min
Bit rate                                 : 6 750 kb/s
Width                                    : 1 920 pixels
Height                                   : 804 pixels
Display aspect ratio                     : 2.40:1
Frame rate mode                          : Constant
Frame rate                               : 29.970 (30000/1001) FPS
Color space                              : YUV
Chroma subsampling                       : 4:2:0
Bit depth                                : 8 bits
Scan type                                : Progressive
Bits/(Pixel*Frame)                       : 0.146
Stream size                              : 5.80 GiB (95%)
Writing library                          : x264 core 152 r2851 ba24899
Encoding settings                        : cabac=1 / ref=3 / deblock=1:-2:-2 / analyse=0x3:0x113 / me=hex / subme=7 / psy=1 / psy_rd=1.00:0.00 / mixed_ref=1 / me_range=16 / chroma_me=1 / trellis=1 / 8x8dct=1 / cqm=0 / deadzone=21,11 / fast_pskip=1 / chroma_qp_offset=-2 / threads=18 / lookahead_threads=3 / sliced_threads=0 / nr=0 / decimate=1 / interlaced=0 / bluray_compat=0 / constrained_intra=0 / bframes=3 / b_pyramid=2 / b_adapt=1 / b_bias=0 / direct=1 / weightb=1 / open_gop=0 / weightp=2 / keyint=250 / keyint_min=25 / scenecut=40 / intra_refresh=0 / rc_lookahead=40 / rc=abr / mbtree=1 / bitrate=6750 / ratetol=1.0 / qcomp=0.60 / qpmin=0 / qpmax=69 / qpstep=4 / ip_ratio=1.40 / aq=1:1.00
Language                                 : English
Default                                  : Yes
Forced                                   : No
Audio #1
ID                                       : 2
Format                                   : AC-3
Format/Info                              : Audio Coding 3
Commercial name                          : Dolby Digital
Codec ID                                 : A_AC3
Duration                                 : 2 h 3 min
Bit rate mode                            : Constant
Bit rate                                 : 192 kb/s
Channel(s)                               : 2 channels
Channel layout                           : L R
Sampling rate                            : 48.0 kHz
Frame rate                               : 31.250 FPS (1536 SPF)
Bit depth                                : 16 bits
Compression mode                         : Lossy
Stream size                              : 169 MiB (3%)
Language                                 : Russian
Default                                  : Yes
Forced                                   : No
Audio #2
ID                                       : 3
Format                                   : AC-3
Format/Info                              : Audio Coding 3
Commercial name                          : Dolby Digital
Codec ID                                 : A_AC3
Duration                                 : 2 h 3 min
Bit rate mode                            : Constant
Bit rate                                 : 192 kb/s
Channel(s)                               : 2 channels
Channel layout                           : L R
Sampling rate                            : 48.0 kHz
Frame rate                               : 31.250 FPS (1536 SPF)
Bit depth                                : 16 bits
Compression mode                         : Lossy
Stream size                              : 169 MiB (3%)
Language                                 : English
Default                                  : No
Forced                                   : No
Text #1
ID                                       : 4
Format                                   : UTF-8
Codec ID                                 : S_TEXT/UTF8
Codec ID/Info                            : UTF-8 Plain Text
Duration                                 : 1 h 52 min
Bit rate                                 : 58 b/s
Count of elements                        : 1719
Stream size                              : 48.5 KiB (0%)
Title                                    : Full
Language                                 : English
Default                                  : No
Forced                                   : No
Text #2
ID                                       : 5
Format                                   : UTF-8
Codec ID                                 : S_TEXT/UTF8
Codec ID/Info                            : UTF-8 Plain Text
Duration                                 : 1 h 52 min
Bit rate                                 : 117 b/s
Count of elements                        : 1719
Stream size                              : 97.2 KiB (0%)
Title                                    : Full (colored)
Language                                 : English
Default                                  : No
Forced                                   : No

Трейлер

-     -

Орлов Владимир

Post 10-Feb-2020 16:00

[Quote]

--Проклятый лес / Witches in the Woods--
Информация о фильме
Название: Проклятый лес
Оригинальное название: Witches in the Woods
Год выпуска: 2019
Жанр: Ужасы, триллер
Режиссер: Джордан Баркер--В ролях: Ханна Касулка, Александр Де Джорди, Крэйг Арнольд, Корбин Блю, Саша Клементс, Джеймс Гилберт, Хамберли Гонсалес, Дэвид Лафонтен, Кайл Мак, Йен Мэтьюз--О фильме: Семеро друзей отправляются на машине на базу отдыха. По пути выясняется, что часть дороги закрыта, поэтому приходится сделать немаленький крюк, в результате ребята сбиваются с пути. Вскоре им начинает казаться, что они ездят кругами, а когда машина попадает в небольшую аварию, одна из девушек заявляет, что они никогда отсюда не выберутся.-- --Страна: Канада
Студия: Gearshift Films
Продолжительность: 01:30:31
Перевод: Профессиональный многоголосый iTunes--Файл
Качество: WEB-DL 1080p
Контейнер: MKV
Видео: MPEG-4 AVC, 1912x792, 4423 Kbps, 23.976 fps
Аудио 1: Russian: AC3, 6 ch, 384 kbps, 48.0 KHz - iTunes
Аудио 2: English: AC3, 6 ch, 384 kbps, 48.0 KHz - Original
Субтитры: Нет--

Скриншоты

           

MediaInfo

General
Unique ID : 175885858305907750889319990617448881794 (0x84526256615FCDC9A0C6146E42839E82)
Complete name : WITCHES_ITW_2019_WEB-DL_1080p-BLUEBIRD.mkv
Format : Matroska
Format version : Version 4 / Version 2
File size : 3.35 GiB
Duration : 1 h 30 min
Overall bit rate : 5 296 kb/s
Encoded date : UTC 2020-02-09 19:53:29
Writing application : mkvmerge v6.9.1 ('Blue Panther') 32bit built on Apr 18 2014 18:15:44
Writing library : libebml v1.3.0 + libmatroska v1.4.1
Cover : Yes
Attachments : cover1.png
Video
ID : 1
Format : AVC
Format/Info : Advanced Video Codec
Format profile : [email protected]
Format settings, CABAC : Yes
Format settings, RefFrames : 5 frames
Codec ID : V_MPEG4/ISO/AVC
Duration : 1 h 30 min
Bit rate : 4 423 kb/s
Width : 1 912 pixels
Height : 792 pixels
Display aspect ratio : 2.40:1
Frame rate mode : Constant
Frame rate : 23.976 (24000/1001) FPS
Color space : YUV
Chroma subsampling : 4:2:0
Bit depth : 8 bits
Scan type : Progressive
Bits/(Pixel*Frame) : 0.122
Stream size : 2.80 GiB (84%)
Language : English
Default : Yes
Forced : No
Color range : Limited
Color primaries : BT.709
Transfer characteristics : BT.709
Matrix coefficients : BT.709
Audio #1
ID : 2
Format : AC-3
Format/Info : Audio Coding 3
Format settings, Endianness : Big
Codec ID : A_AC3
Duration : 1 h 30 min
Bit rate mode : Constant
Bit rate : 384 kb/s
Channel(s) : 6 channels
Channel positions : Front: L C R, Side: L R, LFE
Sampling rate : 48.0 kHz
Frame rate : 31.250 FPS (1536 SPF)
Bit depth : 16 bits
Compression mode : Lossy
Delay relative to video : -42 ms
Stream size : 249 MiB (7%)
Title : [MVO] DD 5.1 @ 384 kbps (iTunes)
Language : Russian
Service kind : Complete Main
Default : No
Forced : No
Audio #2
ID : 3
Format : AC-3
Format/Info : Audio Coding 3
Format settings, Endianness : Big
Codec ID : A_AC3
Duration : 1 h 30 min
Bit rate mode : Constant
Bit rate : 384 kb/s
Channel(s) : 6 channels
Channel positions : Front: L C R, Side: L R, LFE
Sampling rate : 48.0 kHz
Frame rate : 31.250 FPS (1536 SPF)
Bit depth : 16 bits
Compression mode : Lossy
Delay relative to video : -42 ms
Stream size : 249 MiB (7%)
Title : [ORIGINAL] DD 5.1 @ 384 kbps (iTunes)
Language : English
Service kind : Complete Main
Default : No
Forced : No
Menu
00:00:00.000 : en:1
00:03:06.000 : en:2
00:14:51.000 : en:3
00:26:46.000 : en:4
00:36:51.000 : en:5
00:43:34.000 : en:6
00:54:41.000 : en:7
01:05:39.000 : en:8
01:15:28.000 : en:9
01:26:24.000 : en:10

Орлов Владимир

Post 03-Feb-2020 19:21

[Quote]

--Рассвет--
Информация о фильме
Название: Рассвет
Год выхода: 2019
Жанр: Ужасы, триллер
Режиссер: Павел Сидоров--В ролях: Оксана Акиньшина, Александра Дроздова, Александр Молочников, Анна Слю, Олег Васильков, Кузьма Котрелев, Анастасия Куимова, Валерий Кухарешин, Мирослав Пенцов--О фильме: У главной героини при загадочных обстоятельствах погибает брат. Девушку начинают преследовать реалистичные кошмары, и она отправляется в институт сомнологии, где ее вместе с другими пациентами погружают в совместное осознанное сновидение. Но после наступления рассвета они проснутся совсем в другой реальности, которая страшнее любого кошмара…-- --Страна: Россия
Студия: Karoprokat
Продолжительность: 02:32:35
Перевод: Не требуется Лицензия Blu-Ray GER --Файл
Качество: Blu-ray 1080p
Формат: BDMV
Кодек: MPEG-4 AVC Video
Видео: 1920x1080 (16:9), 24 fps, MPEG-4 AVC Video ~ 21260 kbps avg, High Profile 4.1
Аудио#1: DTS-HD Master Audio German 1973 kbps 5.1 / 48 kHz / 1973 kbps / 16-bit (DTS Core: 5.1 / 48 kHz / 1509 kbps / 16-bit)
Аудио#2: DTS-HD Master Audio Russian 1853 kbps 5.1 / 48 kHz / 1853 kbps / 16-bit (DTS Core: 5.1 / 48 kHz / 1509 kbps / 16-bit)
Субтитры: Немецкие (PGS)
--Семпл--

Тех.данные видеофайла

DISC INFO:
Disc Title: Quiet.Comes.the.Dawn.2019.GERMAN.DUAL.COMPLETE.BLURAY-UNiVERSUM
Disc Size: 20 181 160 111 bytes
Protection: AACS
BD-Java: No
BDInfo: 0.7.3.3
PLAYLIST REPORT:
Name: 00003.MPLS
Length: 1:37:52.491 (h:m:s.ms)
Size: 18 643 482 624 bytes
Total Bitrate: 25,40 Mbps
VIDEO:
Codec Bitrate Description
----- ------- -----------
MPEG-4 AVC Video 19982 kbps 1080p / 23,976 fps / 16:9 / High Profile 4.1
AUDIO:
Codec Language Bitrate Description
----- -------- ------- -----------
DTS-HD Master Audio German 1973 kbps 5.1 / 48 kHz / 1973 kbps / 16-bit (DTS Core: 5.1 / 48 kHz / 1509 kbps / 16-bit)
DTS-HD Master Audio Russian 1853 kbps 5.1 / 48 kHz / 1853 kbps / 16-bit (DTS Core: 5.1 / 48 kHz / 1509 kbps / 16-bit)
SUBTITLES:
Codec Language Bitrate Description
----- -------- ------- -----------
Presentation Graphics German 0,398 kbps
FILES:
Name Time In Length Size Total Bitrate
---- ------- ------ ---- -------------
00008.M2TS 0:00:00.000 1:37:52.491 18 643 482 624 25 398

Скриншоты

 
         

Орлов Владимир

Post 01-Feb-2020 07:18

[Quote]

--Гемини / Gemini Man--
Информация о фильме
Название: Гемини
Оригинальное название: Gemini Man
Год выхода: 2019
Жанр: Фантастика, боевик, триллер, драма
Режиссер: Энг Ли--В ролях: Уилл Смит, Мэри Элизабет Уинстэд, Клайв Оуэн, Бенедикт Вонг, Дуглас Ходж, Теодора Вулли, Ральф Браун, Линда Эмонд, Андреа Суч, Илья Волох, Дэвид Моретти, Илона МакКри, Э.Дж. Бонилья, Виктор Хьюго--О фильме:
Первоклассный киллер Генри Броган становится мишенью таинственного оперативника, который, кажется, знает наперёд каждый его шаг.-- --Страна: Китай, США
Студия: Skydance Media, Jerry Bruckheimer Films, Fosun Group Forever Pictures
Продолжительность: 01:57:03
Перевод: Дублированный Лицензия--Качество: BDRemux 2160p
Видео: 3840x2160 at 59.940 fps, MPEG-H HEVC HDR Video, 80973 kbps avg
Аудио #01: 48 kHz, AC3, 5.1, 640 Kbps | Дублированный | RUS |
Аудио #02: 48 kHz, TrueHD, 7.1, 4204 Kbps | Оригинал | ENG |
Аудио #03: 48 kHz, AC3, 5.1, 640 Kbps | Оригинал | ENG |
Субтитры: Русские (Forced, full), английские--

Скриншоты

         

Тех.данные видеофайла

General
Unique ID : 3304909299926926301661235302254511214 (0x27C809BDF49C0B4D5255D7CB528046E)
Complete name : E:Video111Gemini.Man.2019.Lic.BDREMUX.2160p.HDR.seleZen.mkv
Format : Matroska
Format version : Version 4
File size : 70.7 GiB
Duration : 1 h 57 min
Overall bit rate mode : Variable
Overall bit rate : 86.5 Mb/s
Movie name : Gemini Man 2019 from селезень
Encoded date : UTC 2020-01-31 22:56:42
Writing application : mkvmerge v40.0.0 ('Old Town Road + Pony') 64-bit
Writing library : libebml v1.3.9 + libmatroska v1.5.2
Video
ID : 1
Format : HEVC
Format/Info : High Efficiency Video Coding
Format profile : Main [email protected]@High
HDR format : SMPTE ST 2086, HDR10 compatible
Codec ID : V_MPEGH/ISO/HEVC
Duration : 1 h 57 min
Bit rate : 81.0 Mb/s
Width : 3 840 pixels
Height : 2 160 pixels
Display aspect ratio : 16:9
Frame rate mode : Constant
Frame rate : 59.940 (60000/1001) FPS
Color space : YUV
Chroma subsampling : 4:2:0 (Type 2)
Bit depth : 10 bits
Bits/(Pixel*Frame) : 0.163
Stream size : 66.2 GiB (94%)
Language : English
Default : Yes
Forced : No
Color range : Limited
Color primaries : BT.2020
Transfer characteristics : PQ
Matrix coefficients : BT.2020 non-constant
Mastering display color pri: Display P3
Mastering display luminance: min: 0.0010 cd/m2, max: 1000 cd/m2
Maximum Content Light Level: 5180 cd/m2
Maximum Frame-Average Light: 1577 cd/m2
Audio #1
ID : 2
Format : AC-3
Format/Info : Audio Coding 3
Commercial name : Dolby Digital
Codec ID : A_AC3
Duration : 1 h 57 min
Bit rate mode : Constant
Bit rate : 640 kb/s
Channel(s) : 6 channels
Channel layout : L R C LFE Ls Rs
Sampling rate : 48.0 kHz
Frame rate : 31.250 FPS (1536 SPF)
Compression mode : Lossy
Stream size : 536 MiB (1%)
Title : Dub [License]
Language : Russian
Service kind : Complete Main
Default : Yes
Forced : Yes
Audio #2
ID : 3
Format : MLP FBA 16-ch
Format/Info : Meridian Lossless Packing FBA with 16-channel presentation
Commercial name : Dolby TrueHD with Dolby Atmos
Codec ID : A_TRUEHD
Duration : 1 h 57 min
Bit rate mode : Variable
Bit rate : 4 204 kb/s
Maximum bit rate : 7 944 kb/s
Channel(s) : 8 channels
Channel layout : L R C LFE Ls Rs Lb Rb
Sampling rate : 48.0 kHz
Frame rate : 1 200.000 FPS (40 SPF)
Compression mode : Lossless
Stream size : 3.44 GiB (5%)
Title : Original
Language : English
Default : No
Forced : No
Number of dynamic objects : 11
Bed channel count : 1 channel
Bed channel configuration : LFE
Audio #3
ID : 4
Format : AC-3
Format/Info : Audio Coding 3
Commercial name : Dolby Digital
Codec ID : A_AC3
Duration : 1 h 57 min
Bit rate mode : Constant
Bit rate : 640 kb/s
Channel(s) : 6 channels
Channel layout : L R C LFE Ls Rs
Sampling rate : 48.0 kHz
Frame rate : 31.250 FPS (1536 SPF)
Compression mode : Lossy
Stream size : 536 MiB (1%)
Language : English
Service kind : Complete Main
Default : No
Forced : No
Text #1
ID : 5
Format : UTF-8
Codec ID : S_TEXT/UTF8
Codec ID/Info : UTF-8 Plain Text
Duration : 1 h 55 min
Bit rate : 0 b/s
Count of elements : 16
Stream size : 581 Bytes (0%)
Title : Forced
Language : Russian
Default : Yes
Forced : Yes
Text #2
ID : 6
Format : UTF-8
Codec ID : S_TEXT/UTF8
Codec ID/Info : UTF-8 Plain Text
Duration : 1 h 55 min
Bit rate : 69 b/s
Count of elements : 1336
Stream size : 59.1 KiB (0%)
Title : Full
Language : Russian
Default : No
Forced : No
Text #3
ID : 7
Format : UTF-8
Codec ID : S_TEXT/UTF8
Codec ID/Info : UTF-8 Plain Text
Duration : 1 h 45 min
Bit rate : 49 b/s
Count of elements : 1356
Stream size : 38.5 KiB (0%)
Title : Full
Language : English
Default : No
Forced : No
Menu
00:00:00.000 : en:Глава 01
00:07:21.641 : en:Глава 02
00:15:31.681 : en:Глава 03
00:18:13.109 : en:Глава 04
00:24:39.495 : en:Глава 05
00:30:59.408 : en:Глава 06
00:34:09.431 : en:Глава 07
00:42:40.308 : en:Глава 08
00:50:24.872 : en:Глава 09
00:56:45.819 : en:Глава 10
01:03:30.306 : en:Глава 11
01:08:13.172 : en:Глава 12
01:16:45.901 : en:Глава 13
01:24:43.979 : en:Глава 14
01:30:04.716 : en:Глава 15
01:34:00.919 : en:Глава 16
01:42:14.462 : en:Глава 17
01:47:07.588 : en:Глава 18

Орлов Владимир

Post 01-Feb-2020 07:13

[Quote]

--Гемини / Gemini Man--
Информация о фильме
Название: Гемини
Оригинальное название: Gemini Man
Год выхода: 2019
Жанр: Фантастика, боевик, триллер, драма
Режиссер: Энг Ли--В ролях: Уилл Смит, Мэри Элизабет Уинстэд, Клайв Оуэн, Бенедикт Вонг, Дуглас Ходж, Теодора Вулли, Ральф Браун, Линда Эмонд, Андреа Суч, Илья Волох, Дэвид Моретти, Илона МакКри, Э.Дж. Бонилья, Виктор Хьюго--О фильме:
Первоклассный киллер Генри Броган становится мишенью таинственного оперативника, который, кажется, знает наперёд каждый его шаг.-- --Страна: Китай, США
Студия: Skydance Media, Jerry Bruckheimer Films, Fosun Group Forever Pictures
Продолжительность: 01:57:00
Перевод: Дублированный Лицензия--Качество: BDRemux 1080p
Видео: MPEG-4 AVC, 1920x1080, 27.1 Mbit/s, 23.976 fps
Аудио #01: 48 kHz, AC3, 5.1, 640 Kbps | Дублированный | RUS |
Аудио #02: 48 kHz, TrueHD, 7.1, 4205 Kbps | Оригинал | ENG |
Аудио #03: 48 kHz, AC3, 5.1, 640 Kbps | Оригинал | ENG |
Субтитры: Русские (Forced, full), английские--

Скриншоты

         

Тех.данные видеофайла

General
Unique ID : 233660574377031056195426281498970232995 (0xAFC963C37AFCD4FB90CB3BF0A39D18A3)
Complete name : E:Video111Gemini.Man.2019.Lic.BDREMUX.1080p.seleZen.mkv
Format : Matroska
Format version : Version 4
File size : 26.7 GiB
Duration : 1 h 57 min
Overall bit rate mode : Variable
Overall bit rate : 32.7 Mb/s
Movie name : Gemini Man 2019 from селезень
Encoded date : UTC 2020-01-31 22:25:24
Writing application : mkvmerge v40.0.0 ('Old Town Road + Pony') 64-bit
Writing library : libebml v1.3.9 + libmatroska v1.5.2
Video
ID : 1
Format : AVC
Format/Info : Advanced Video Codec
Format profile : [email protected]
Format settings : CABAC / 4 Ref Frames
Format settings, CABAC : Yes
Format settings, Reference : 4 frames
Codec ID : V_MPEG4/ISO/AVC
Duration : 1 h 57 min
Bit rate mode : Variable
Bit rate : 27.1 Mb/s
Maximum bit rate : 30.2 Mb/s
Width : 1 920 pixels
Height : 1 080 pixels
Display aspect ratio : 16:9
Frame rate mode : Constant
Frame rate : 23.976 (24000/1001) FPS
Color space : YUV
Chroma subsampling : 4:2:0
Bit depth : 8 bits
Scan type : Progressive
Bits/(Pixel*Frame) : 0.546
Stream size : 22.2 GiB (83%)
Language : English
Default : Yes
Forced : No
Audio #1
ID : 2
Format : AC-3
Format/Info : Audio Coding 3
Commercial name : Dolby Digital
Codec ID : A_AC3
Duration : 1 h 57 min
Bit rate mode : Constant
Bit rate : 640 kb/s
Channel(s) : 6 channels
Channel layout : L R C LFE Ls Rs
Sampling rate : 48.0 kHz
Frame rate : 31.250 FPS (1536 SPF)
Compression mode : Lossy
Stream size : 536 MiB (2%)
Title : Dub [License]
Language : Russian
Service kind : Complete Main
Default : Yes
Forced : Yes
Audio #2
ID : 3
Format : MLP FBA 16-ch
Format/Info : Meridian Lossless Packing FBA with 16-channel presentation
Commercial name : Dolby TrueHD with Dolby Atmos
Codec ID : A_TRUEHD
Duration : 1 h 57 min
Bit rate mode : Variable
Bit rate : 4 205 kb/s
Maximum bit rate : 7 944 kb/s
Channel(s) : 8 channels
Channel layout : L R C LFE Ls Rs Lb Rb
Sampling rate : 48.0 kHz
Frame rate : 1 200.000 FPS (40 SPF)
Compression mode : Lossless
Stream size : 3.44 GiB (13%)
Title : Original
Language : English
Default : No
Forced : No
Number of dynamic objects : 11
Bed channel count : 1 channel
Bed channel configuration : LFE
Audio #3
ID : 4
Format : AC-3
Format/Info : Audio Coding 3
Commercial name : Dolby Digital
Codec ID : A_AC3
Duration : 1 h 57 min
Bit rate mode : Constant
Bit rate : 640 kb/s
Channel(s) : 6 channels
Channel layout : L R C LFE Ls Rs
Sampling rate : 48.0 kHz
Frame rate : 31.250 FPS (1536 SPF)
Compression mode : Lossy
Stream size : 536 MiB (2%)
Language : English
Service kind : Complete Main
Default : No
Forced : No
Text #1
ID : 5
Format : UTF-8
Codec ID : S_TEXT/UTF8
Codec ID/Info : UTF-8 Plain Text
Duration : 1 h 55 min
Bit rate : 0 b/s
Count of elements : 16
Stream size : 581 Bytes (0%)
Title : Forced
Language : Russian
Default : Yes
Forced : Yes
Text #2
ID : 6
Format : UTF-8
Codec ID : S_TEXT/UTF8
Codec ID/Info : UTF-8 Plain Text
Duration : 1 h 55 min
Bit rate : 69 b/s
Count of elements : 1336
Stream size : 59.1 KiB (0%)
Title : Full
Language : Russian
Default : No
Forced : No
Text #3
ID : 7
Format : UTF-8
Codec ID : S_TEXT/UTF8
Codec ID/Info : UTF-8 Plain Text
Duration : 1 h 45 min
Bit rate : 49 b/s
Count of elements : 1356
Stream size : 38.5 KiB (0%)
Title : Full
Language : English
Default : No
Forced : No
Menu
00:00:00.000 : en:Глава 01
00:07:21.650 : en:Глава 02
00:15:31.681 : en:Глава 03
00:18:13.134 : en:Глава 04
00:24:39.520 : en:Глава 05
00:30:59.441 : en:Глава 06
00:34:09.464 : en:Глава 07
00:42:40.308 : en:Глава 08
00:50:24.897 : en:Глава 09
00:56:45.819 : en:Глава 10
01:03:30.306 : en:Глава 11
01:08:13.172 : en:Глава 12
01:16:45.935 : en:Глава 13
01:24:43.996 : en:Глава 14
01:30:04.733 : en:Глава 15
01:34:00.927 : en:Глава 16
01:42:14.462 : en:Глава 17
01:47:07.588 : en:Глава 18

Орлов Владимир

Post 01-Feb-2020 07:08

[Quote]

--Гемини / Gemini Man--
Информация о фильме
Название: Гемини
Оригинальное название: Gemini Man
Год выхода: 2019
Жанр: Фантастика, боевик, триллер, драма
Режиссер: Энг Ли--В ролях: Уилл Смит, Мэри Элизабет Уинстэд, Клайв Оуэн, Бенедикт Вонг, Дуглас Ходж, Теодора Вулли, Ральф Браун, Линда Эмонд, Андреа Суч, Илья Волох, Дэвид Моретти, Илона МакКри, Э.Дж. Бонилья, Виктор Хьюго--О фильме:
Первоклассный киллер Генри Броган становится мишенью таинственного оперативника, который, кажется, знает наперёд каждый его шаг.-- --Страна: Китай, США
Студия: Skydance Media, Jerry Bruckheimer Films, Fosun Group Forever Pictures
Продолжительность: 01:57:00
Перевод: Дублированный Лицензия--Качество: BDRip 1080p
Видео: MPEG-4 AVC, 1920x1036, 13.9 Mbit/s, 23.976 fps
Аудио #01: 48 kHz, AC3, 5.1, 640 Kbps | Дублированный | RUS |
Аудио #02: 48 kHz, AC3, 5.1, 640 Kbps | Оригинал | ENG |
Субтитры: Русские (forced, full), английские--

Скриншоты

         

Тех.данные видеофайла

General
Unique ID : 65836658319675606545546951230489353812 (0x3187ADDE0F81A76853A7CE60806BDE54)
Complete name : E:Video111Gemini.Man.2019.Lic.BDRip.1080p.seleZen.mkv
Format : Matroska
Format version : Version 4
File size : 12.4 GiB
Duration : 1 h 57 min
Overall bit rate : 15.2 Mb/s
Movie name : Gemini Man 2019 from селезень
Encoded date : UTC 2020-01-31 21:58:39
Writing application : mkvmerge v40.0.0 ('Old Town Road + Pony') 64-bit
Writing library : libebml v1.3.9 + libmatroska v1.5.2
Video
ID : 1
Format : AVC
Format/Info : Advanced Video Codec
Format profile : [email protected]
Format settings : CABAC / 4 Ref Frames
Format settings, CABAC : Yes
Format settings, Reference : 4 frames
Codec ID : V_MPEG4/ISO/AVC
Duration : 1 h 57 min
Bit rate : 13.9 Mb/s
Width : 1 920 pixels
Height : 1 036 pixels
Display aspect ratio : 1.85:1
Frame rate mode : Constant
Frame rate : 23.976 (24000/1001) FPS
Color space : YUV
Chroma subsampling : 4:2:0
Bit depth : 8 bits
Scan type : Progressive
Bits/(Pixel*Frame) : 0.291
Stream size : 11.3 GiB (92%)
Title : CHD
Writing library : x264 core 157 r2867+150 7e91e0e t_mod_Custom_2 [[email protected] X86_64]
Encoding settings : cabac=1 / ref=4 / deblock=1:-3:-3 / analyse=0x3:0x133 / me=umh / subme=11 / psy=1 / fade_compensate=0.00 / psy_rd=0.90:0.10 / mixed_ref=1 / me_range=64 / chroma_me=1 / trellis=2 / 8x8dct=1 / cqm=0 / deadzone=21,11 / fast_pskip=0 / chroma_qp_offset=-4 / threads=32 / lookahead_threads=5 / sliced_threads=0 / nr=0 / decimate=1 / interlaced=0 / bluray_compat=0 / constrained_intra=0 / fgo=0 / bframes=8 / b_pyramid=2 / b_adapt=2 / b_bias=0 / direct=3 / weightb=1 / open_gop=0 / weightp=2 / keyint=250 / keyint_min=23 / scenecut=40 / intra_refresh=0 / rc_lookahead=60 / rc=crf / mbtree=0 / crf=18.0000 / qcomp=0.70 / qpmin=0:0:0 / qpmax=69:69:69 / qpstep=4 / vbv_maxrate=35000 / vbv_bufsize=35000 / crf_max=0.0 / nal_hrd=none / filler=0 / ip_ratio=1.40 / pb_ratio=1.30 / aq=3:1.00 / aq-sensitivity=10.00 / aq-factor=1.00:1.00:1.00 / aq2=0 / aq3=0
Language : English
Default : Yes
Forced : No
Audio #1
ID : 2
Format : AC-3
Format/Info : Audio Coding 3
Commercial name : Dolby Digital
Codec ID : A_AC3
Duration : 1 h 57 min
Bit rate mode : Constant
Bit rate : 640 kb/s
Channel(s) : 6 channels
Channel layout : L R C LFE Ls Rs
Sampling rate : 48.0 kHz
Frame rate : 31.250 FPS (1536 SPF)
Compression mode : Lossy
Stream size : 536 MiB (4%)
Title : Dub [License]
Language : Russian
Service kind : Complete Main
Default : Yes
Forced : Yes
Audio #2
ID : 3
Format : AC-3
Format/Info : Audio Coding 3
Commercial name : Dolby Digital
Codec ID : A_AC3
Duration : 1 h 57 min
Bit rate mode : Constant
Bit rate : 640 kb/s
Channel(s) : 6 channels
Channel layout : L R C LFE Ls Rs
Sampling rate : 48.0 kHz
Frame rate : 31.250 FPS (1536 SPF)
Compression mode : Lossy
Stream size : 536 MiB (4%)
Title : Original
Language : English
Service kind : Complete Main
Default : No
Forced : No
Text #1
ID : 4
Format : UTF-8
Codec ID : S_TEXT/UTF8
Codec ID/Info : UTF-8 Plain Text
Duration : 1 h 55 min
Bit rate : 0 b/s
Count of elements : 16
Stream size : 581 Bytes (0%)
Title : Forced
Language : Russian
Default : Yes
Forced : Yes
Text #2
ID : 5
Format : UTF-8
Codec ID : S_TEXT/UTF8
Codec ID/Info : UTF-8 Plain Text
Duration : 1 h 55 min
Bit rate : 69 b/s
Count of elements : 1336
Stream size : 59.1 KiB (0%)
Title : Full
Language : Russian
Default : No
Forced : No
Text #3
ID : 6
Format : UTF-8
Codec ID : S_TEXT/UTF8
Codec ID/Info : UTF-8 Plain Text
Duration : 1 h 45 min
Bit rate : 49 b/s
Count of elements : 1356
Stream size : 38.5 KiB (0%)
Title : Full
Language : English
Default : No
Forced : No
Menu
00:00:00.000 : en:Глава 01
00:07:21.650 : en:Глава 02
00:15:31.681 : en:Глава 03
00:18:13.134 : en:Глава 04
00:24:39.520 : en:Глава 05
00:30:59.441 : en:Глава 06
00:34:09.464 : en:Глава 07
00:42:40.308 : en:Глава 08
00:50:24.897 : en:Глава 09
00:56:45.819 : en:Глава 10
01:03:30.306 : en:Глава 11
01:08:13.172 : en:Глава 12
01:16:45.935 : en:Глава 13
01:24:43.996 : en:Глава 14
01:30:04.733 : en:Глава 15
01:34:00.927 : en:Глава 16
01:42:14.462 : en:Глава 17
01:47:07.588 : en:Глава 18

Орлов Владимир

Post 01-Feb-2020 07:04

[Quote]

--Гемини / Gemini Man--
Информация о фильме
Название: Гемини
Оригинальное название: Gemini Man
Год выхода: 2019
Жанр: Фантастика, боевик, триллер, драма
Режиссер: Энг Ли--В ролях: Уилл Смит, Мэри Элизабет Уинстэд, Клайв Оуэн, Бенедикт Вонг, Дуглас Ходж, Теодора Вулли, Ральф Браун, Линда Эмонд, Андреа Суч, Илья Волох, Дэвид Моретти, Илона МакКри, Э.Дж. Бонилья, Виктор Хьюго--О фильме:
Первоклассный киллер Генри Броган становится мишенью таинственного оперативника, который, кажется, знает наперёд каждый его шаг.-- --Страна: Китай, США
Студия: Skydance Media, Jerry Bruckheimer Films, Fosun Group Forever Pictures
Продолжительность: 01:57:00
Перевод: Дублированный Лицензия--Качество: BDRip 720p
Видео: MPEG-4 AVC, 1280x692, 6000 Kbit/s, 23.976 fps
Аудио #01: 48 kHz, AC3, 5.1, 640 Kbps | Дублированный | RUS |
Аудио #02: 48 kHz, AC3, 5.1, 640 Kbps | Оригинал | ENG |
Субтитры: Русские (forced, full), английские--

Скриншоты

         

Тех.данные видеофайла

General
Unique ID: 168432194779430548585522337959152355302 (0x7EB6DC5A45E43B32BAD1F31433FE87E6)
Complete name: E:Video111Gemini.Man.2019.Lic.BDRip.720p.seleZen.mkv
Format: Matroska
Format version: Version 4
File size: 5.95 GiB
Duration: 1 h 57 min
Overall bit rate: 7 282 kb/s
Movie name: Gemini Man 2019 from селезень
Encoded date: UTC 2020-01-31 22:16:21
Writing application: mkvmerge v40.0.0 ('Old Town Road + Pony') 64-bit
Writing library: libebml v1.3.9 + libmatroska v1.5.2
Video
ID: 1
Format: AVC
Format/Info: Advanced Video Codec
Format profile: [email protected]
Format settings: CABAC / 9 Ref Frames
Format settings, CABAC: Yes
Format settings, Reference: 9 frames
Codec ID: V_MPEG4/ISO/AVC
Duration: 1 h 57 min
Bit rate: 6 000 kb/s
Width: 1 280 pixels
Height: 692 pixels
Display aspect ratio: 1.85:1
Frame rate mode: Constant
Frame rate: 23.976 (24000/1001) FPS
Color space: YUV
Chroma subsampling: 4:2:0
Bit depth: 8 bits
Scan type: Progressive
Bits/(Pixel*Frame): 0.283
Stream size: 4.90 GiB (82%)
Title: Encoded by seleZen
Writing library: x264 core 142 r2431+42 c69a006 tMod [[email protected] X86_64]
Encoding settings: cabac=1 / ref=9 / deblock=1:-2:-2 / analyse=0x3:0x133 / me=umh / subme=11 / psy=1 / fade_compensate=0.00 / psy_rd=0.00:0.00 / mixed_ref=1 / me_range=32 / chroma_me=1 / trellis=2 / 8x8dct=1 / cqm=0 / deadzone=21,11 / fast_pskip=0 / chroma_qp_offset=0 / threads=24 / lookahead_threads=5 / sliced_threads=0 / nr=0 / decimate=0 / interlaced=0 / bluray_compat=0 / constrained_intra=0 / fgo=0 / bframes=10 / b_pyramid=2 / b_adapt=2 / b_bias=0 / direct=3 / weightb=1 / open_gop=0 / weightp=2 / keyint=240 / keyint_min=23 / scenecut=40 / intra_refresh=0 / rc_lookahead=50 / rc=2pass / mbtree=0 / bitrate=6000 / ratetol=1.0 / qcomp=0.60 / qpmin=0:0:0 / qpmax=51:51:51 / qpstep=4 / cplxblur=20.0 / qblur=0.5 / vbv_maxrate=50000 / vbv_bufsize=62500 / nal_hrd=none / filler=0 / ip_ratio=1.40 / pb_ratio=1.30 / aq=3:0.80 / aq-sensitivity=10.00 / aq-factor=1.00:1.00:1.00 / aq2=0 / aq3=0
Language: English
Default: Yes
Forced: No
Audio #1
ID: 2
Format: AC-3
Format/Info: Audio Coding 3
Commercial name: Dolby Digital
Codec ID: A_AC3
Duration: 1 h 57 min
Bit rate mode: Constant
Bit rate: 640 kb/s
Channel(s): 6 channels
Channel layout: L R C LFE Ls Rs
Sampling rate: 48.0 kHz
Frame rate: 31.250 FPS (1536 SPF)
Compression mode: Lossy
Stream size: 536 MiB (9%)
Title: Dub [License]
Language: Russian
Service kind: Complete Main
Default: Yes
Forced: Yes
Audio #2
ID: 3
Format: AC-3
Format/Info: Audio Coding 3
Commercial name: Dolby Digital
Codec ID: A_AC3
Duration: 1 h 57 min
Bit rate mode: Constant
Bit rate: 640 kb/s
Channel(s): 6 channels
Channel layout: L R C LFE Ls Rs
Sampling rate: 48.0 kHz
Frame rate: 31.250 FPS (1536 SPF)
Compression mode: Lossy
Stream size: 536 MiB (9%)
Title: Original
Language: English
Service kind: Complete Main
Default: No
Forced: No
Text #1
ID: 4
Format: UTF-8
Codec ID: S_TEXT/UTF8
Codec ID/Info: UTF-8 Plain Text
Duration: 1 h 55 min
Bit rate: 0 b/s
Count of elements: 16
Stream size: 581 Bytes (0%)
Title: Forced
Language: Russian
Default: Yes
Forced: Yes
Text #2
ID: 5
Format: UTF-8
Codec ID: S_TEXT/UTF8
Codec ID/Info: UTF-8 Plain Text
Duration: 1 h 55 min
Bit rate: 69 b/s
Count of elements: 1336
Stream size: 59.1 KiB (0%)
Title: Full
Language: Russian
Default: No
Forced: No
Text #3
ID: 6
Format: UTF-8
Codec ID: S_TEXT/UTF8
Codec ID/Info: UTF-8 Plain Text
Duration: 1 h 45 min
Bit rate: 49 b/s
Count of elements: 1356
Stream size: 38.5 KiB (0%)
Title: Full
Language: English
Default: No
Forced: No
Menu
00:00:00.000: en:Глава 01
00:07:21.650: en:Глава 02
00:15:31.681: en:Глава 03
00:18:13.134: en:Глава 04
00:24:39.520: en:Глава 05
00:30:59.441: en:Глава 06
00:34:09.464: en:Глава 07
00:42:40.308: en:Глава 08
00:50:24.897: en:Глава 09
00:56:45.819: en:Глава 10
01:03:30.306: en:Глава 11
01:08:13.172: en:Глава 12
01:16:45.935: en:Глава 13
01:24:43.996: en:Глава 14
01:30:04.733: en:Глава 15
01:34:00.927: en:Глава 16
01:42:14.462: en:Глава 17
01:47:07.588: en:Глава 18

Орлов Владимир

Post 31-Jan-2020 09:21

[Quote]

--Терминатор: Тёмные судьбы / Terminator: Dark Fate--
Информация о фильме
Название: Терминатор: Тёмные судьбы
Оригинальное название: Terminator: Dark Fate
Год выхода: 2019
Жанр: Фантастика, боевик, приключения
Режиссер: Тим Миллер--В ролях: Арнольд Шварценеггер, Маккензи Дэвис, Линда Хэмилтон, Эдвард Ферлонг, Гэбриел Луна, Наталия Рейес, Том Хоппер, Диего Бонета, Алисия Боррачеро, Энрике Арсе, Стивен Кри, Ферран Фернандес--О фильме: Мексика. Милая девушка Даниэла Рамос, а для друзей просто Дани, вместе с братом приходит с утра работать на завод, но там выясняется, что их вскоре заменят автоматикой. И это не единственная угроза, которую представляют для девушки машины: тут же на неё нападает присланная из будущего и практически неубиваемая модель терминатора REV-9. Но на защиту Дани встает Грэйс — тоже прибывшая из будущего женщина, модифицировавшая свои боевые характеристики до терминаторского уровня. Вскоре к ним на помощь придёт и Сара Коннор, которая теперь превратилась в настоящую охотницу на роботов-убийц.-- --Страна: США, Китай
Студия: Paramount Pictures, Twentieth Century Fox, Skydance Media
Продолжительность: 02:08:05
Перевод(ы): #1: Дублированный iTunes
#2: Авторский Д. Есарев--Качество: BDRemux 2160p
Видео: 3840x2160 at 23.976 fps, MPEG-H HEVC HDR Video, 48700 kbps avg
Аудио #01: 48 kHz, AC3, 5.1, 384 Kbps | Дублированный | RUS |
Аудио #02: 48 kHz, AC3, 5.1, 640 Kbps | Авторский | RUS |
Аудио #03: 48 kHz, DTS-HD MA, 7.1, 5022 Kbps | Авторский | RUS |
Аудио #04: 48 kHz, AC3, 2.0, 192 Kbps | Дублированный | UKR |
Аудио #05: 48 kHz, TrueHD, 7.1, 4634 Kbps | Оригинал | ENG |
Аудио #06: 48 kHz, AC3, 5.1, 640 Kbps | Оригинал | ENG |
Субтитры: Русские (Forced, 3 x full), украинские (forced, full), английские--

Скриншоты

         
--

Тех.данные видеофайла

General
Unique ID : 245448353069001981915011665903398797925 (0xB8A7A21FCAD4DE9FF829569B9A9DC265)
Complete name : E:Video111Terminator.Dark.Fate.2019.BDREMUX.2160p.HDR.seleZen.mkv
Format : Matroska
Format version : Version 4
File size : 53.9 GiB
Duration : 2 h 8 min
Overall bit rate mode : Variable
Overall bit rate : 60.3 Mb/s
Movie name : Terminator: Dark Fate (2019) from селезень
Encoded date : UTC 2020-01-30 20:04:47
Writing application : mkvmerge v40.0.0 ('Old Town Road + Pony') 64-bit
Writing library : libebml v1.3.9 + libmatroska v1.5.2
Cover : Yes
Attachments : cover.jpg / cover.jpg
Video
ID : 1
Format : HEVC
Format/Info : High Efficiency Video Coding
Format profile : Main [email protected]@High
HDR format : SMPTE ST 2086, HDR10 compatible
Codec ID : V_MPEGH/ISO/HEVC
Duration : 2 h 8 min
Bit rate : 48.7 Mb/s
Width : 3 840 pixels
Height : 2 160 pixels
Display aspect ratio : 16:9
Frame rate mode : Constant
Frame rate : 23.976 (24000/1001) FPS
Color space : YUV
Chroma subsampling : 4:2:0 (Type 2)
Bit depth : 10 bits
Bits/(Pixel*Frame) : 0.245
Stream size : 43.6 GiB (81%)
Language : English
Default : Yes
Forced : No
Color range : Limited
Color primaries : BT.2020
Transfer characteristics : PQ
Matrix coefficients : BT.2020 non-constant
Mastering display color pri: Display P3
Mastering display luminance: min: 0.0001 cd/m2, max: 1000 cd/m2
Maximum Content Light Level: 1000 cd/m2
Maximum Frame-Average Light: 446 cd/m2
Audio #1
ID : 2
Format : AC-3
Format/Info : Audio Coding 3
Commercial name : Dolby Digital
Codec ID : A_AC3
Duration : 2 h 8 min
Bit rate mode : Constant
Bit rate : 384 kb/s
Channel(s) : 6 channels
Channel layout : L R C LFE Ls Rs
Sampling rate : 48.0 kHz
Frame rate : 31.250 FPS (1536 SPF)
Compression mode : Lossy
Stream size : 352 MiB (1%)
Title : iTunes
Language : Russian
Service kind : Complete Main
Default : Yes
Forced : Yes
Audio #2
ID : 3
Format : AC-3
Format/Info : Audio Coding 3
Commercial name : Dolby Digital
Codec ID : A_AC3
Duration : 2 h 8 min
Bit rate mode : Constant
Bit rate : 640 kb/s
Channel(s) : 6 channels
Channel layout : L R C LFE Ls Rs
Sampling rate : 48.0 kHz
Frame rate : 31.250 FPS (1536 SPF)
Compression mode : Lossy
Stream size : 586 MiB (1%)
Title : AVO [Yesarev]
Language : Russian
Service kind : Complete Main
Default : No
Forced : No
Audio #3
ID : 4
Format : DTS XLL
Format/Info : Digital Theater Systems
Commercial name : DTS-HD Master Audio
Codec ID : A_DTS
Duration : 2 h 8 min
Bit rate mode : Variable
Bit rate : 5 022 kb/s
Channel(s) : 8 channels
Channel layout : C L R LFE Lb Rb Lss Rss
Sampling rate : 48.0 kHz
Frame rate : 93.750 FPS (512 SPF)
Bit depth : 24 bits
Compression mode : Lossless
Stream size : 4.49 GiB (8%)
Title : AVO [Yesarev]
Language : Russian
Default : No
Forced : No
Audio #4
ID : 5
Format : AC-3
Format/Info : Audio Coding 3
Commercial name : Dolby Digital
Codec ID : A_AC3
Duration : 2 h 8 min
Bit rate mode : Constant
Bit rate : 192 kb/s
Channel(s) : 2 channels
Channel layout : L R
Sampling rate : 48.0 kHz
Frame rate : 31.250 FPS (1536 SPF)
Compression mode : Lossy
Stream size : 176 MiB (0%)
Title : iTunes
Language : Ukrainian
Service kind : Complete Main
Default : No
Forced : No
Audio #5
ID : 6
Format : MLP FBA 16-ch
Format/Info : Meridian Lossless Packing FBA with 16-channel presentation
Commercial name : Dolby TrueHD with Dolby Atmos
Codec ID : A_TRUEHD
Duration : 2 h 8 min
Bit rate mode : Variable
Bit rate : 4 634 kb/s
Maximum bit rate : 8 247 kb/s
Channel(s) : 8 channels
Channel layout : L R C LFE Ls Rs Lb Rb
Sampling rate : 48.0 kHz
Frame rate : 1 200.000 FPS (40 SPF)
Compression mode : Lossless
Stream size : 4.15 GiB (8%)
Title : Original
Language : English
Default : No
Forced : No
Number of dynamic objects : 11
Bed channel count : 1 channel
Bed channel configuration : LFE
Audio #6
ID : 7
Format : AC-3
Format/Info : Audio Coding 3
Commercial name : Dolby Digital
Codec ID : A_AC3
Duration : 2 h 8 min
Bit rate mode : Constant
Bit rate : 640 kb/s
Channel(s) : 6 channels
Channel layout : L R C LFE Ls Rs
Sampling rate : 48.0 kHz
Frame rate : 31.250 FPS (1536 SPF)
Compression mode : Lossy
Stream size : 586 MiB (1%)
Language : English
Service kind : Complete Main
Default : No
Forced : No
Text #1
ID : 8
Format : UTF-8
Codec ID : S_TEXT/UTF8
Codec ID/Info : UTF-8 Plain Text
Duration : 2 h 4 min
Bit rate : 4 b/s
Count of elements : 143
Stream size : 4.36 KiB (0%)
Title : Forced [iTunes]
Language : Russian
Default : Yes
Forced : Yes
Text #2
ID : 9
Format : UTF-8
Codec ID : S_TEXT/UTF8
Codec ID/Info : UTF-8 Plain Text
Duration : 2 h 7 min
Bit rate : 49 b/s
Count of elements : 1250
Stream size : 46.2 KiB (0%)
Title : Full [iTunes]
Language : Russian
Default : No
Forced : No
Text #3
ID : 10
Format : UTF-8
Codec ID : S_TEXT/UTF8
Codec ID/Info : UTF-8 Plain Text
Duration : 1 h 57 min
Bit rate : 61 b/s
Count of elements : 1178
Stream size : 53.4 KiB (0%)
Title : Full [Enigma]
Language : Russian
Default : No
Forced : No
Text #4
ID : 11
Format : UTF-8
Codec ID : S_TEXT/UTF8
Codec ID/Info : UTF-8 Plain Text
Duration : 2 h 7 min
Bit rate : 50 b/s
Count of elements : 1250
Stream size : 46.8 KiB (0%)
Title : Full [Fadeev, Levina]
Language : Russian
Default : No
Forced : No
Text #5
ID : 12
Format : UTF-8
Codec ID : S_TEXT/UTF8
Codec ID/Info : UTF-8 Plain Text
Duration : 2 h 4 min
Bit rate : 4 b/s
Count of elements : 139
Stream size : 4.42 KiB (0%)
Title : Forced [iTunes]
Language : Ukrainian
Default : No
Forced : No
Text #6
ID : 13
Format : UTF-8
Codec ID : S_TEXT/UTF8
Codec ID/Info : UTF-8 Plain Text
Duration : 2 h 7 min
Bit rate : 50 b/s
Count of elements : 1239
Stream size : 47.1 KiB (0%)
Title : Full [iTunes]
Language : Ukrainian
Default : No
Forced : No
Text #7
ID : 14
Format : UTF-8
Codec ID : S_TEXT/UTF8
Codec ID/Info : UTF-8 Plain Text
Duration : 1 h 57 min
Bit rate : 31 b/s
Count of elements : 1078
Stream size : 27.2 KiB (0%)
Title : Full
Language : English
Default : No
Forced : No
Text #8
ID : 15
Format : UTF-8
Codec ID : S_TEXT/UTF8
Codec ID/Info : UTF-8 Plain Text
Duration : 1 h 57 min
Bit rate : 39 b/s
Count of elements : 1388
Stream size : 34.3 KiB (0%)
Title : SDH
Language : English
Default : No
Forced : No
Text #9
ID : 16
Format : UTF-8
Codec ID : S_TEXT/UTF8
Codec ID/Info : UTF-8 Plain Text
Duration : 1 h 57 min
Bit rate : 68 b/s
Count of elements : 1388
Stream size : 58.6 KiB (0%)
Title : SDH Colored
Language : English
Default : No
Forced : No
Menu
00:00:00.000 : en:Глава 01
00:04:19.843 : en:Глава 02
00:07:48.927 : en:Глава 03
00:11:47.916 : en:Глава 04
00:16:56.349 : en:Глава 05
00:22:10.663 : en:Глава 06
00:29:00.614 : en:Глава 07
00:33:25.754 : en:Глава 08
00:41:35.493 : en:Глава 09
00:47:02.695 : en:Глава 10
00:53:08.936 : en:Глава 11
00:57:56.807 : en:Глава 12
01:05:02.690 : en:Глава 13
01:13:07.967 : en:Глава 14
01:20:45.591 : en:Глава 15
01:27:29.744 : en:Глава 16
01:32:48.688 : en:Глава 17
01:41:45.850 : en:Глава 18
01:49:35.319 : en:Глава 19
01:57:58.613 : en:Глава 20

Орлов Владимир

Post 31-Jan-2020 09:13

[Quote]

--Терминатор: Тёмные судьбы / Terminator: Dark Fate--
Информация о фильме
Название: Терминатор: Тёмные судьбы
Оригинальное название: Terminator: Dark Fate
Год выхода: 2019
Жанр: Фантастика, боевик, приключения
Режиссер: Тим Миллер--В ролях: Арнольд Шварценеггер, Маккензи Дэвис, Линда Хэмилтон, Эдвард Ферлонг, Гэбриел Луна, Наталия Рейес, Том Хоппер, Диего Бонета, Алисия Боррачеро, Энрике Арсе, Стивен Кри, Ферран Фернандес--О фильме: Мексика. Милая девушка Даниэла Рамос, а для друзей просто Дани, вместе с братом приходит с утра работать на завод, но там выясняется, что их вскоре заменят автоматикой. И это не единственная угроза, которую представляют для девушки машины: тут же на неё нападает присланная из будущего и практически неубиваемая модель терминатора REV-9. Но на защиту Дани встает Грэйс — тоже прибывшая из будущего женщина, модифицировавшая свои боевые характеристики до терминаторского уровня. Вскоре к ним на помощь придёт и Сара Коннор, которая теперь превратилась в настоящую охотницу на роботов-убийц.-- --Страна: США, Китай
Студия: Paramount Pictures, Twentieth Century Fox, Skydance Media
Продолжительность: 02:08:05
Перевод: Дублированный iTunes--Качество: BDRemux 2160p
Видео: 3840x2160 at 23.976 fps, MPEG-H HEVC HDR, Dolby Vision Video, 48700 kbps avg
Аудио: 48 kHz, AC3, 5.1, 384 Kbps | Дублированный | RUS |
Субтитры: Русские (Forced, отдельно)--

Скриншоты

         
--

Тех.данные видеофайла

General
Complete name : D:Video222Terminator.Dark.Fate.2019.BDREMUX.2160p.DV_TV.HDR.seleZenTerminator.Dark.Fate.2019.BDREMUX.2160p.DV_TV.HDR.seleZen.mp4
Format : MPEG-4
Format profile : Base Media / Version 2
Codec ID : mp42 (mp42/dby1/isom)
File size : 48.5 GiB
Duration : 2 h 8 min
Overall bit rate : 54.2 Mb/s
Encoded date : UTC 2020-01-31 00:25:42
Tagged date : UTC 2020-01-31 00:25:42
Video #1
ID : 1
Format : HEVC
Format/Info : High Efficiency Video Coding
Format profile : Main [email protected]@High
HDR format : SMPTE ST 2086, HDR10 compatible
Codec ID : hev1
Codec ID/Info : High Efficiency Video Coding
Duration : 2 h 8 min
Bit rate : 48.7 Mb/s
Width : 3 840 pixels
Height : 2 160 pixels
Display aspect ratio : 16:9
Frame rate mode : Constant
Frame rate : 23.976 (24000/1001) FPS
Color space : YUV
Chroma subsampling : 4:2:0 (Type 2)
Bit depth : 10 bits
Bits/(Pixel*Frame) : 0.245
Stream size : 43.6 GiB (90%)
Default : No
Encoded date : UTC 2020-01-31 00:25:42
Tagged date : UTC 2020-01-31 00:25:42
Color range : Limited
Color primaries : BT.2020
Transfer characteristics : PQ
Matrix coefficients : BT.2020 non-constant
Mastering display color pri: Display P3
Mastering display luminance: min: 0.0001 cd/m2, max: 1000 cd/m2
Maximum Content Light Level: 1000 cd/m2
Maximum Frame-Average Light: 446 cd/m2
Codec configuration box : hvcC
Video #2
ID : 2
Format : HEVC
Format/Info : High Efficiency Video Coding
Format profile : Main [email protected]@High
HDR format : Dolby Vision, Version 1.0, dvhe.07.06, EL+RPU / SMPTE ST 2086, HDR10 compatible
Codec ID : dvhe
Codec ID/Info : High Efficiency Video Coding with Dolby Vision
Duration : 2 h 8 min
Bit rate : 5 130 kb/s
Width : 1 920 pixels
Height : 1 080 pixels
Display aspect ratio : 16:9
Frame rate mode : Constant
Frame rate : 23.976 (24000/1001) FPS
Color space : YUV
Chroma subsampling : 4:2:0 (Type 2)
Bit depth : 10 bits
Bits/(Pixel*Frame) : 0.103
Stream size : 4.59 GiB (9%)
Default : No
Encoded date : UTC 2020-01-31 00:25:42
Tagged date : UTC 2020-01-31 00:25:42
Color range : Limited
Color primaries : BT.2020
Transfer characteristics : PQ
Matrix coefficients : BT.2020 non-constant
Mastering display color pri: Display P3
Mastering display luminance: min: 0.0001 cd/m2, max: 1000 cd/m2
Codec configuration box : hvcC+dvcC
Audio
ID : 3
Format : AC-3
Format/Info : Audio Coding 3
Commercial name : Dolby Digital
Codec ID : ac-3
Duration : 2 h 8 min
Bit rate mode : Constant
Bit rate : 384 kb/s
Channel(s) : 6 channels
Channel layout : L R C LFE Ls Rs
Sampling rate : 48.0 kHz
Frame rate : 31.250 FPS (1536 SPF)
Compression mode : Lossy
Stream size : 352 MiB (1%)
Language : Russian
Service kind : Complete Main
Default : No
Encoded date : UTC 2020-01-31 00:25:42
Tagged date : UTC 2020-01-31 00:25:42

Орлов Владимир

Post 31-Jan-2020 09:01

[Quote]

--Терминатор: Тёмные судьбы / Terminator: Dark Fate--
Информация о фильме
Название: Терминатор: Тёмные судьбы
Оригинальное название: Terminator: Dark Fate
Год выхода: 2019
Жанр: Фантастика, боевик, приключения
Режиссер: Тим Миллер--В ролях: Арнольд Шварценеггер, Маккензи Дэвис, Линда Хэмилтон, Эдвард Ферлонг, Гэбриел Луна, Наталия Рейес, Том Хоппер, Диего Бонета, Алисия Боррачеро, Энрике Арсе, Стивен Кри, Ферран Фернандес--О фильме: Мексика. Милая девушка Даниэла Рамос, а для друзей просто Дани, вместе с братом приходит с утра работать на завод, но там выясняется, что их вскоре заменят автоматикой. И это не единственная угроза, которую представляют для девушки машины: тут же на неё нападает присланная из будущего и практически неубиваемая модель терминатора REV-9. Но на защиту Дани встает Грэйс — тоже прибывшая из будущего женщина, модифицировавшая свои боевые характеристики до терминаторского уровня. Вскоре к ним на помощь придёт и Сара Коннор, которая теперь превратилась в настоящую охотницу на роботов-убийц.-- --Страна: США, Китай
Студия: Paramount Pictures, Twentieth Century Fox, Skydance Media
Продолжительность: 02:08:05
Перевод(ы): #1: Дублированный iTunes
#2: Авторский Д. Есарев--Качество: BDRip 2160p
Видео: 3840x1608 at 23.976 fps, MPEG-H HEVC HDR Video, 18600 kbps avg
Аудио #01: 48 kHz, AC3, 5.1, 384 Kbps | Дублированный | RUS |
Аудио #02: 48 kHz, AC3, 5.1, 640 Kbps | Авторский | RUS |
Аудио #03: 48 kHz, DTS-HD MA, 7.1, 5022 Kbps | Авторский | RUS |
Аудио #04: 48 kHz, AC3, 2.0, 192 Kbps | Дублированный | UKR |
Аудио #05: 48 kHz, TrueHD, 7.1, 4634 Kbps | Оригинал | ENG |
Аудио #06: 48 kHz, AC3, 5.1, 640 Kbps | Оригинал | ENG |
Субтитры: Русские (Forced, 2 x full), украинские (forced, full), английские--

Скриншоты

         

Тех.данные видеофайла

General
Unique ID : 12097926041817564089370583246569154196 (0x919F9CE37E3E0CF73BB04E0F6BB2694)
Complete name : D:Video222Terminator.Dark.Fate.2019.BDRip.2160p.HDR.seleZen.mkv
Format : Matroska
Format version : Version 4
File size : 27.0 GiB
Duration : 2 h 8 min
Overall bit rate mode : Variable
Overall bit rate : 30.2 Mb/s
Movie name : Terminator: Dark Fate (2019) from селезень
Encoded date : UTC 2020-01-30 22:33:03
Writing application : mkvmerge v40.0.0 ('Old Town Road + Pony') 64-bit
Writing library : libebml v1.3.9 + libmatroska v1.5.2
Cover : Yes
Attachments : cover.jpg / cover.jpg
Video
ID : 1
Format : HEVC
Format/Info : High Efficiency Video Coding
Format profile : Main [email protected]@Main
HDR format : SMPTE ST 2086, HDR10 compatible
Codec ID : V_MPEGH/ISO/HEVC
Duration : 2 h 8 min
Bit rate : 18.6 Mb/s
Width : 3 840 pixels
Height : 1 608 pixels
Display aspect ratio : 2.40:1
Frame rate mode : Constant
Frame rate : 23.976 (23976/1000) FPS
Color space : YUV
Chroma subsampling : 4:2:0
Bit depth : 10 bits
Bits/(Pixel*Frame) : 0.125
Stream size : 16.6 GiB (62%)
Title : CHD
Writing library : x265 3.2+7-gb291a1c95+26:[Windows][MSVC 1916][64 bit] Yuuki 10bit
Encoding settings : rc=crf / crf=16.0000 / qcomp=0.82 / qpstep=4 / stats-write=0 / stats-read=0 / no-lossless / no-cu-lossless / aq-mode=1 / aq-strength=1.00 / cbqpoffs=0 / crqpoffs=0 / ipratio=1.40 / pbratio=1.30 / psy-rd=1.10 / psy-rdoq=0.00 / deblock=-1:-1 / ref=4 / limit-refs=1 / no-limit-modes / bframes=14 / b-adapt=2 / bframe-bias=0 / b-pyramid / b-intra / weightp / weightb / min-keyint=23 / max-keyint=250 / rc-lookahead=24 / gop-lookahead=0 / scenecut=40 / radl=0 / max-cu-size=64 / min-cu-size=8 / me=3 / subme=7 / merange=64 / rdoq-level=0 / rd=5 / rdpenalty=0 / dynamic-rd=0.00 / no-rd-refine / ----- / cutree / sao / no-rect / no-amp / no-open-gop / wpp / no-pmode / pme / no-psnr / no-ssim / nr-intra=0 / nr-inter=0 / no-constrained-intra / no-strong-intra-smoothing / max-tu-size=32 / tu-inter-depth=1 / tu-intra-depth=1 / limit-tu=0 / qg-size=32 / qpmax=69 / qpmin=0 / ----- / cpuid=1111039 / frame-threads=5 / numa-pools=36,36 / log-level=2 / input-csp=1 / input-res=3840x1608 / interlace=0 / level-idc=0 / high-tier=1 / uhd-bd=0 / no-allow-non-conformance / repeat-headers / no-aud / no-hrd / info / hash=0 / no-temporal-layers / lookahead-slices=8 / no-splice / no-intra-refresh / no-ssim-rd / signhide / no-tskip / max-merge=3 / temporal-mvp / no-hme / no-analyze-src-pics / no-sao-non-deblock / selective-sao=4 / early-skip / rskip / no-fast-intra / no-tskip-fast / no-splitrd-skip / zone-count=0 / no-strict-cbr / no-rc-grain / no-const-vbv / sar=0 / overscan=0 / videoformat=5 / range=0 / colorprim=9 / transfer=16 / colormatrix=9 / chromaloc=0 / display-window=0 / master-display=G(13250,34500)B(7500,3000)R(34000,16000)WP(15635,16450)L(10000000,1) / cll=1000,446 / min-luma=0 / max-luma=1023 / log2-max-poc-lsb=8 / vui-timing-info / vui-hrd-info / slices=1 / no-opt-qp-pps / no-opt-ref-list-length-pps / no-multi-pass-opt-rps / scenecut-bias=0.05 / no-opt-cu-delta-qp / aq-motion / hdr / hdr-opt / no-dhdr10-opt / no-idr-recovery-sei / analysis-reuse-level=5 / scale-factor=0 / refine-intra=0 / refine-inter=0 / refine-mv=1 / refine-ctu-distortion=0 / no-limit-sao / ctu-info=0 / no-lowpass-dct / refine-analysis-type=0 / copy-pic=1 / max-ausize-factor=1.0 / no-dynamic-refine / no-single-sei / no-hevc-aq / no-svt / no-field / qp-adaptation-range=1.00
Language : English
Default : Yes
Forced : No
Color range : Limited
Color primaries : BT.2020
Transfer characteristics : PQ
Matrix coefficients : BT.2020 non-constant
Mastering display color pri: Display P3
Mastering display luminance: min: 0.0001 cd/m2, max: 1000 cd/m2
Maximum Content Light Level: 1000 cd/m2
Maximum Frame-Average Light: 446 cd/m2
Audio #1
ID : 2
Format : AC-3
Format/Info : Audio Coding 3
Commercial name : Dolby Digital
Codec ID : A_AC3
Duration : 2 h 8 min
Bit rate mode : Constant
Bit rate : 384 kb/s
Channel(s) : 6 channels
Channel layout : L R C LFE Ls Rs
Sampling rate : 48.0 kHz
Frame rate : 31.250 FPS (1536 SPF)
Compression mode : Lossy
Stream size : 352 MiB (1%)
Title : iTunes
Language : Russian
Service kind : Complete Main
Default : Yes
Forced : Yes
Audio #2
ID : 3
Format : AC-3
Format/Info : Audio Coding 3
Commercial name : Dolby Digital
Codec ID : A_AC3
Duration : 2 h 8 min
Bit rate mode : Constant
Bit rate : 640 kb/s
Channel(s) : 6 channels
Channel layout : L R C LFE Ls Rs
Sampling rate : 48.0 kHz
Frame rate : 31.250 FPS (1536 SPF)
Compression mode : Lossy
Stream size : 586 MiB (2%)
Title : AVO [Yesarev]
Language : Russian
Service kind : Complete Main
Default : No
Forced : No
Audio #3
ID : 4
Format : DTS XLL
Format/Info : Digital Theater Systems
Commercial name : DTS-HD Master Audio
Codec ID : A_DTS
Duration : 2 h 8 min
Bit rate mode : Variable
Bit rate : 5 022 kb/s
Channel(s) : 8 channels
Channel layout : C L R LFE Lb Rb Lss Rss
Sampling rate : 48.0 kHz
Frame rate : 93.750 FPS (512 SPF)
Bit depth : 24 bits
Compression mode : Lossless
Stream size : 4.49 GiB (17%)
Title : AVO [Yesarev]
Language : Russian
Default : No
Forced : No
Audio #4
ID : 5
Format : AC-3
Format/Info : Audio Coding 3
Commercial name : Dolby Digital
Codec ID : A_AC3
Duration : 2 h 8 min
Bit rate mode : Constant
Bit rate : 192 kb/s
Channel(s) : 2 channels
Channel layout : L R
Sampling rate : 48.0 kHz
Frame rate : 31.250 FPS (1536 SPF)
Compression mode : Lossy
Stream size : 176 MiB (1%)
Title : iTunes
Language : Ukrainian
Service kind : Complete Main
Default : No
Forced : No
Audio #5
ID : 6
Format : MLP FBA 16-ch
Format/Info : Meridian Lossless Packing FBA with 16-channel presentation
Commercial name : Dolby TrueHD with Dolby Atmos
Codec ID : A_TRUEHD
Duration : 2 h 8 min
Bit rate mode : Variable
Bit rate : 4 634 kb/s
Maximum bit rate : 8 247 kb/s
Channel(s) : 8 channels
Channel layout : L R C LFE Ls Rs Lb Rb
Sampling rate : 48.0 kHz
Frame rate : 1 200.000 FPS (40 SPF)
Compression mode : Lossless
Stream size : 4.15 GiB (15%)
Title : Original
Language : English
Default : No
Forced : No
Number of dynamic objects : 11
Bed channel count : 1 channel
Bed channel configuration : LFE
Audio #6
ID : 7
Format : AC-3
Format/Info : Audio Coding 3
Commercial name : Dolby Digital
Codec ID : A_AC3
Duration : 2 h 8 min
Bit rate mode : Constant
Bit rate : 640 kb/s
Channel(s) : 6 channels
Channel layout : L R C LFE Ls Rs
Sampling rate : 48.0 kHz
Frame rate : 31.250 FPS (1536 SPF)
Compression mode : Lossy
Stream size : 586 MiB (2%)
Language : English
Service kind : Complete Main
Default : No
Forced : No
Text #1
ID : 8
Format : UTF-8
Codec ID : S_TEXT/UTF8
Codec ID/Info : UTF-8 Plain Text
Duration : 2 h 4 min
Bit rate : 4 b/s
Count of elements : 143
Stream size : 4.36 KiB (0%)
Title : Forced [iTunes]
Language : Russian
Default : Yes
Forced : Yes
Text #2
ID : 9
Format : UTF-8
Codec ID : S_TEXT/UTF8
Codec ID/Info : UTF-8 Plain Text
Duration : 2 h 7 min
Bit rate : 49 b/s
Count of elements : 1250
Stream size : 46.2 KiB (0%)
Title : Full [iTunes]
Language : Russian
Default : No
Forced : No
Text #3
ID : 10
Format : UTF-8
Codec ID : S_TEXT/UTF8
Codec ID/Info : UTF-8 Plain Text
Duration : 1 h 57 min
Bit rate : 61 b/s
Count of elements : 1178
Stream size : 53.4 KiB (0%)
Title : Full [Enigma]
Language : Russian
Default : No
Forced : No
Text #4
ID : 11
Format : UTF-8
Codec ID : S_TEXT/UTF8
Codec ID/Info : UTF-8 Plain Text
Duration : 2 h 4 min
Bit rate : 4 b/s
Count of elements : 139
Stream size : 4.42 KiB (0%)
Title : Forced [iTunes]
Language : Ukrainian
Default : No
Forced : No
Text #5
ID : 12
Format : UTF-8
Codec ID : S_TEXT/UTF8
Codec ID/Info : UTF-8 Plain Text
Duration : 2 h 7 min
Bit rate : 50 b/s
Count of elements : 1239
Stream size : 47.1 KiB (0%)
Title : Full [iTunes]
Language : Ukrainian
Default : No
Forced : No
Text #6
ID : 13
Format : UTF-8
Codec ID : S_TEXT/UTF8
Codec ID/Info : UTF-8 Plain Text
Duration : 1 h 57 min
Bit rate : 31 b/s
Count of elements : 1078
Stream size : 27.2 KiB (0%)
Title : Full
Language : English
Default : No
Forced : No
Text #7
ID : 14
Format : UTF-8
Codec ID : S_TEXT/UTF8
Codec ID/Info : UTF-8 Plain Text
Duration : 1 h 57 min
Bit rate : 39 b/s
Count of elements : 1388
Stream size : 34.3 KiB (0%)
Title : SDH
Language : English
Default : No
Forced : No
Text #8
ID : 15
Format : UTF-8
Codec ID : S_TEXT/UTF8
Codec ID/Info : UTF-8 Plain Text
Duration : 1 h 57 min
Bit rate : 68 b/s
Count of elements : 1388
Stream size : 58.6 KiB (0%)
Title : SDH Colored
Language : English
Default : No
Forced : No
Menu
00:00:00.000 : en:Глава 01
00:04:19.843 : en:Глава 02
00:07:48.927 : en:Глава 03
00:11:47.916 : en:Глава 04
00:16:56.349 : en:Глава 05
00:22:10.663 : en:Глава 06
00:29:00.614 : en:Глава 07
00:33:25.754 : en:Глава 08
00:41:35.493 : en:Глава 09
00:47:02.695 : en:Глава 10
00:53:08.936 : en:Глава 11
00:57:56.807 : en:Глава 12
01:05:02.690 : en:Глава 13
01:13:07.967 : en:Глава 14
01:20:45.591 : en:Глава 15
01:27:29.744 : en:Глава 16
01:32:48.688 : en:Глава 17
01:41:45.850 : en:Глава 18
01:49:35.319 : en:Глава 19
01:57:58.613 : en:Глава 20

Орлов Владимир

Post 31-Jan-2020 08:58

[Quote]

--Терминатор: Тёмные судьбы / Terminator: Dark Fate--
Информация о фильме
Название: Терминатор: Тёмные судьбы
Оригинальное название: Terminator: Dark Fate
Год выхода: 2019
Жанр: Фантастика, боевик, приключения
Режиссер: Тим Миллер--В ролях: Арнольд Шварценеггер, Маккензи Дэвис, Линда Хэмилтон, Эдвард Ферлонг, Гэбриел Луна, Наталия Рейес, Том Хоппер, Диего Бонета, Алисия Боррачеро, Энрике Арсе, Стивен Кри, Ферран Фернандес--О фильме: Мексика. Милая девушка Даниэла Рамос, а для друзей просто Дани, вместе с братом приходит с утра работать на завод, но там выясняется, что их вскоре заменят автоматикой. И это не единственная угроза, которую представляют для девушки машины: тут же на неё нападает присланная из будущего и практически неубиваемая модель терминатора REV-9. Но на защиту Дани встает Грэйс — тоже прибывшая из будущего женщина, модифицировавшая свои боевые характеристики до терминаторского уровня. Вскоре к ним на помощь придёт и Сара Коннор, которая теперь превратилась в настоящую охотницу на роботов-убийц.-- --Страна: США, Китай
Студия: Paramount Pictures, Twentieth Century Fox, Skydance Media
Продолжительность: 02:08:05
Перевод(ы): #1: Дублированный iTunes
#2: Авторский Д. Есарев--Качество: BDRip 1080p
Видео: MPEG-4 AVC, 1920x804, 10.0 Mbit/s, 23.976 fps
Аудио #01: 48 kHz, AC3, 5.1, 384 Kbps | Дублированный | RUS |
Аудио #02: 48 kHz, AC3, 5.1, 640 Kbps | Авторский | RUS |
Аудио #03: 48 kHz, DTS, 5.1, 1510 Kbps | Авторский | RUS |
Аудио #04: 48 kHz, AAC, 2.0, 125 Kbps | Дублированный | UKR |
Аудио #05: 48 kHz, AC3, 5.1, 640 Kbps | Оригинал | ENG |
Субтитры: Русские (Forced, 3 x full), украинские (forced, full), английские--

Скриншоты

         

Тех.данные видеофайла

General
Unique ID : 170402074007545025897249435732172163946 (0x80323EE5A66B732E042373E2EE6D4B6A)
Complete name : E:Video111Terminator.Dark.Fate.2019.BDRip.1080p.seleZen.mkv
Format : Matroska
Format version : Version 4
File size : 11.9 GiB
Duration : 2 h 8 min
Overall bit rate : 13.3 Mb/s
Movie name : Terminator: Dark Fate (2019) from селезень
Encoded date : UTC 2020-01-30 19:18:04
Writing application : mkvmerge v40.0.0 ('Old Town Road + Pony') 64-bit
Writing library : libebml v1.3.9 + libmatroska v1.5.2
Cover : Yes
Attachments : cover.jpg / cover.jpg
Video
ID : 1
Format : AVC
Format/Info : Advanced Video Codec
Format profile : [email protected]
Format settings : CABAC / 5 Ref Frames
Format settings, CABAC : Yes
Format settings, Reference : 5 frames
Codec ID : V_MPEG4/ISO/AVC
Duration : 2 h 8 min
Bit rate : 10 000 kb/s
Width : 1 920 pixels
Height : 804 pixels
Display aspect ratio : 2.40:1
Frame rate mode : Constant
Frame rate : 23.976 (24000/1001) FPS
Color space : YUV
Chroma subsampling : 4:2:0
Bit depth : 8 bits
Scan type : Progressive
Bits/(Pixel*Frame) : 0.270
Stream size : 8.94 GiB (75%)
Title : Encoded by seleZen
Writing library : x264 core 142 r2431+42 c69a006 tMod [[email protected] X86_64]
Encoding settings : cabac=1 / ref=5 / deblock=1:-2:-2 / analyse=0x3:0x133 / me=umh / subme=10 / psy=1 / fade_compensate=0.00 / psy_rd=1.01:0.02 / mixed_ref=1 / me_range=32 / chroma_me=1 / trellis=2 / 8x8dct=1 / cqm=0 / deadzone=21,11 / fast_pskip=0 / chroma_qp_offset=-3 / threads=24 / lookahead_threads=4 / sliced_threads=0 / nr=0 / decimate=0 / interlaced=0 / bluray_compat=0 / constrained_intra=0 / fgo=0 / bframes=8 / b_pyramid=2 / b_adapt=2 / b_bias=0 / direct=3 / weightb=1 / open_gop=0 / weightp=2 / keyint=240 / keyint_min=23 / scenecut=40 / intra_refresh=0 / rc_lookahead=50 / rc=2pass / mbtree=0 / bitrate=10000 / ratetol=1.0 / qcomp=0.60 / qpmin=0:0:0 / qpmax=51:51:51 / qpstep=4 / cplxblur=20.0 / qblur=0.5 / vbv_maxrate=50000 / vbv_bufsize=62500 / nal_hrd=none / filler=0 / ip_ratio=1.40 / pb_ratio=1.30 / aq=3:0.80 / aq-sensitivity=10.00 / aq-factor=1.00:1.00:1.00 / aq2=0 / aq3=0
Language : English
Default : Yes
Forced : No
Audio #1
ID : 2
Format : AC-3
Format/Info : Audio Coding 3
Commercial name : Dolby Digital
Codec ID : A_AC3
Duration : 2 h 8 min
Bit rate mode : Constant
Bit rate : 384 kb/s
Channel(s) : 6 channels
Channel layout : L R C LFE Ls Rs
Sampling rate : 48.0 kHz
Frame rate : 31.250 FPS (1536 SPF)
Compression mode : Lossy
Stream size : 352 MiB (3%)
Title : iTunes
Language : Russian
Service kind : Complete Main
Default : Yes
Forced : Yes
Audio #2
ID : 3
Format : AC-3
Format/Info : Audio Coding 3
Commercial name : Dolby Digital
Codec ID : A_AC3
Duration : 2 h 8 min
Bit rate mode : Constant
Bit rate : 640 kb/s
Channel(s) : 6 channels
Channel layout : L R C LFE Ls Rs
Sampling rate : 48.0 kHz
Frame rate : 31.250 FPS (1536 SPF)
Compression mode : Lossy
Stream size : 586 MiB (5%)
Title : AVO [Yesarev]
Language : Russian
Service kind : Complete Main
Default : No
Forced : No
Audio #3
ID : 4
Format : DTS
Format/Info : Digital Theater Systems
Codec ID : A_DTS
Duration : 2 h 8 min
Bit rate mode : Constant
Bit rate : 1 509 kb/s
Channel(s) : 6 channels
Channel layout : C L R Ls Rs LFE
Sampling rate : 48.0 kHz
Frame rate : 93.750 FPS (512 SPF)
Bit depth : 24 bits
Compression mode : Lossy
Stream size : 1.35 GiB (11%)
Title : AVO [Yesarev]
Language : Russian
Default : No
Forced : No
Audio #4
ID : 5
Format : AAC LC
Format/Info : Advanced Audio Codec Low Complexity
Codec ID : A_AAC-2
Duration : 2 h 8 min
Bit rate : 125 kb/s
Channel(s) : 2 channels
Channel layout : L R
Sampling rate : 44.1 kHz
Frame rate : 43.066 FPS (1024 SPF)
Compression mode : Lossy
Stream size : 115 MiB (1%)
Title : iTunes
Language : Ukrainian
Default : No
Forced : No
Audio #5
ID : 6
Format : AC-3
Format/Info : Audio Coding 3
Commercial name : Dolby Digital
Codec ID : A_AC3
Duration : 2 h 8 min
Bit rate mode : Constant
Bit rate : 640 kb/s
Channel(s) : 6 channels
Channel layout : L R C LFE Ls Rs
Sampling rate : 48.0 kHz
Frame rate : 31.250 FPS (1536 SPF)
Compression mode : Lossy
Stream size : 586 MiB (5%)
Title : Original
Language : English
Service kind : Complete Main
Default : No
Forced : No
Text #1
ID : 7
Format : UTF-8
Codec ID : S_TEXT/UTF8
Codec ID/Info : UTF-8 Plain Text
Duration : 2 h 4 min
Bit rate : 4 b/s
Count of elements : 143
Stream size : 4.36 KiB (0%)
Title : Forced [iTunes]
Language : Russian
Default : Yes
Forced : Yes
Text #2
ID : 8
Format : UTF-8
Codec ID : S_TEXT/UTF8
Codec ID/Info : UTF-8 Plain Text
Duration : 2 h 7 min
Bit rate : 49 b/s
Count of elements : 1250
Stream size : 46.2 KiB (0%)
Title : Full [iTunes]
Language : Russian
Default : No
Forced : No
Text #3
ID : 9
Format : UTF-8
Codec ID : S_TEXT/UTF8
Codec ID/Info : UTF-8 Plain Text
Duration : 1 h 57 min
Bit rate : 61 b/s
Count of elements : 1178
Stream size : 53.4 KiB (0%)
Title : Full [Enigma]
Language : Russian
Default : No
Forced : No
Text #4
ID : 10
Format : UTF-8
Codec ID : S_TEXT/UTF8
Codec ID/Info : UTF-8 Plain Text
Duration : 2 h 7 min
Bit rate : 50 b/s
Count of elements : 1250
Stream size : 46.8 KiB (0%)
Title : Full [Fadeev, Levina]
Language : Russian
Default : No
Forced : No
Text #5
ID : 11
Format : UTF-8
Codec ID : S_TEXT/UTF8
Codec ID/Info : UTF-8 Plain Text
Duration : 2 h 4 min
Bit rate : 4 b/s
Count of elements : 139
Stream size : 4.42 KiB (0%)
Title : Forced [iTunes]
Language : Ukrainian
Default : No
Forced : No
Text #6
ID : 12
Format : UTF-8
Codec ID : S_TEXT/UTF8
Codec ID/Info : UTF-8 Plain Text
Duration : 2 h 7 min
Bit rate : 50 b/s
Count of elements : 1239
Stream size : 47.1 KiB (0%)
Title : Full [iTunes]
Language : Ukrainian
Default : No
Forced : No
Text #7
ID : 13
Format : UTF-8
Codec ID : S_TEXT/UTF8
Codec ID/Info : UTF-8 Plain Text
Duration : 1 h 57 min
Bit rate : 31 b/s
Count of elements : 1078
Stream size : 27.2 KiB (0%)
Title : Full
Language : English
Default : No
Forced : No
Text #8
ID : 14
Format : UTF-8
Codec ID : S_TEXT/UTF8
Codec ID/Info : UTF-8 Plain Text
Duration : 1 h 57 min
Bit rate : 39 b/s
Count of elements : 1388
Stream size : 34.3 KiB (0%)
Title : SDH
Language : English
Default : No
Forced : No
Text #9
ID : 15
Format : UTF-8
Codec ID : S_TEXT/UTF8
Codec ID/Info : UTF-8 Plain Text
Duration : 1 h 57 min
Bit rate : 68 b/s
Count of elements : 1388
Stream size : 58.6 KiB (0%)
Title : SDH Colored
Language : English
Default : No
Forced : No
Menu
00:00:00.000 : en:Глава 01
00:04:19.843 : en:Глава 02
00:07:48.927 : en:Глава 03
00:11:47.916 : en:Глава 04
00:16:56.349 : en:Глава 05
00:22:10.663 : en:Глава 06
00:29:00.614 : en:Глава 07
00:33:25.754 : en:Глава 08
00:41:35.493 : en:Глава 09
00:47:02.695 : en:Глава 10
00:53:08.936 : en:Глава 11
00:57:56.807 : en:Глава 12
01:05:02.690 : en:Глава 13
01:13:07.967 : en:Глава 14
01:20:45.591 : en:Глава 15
01:27:29.744 : en:Глава 16
01:32:48.688 : en:Глава 17
01:41:45.850 : en:Глава 18
01:49:35.319 : en:Глава 19
01:57:58.613 : en:Глава 20

Орлов Владимир

Post 31-Jan-2020 08:53

[Quote]

--Терминатор: Тёмные судьбы / Terminator: Dark Fate--
Информация о фильме
Название: Терминатор: Тёмные судьбы
Оригинальное название: Terminator: Dark Fate
Год выхода: 2019
Жанр: Фантастика, боевик, приключения
Режиссер: Тим Миллер--В ролях: Арнольд Шварценеггер, Маккензи Дэвис, Линда Хэмилтон, Эдвард Ферлонг, Гэбриел Луна, Наталия Рейес, Том Хоппер, Диего Бонета, Алисия Боррачеро, Энрике Арсе, Стивен Кри, Ферран Фернандес--О фильме: Мексика. Милая девушка Даниэла Рамос, а для друзей просто Дани, вместе с братом приходит с утра работать на завод, но там выясняется, что их вскоре заменят автоматикой. И это не единственная угроза, которую представляют для девушки машины: тут же на неё нападает присланная из будущего и практически неубиваемая модель терминатора REV-9. Но на защиту Дани встает Грэйс — тоже прибывшая из будущего женщина, модифицировавшая свои боевые характеристики до терминаторского уровня. Вскоре к ним на помощь придёт и Сара Коннор, которая теперь превратилась в настоящую охотницу на роботов-убийц.-- --Страна: США, Китай
Студия: Paramount Pictures, Twentieth Century Fox, Skydance Media
Продолжительность: 02:08:05
Перевод(ы): #1: Дублированный iTunes
#2: Авторский Д. Есарев--Качество: BDRip 720p
Видео: MPEG-4 AVC, 1280x536, 6000 Kbit/s, 23.976 fps
Аудио #01: 48 kHz, AC3, 5.1, 384 Kbps | Дублированный | RUS |
Аудио #02: 48 kHz, AC3, 5.1, 640 Kbps | Авторский | RUS |
Аудио #03: 48 kHz, DTS, 5.1, 1510 Kbps | Авторский | RUS |
Аудио #04: 48 kHz, AAC, 2.0, 125 Kbps | Дублированный | UKR |
Аудио #05: 48 kHz, AC3, 5.1, 640 Kbps | Оригинал | ENG |
Субтитры: Русские (Forced, 3 x full), украинские (forced, full), английские--

Скриншоты

         

Тех.данные видеофайла

General
Unique ID: 276214939652728438875623008830878053636 (0xCFCD0FF547C17BBEC7F0C88898F6F504)
Complete name: E:Video111Terminator.Dark.Fate.2019.BDRip.720p.seleZen.mkv
Format: Matroska
Format version: Version 4
File size: 8.32 GiB
Duration: 2 h 8 min
Overall bit rate: 9 302 kb/s
Movie name: Terminator: Dark Fate (2019) from селезень
Encoded date: UTC 2020-01-30 19:26:10
Writing application: mkvmerge v40.0.0 ('Old Town Road + Pony') 64-bit
Writing library: libebml v1.3.9 + libmatroska v1.5.2
Cover: Yes
Attachments: cover.jpg / cover.jpg
Video
ID: 1
Format: AVC
Format/Info: Advanced Video Codec
Format profile: [email protected]
Format settings: CABAC / 12 Ref Frames
Format settings, CABAC: Yes
Format settings, Reference: 12 frames
Codec ID: V_MPEG4/ISO/AVC
Duration: 2 h 8 min
Bit rate: 6 000 kb/s
Width: 1 280 pixels
Height: 536 pixels
Display aspect ratio: 2.40:1
Frame rate mode: Constant
Frame rate: 23.976 (24000/1001) FPS
Color space: YUV
Chroma subsampling: 4:2:0
Bit depth: 8 bits
Scan type: Progressive
Bits/(Pixel*Frame): 0.365
Stream size: 5.37 GiB (64%)
Title: HDChina
Writing library: x264 core 152 r2851kMod ba24899
Encoding settings: cabac=1 / ref=12 / deblock=1:-3:-3 / analyse=0x3:0x133 / me=umh / subme=11 / psy=1 / fade_compensate=0.00 / psy_rd=1.05:0.00 / mixed_ref=1 / me_range=48 / chroma_me=1 / trellis=2 / 8x8dct=1 / cqm=0 / deadzone=21,11 / fast_pskip=0 / chroma_qp_offset=-2 / threads=12 / lookahead_threads=2 / sliced_threads=0 / nr=0 / decimate=0 / interlaced=0 / bluray_compat=0 / constrained_intra=0 / bframes=8 / b_pyramid=2 / b_adapt=2 / b_bias=0 / direct=3 / weightb=1 / open_gop=0 / weightp=2 / keyint=240 / keyint_min=2 / scenecut=40 / intra_refresh=0 / rc_lookahead=0 / rc=2pass / mbtree=0 / bitrate=6000 / ratetol=1.0 / qcomp=0.70 / qpmin=0 / qpmax=69 / qpstep=4 / cplxblur=20.0 / qblur=0.5 / vbv_maxrate=50000 / vbv_bufsize=30000 / nal_hrd=none / filler=0 / ip_ratio=1.30 / pb_ratio=1.20 / aq=3:0.80
Language: English
Default: Yes
Forced: No
Audio #1
ID: 2
Format: AC-3
Format/Info: Audio Coding 3
Commercial name: Dolby Digital
Codec ID: A_AC3
Duration: 2 h 8 min
Bit rate mode: Constant
Bit rate: 384 kb/s
Channel(s): 6 channels
Channel layout: L R C LFE Ls Rs
Sampling rate: 48.0 kHz
Frame rate: 31.250 FPS (1536 SPF)
Compression mode: Lossy
Stream size: 352 MiB (4%)
Title: iTunes
Language: Russian
Service kind: Complete Main
Default: Yes
Forced: Yes
Audio #2
ID: 3
Format: AC-3
Format/Info: Audio Coding 3
Commercial name: Dolby Digital
Codec ID: A_AC3
Duration: 2 h 8 min
Bit rate mode: Constant
Bit rate: 640 kb/s
Channel(s): 6 channels
Channel layout: L R C LFE Ls Rs
Sampling rate: 48.0 kHz
Frame rate: 31.250 FPS (1536 SPF)
Compression mode: Lossy
Stream size: 586 MiB (7%)
Title: AVO [Yesarev]
Language: Russian
Service kind: Complete Main
Default: No
Forced: No
Audio #3
ID: 4
Format: DTS
Format/Info: Digital Theater Systems
Codec ID: A_DTS
Duration: 2 h 8 min
Bit rate mode: Constant
Bit rate: 1 509 kb/s
Channel(s): 6 channels
Channel layout: C L R Ls Rs LFE
Sampling rate: 48.0 kHz
Frame rate: 93.750 FPS (512 SPF)
Bit depth: 24 bits
Compression mode: Lossy
Stream size: 1.35 GiB (16%)
Title: AVO [Yesarev]
Language: Russian
Default: No
Forced: No
Audio #4
ID: 5
Format: AAC LC
Format/Info: Advanced Audio Codec Low Complexity
Codec ID: A_AAC-2
Duration: 2 h 8 min
Bit rate: 125 kb/s
Channel(s): 2 channels
Channel layout: L R
Sampling rate: 44.1 kHz
Frame rate: 43.066 FPS (1024 SPF)
Compression mode: Lossy
Stream size: 115 MiB (1%)
Title: iTunes
Language: Ukrainian
Default: No
Forced: No
Audio #5
ID: 6
Format: AC-3
Format/Info: Audio Coding 3
Commercial name: Dolby Digital
Codec ID: A_AC3
Duration: 2 h 8 min
Bit rate mode: Constant
Bit rate: 640 kb/s
Channel(s): 6 channels
Channel layout: L R C LFE Ls Rs
Sampling rate: 48.0 kHz
Frame rate: 31.250 FPS (1536 SPF)
Compression mode: Lossy
Stream size: 586 MiB (7%)
Title: Original
Language: English
Service kind: Complete Main
Default: No
Forced: No
Text #1
ID: 7
Format: UTF-8
Codec ID: S_TEXT/UTF8
Codec ID/Info: UTF-8 Plain Text
Duration: 2 h 4 min
Bit rate: 4 b/s
Count of elements: 143
Stream size: 4.36 KiB (0%)
Title: Forced [iTunes]
Language: Russian
Default: Yes
Forced: Yes
Text #2
ID: 8
Format: UTF-8
Codec ID: S_TEXT/UTF8
Codec ID/Info: UTF-8 Plain Text
Duration: 2 h 7 min
Bit rate: 49 b/s
Count of elements: 1250
Stream size: 46.2 KiB (0%)
Title: Full [iTunes]
Language: Russian
Default: No
Forced: No
Text #3
ID: 9
Format: UTF-8
Codec ID: S_TEXT/UTF8
Codec ID/Info: UTF-8 Plain Text
Duration: 1 h 57 min
Bit rate: 61 b/s
Count of elements: 1178
Stream size: 53.4 KiB (0%)
Title: Full [Enigma]
Language: Russian
Default: No
Forced: No
Text #4
ID: 10
Format: UTF-8
Codec ID: S_TEXT/UTF8
Codec ID/Info: UTF-8 Plain Text
Duration: 2 h 7 min
Bit rate: 50 b/s
Count of elements: 1250
Stream size: 46.8 KiB (0%)
Title: Full [Fadeev, Levina]
Language: Russian
Default: No
Forced: No
Text #5
ID: 11
Format: UTF-8
Codec ID: S_TEXT/UTF8
Codec ID/Info: UTF-8 Plain Text
Duration: 2 h 4 min
Bit rate: 4 b/s
Count of elements: 139
Stream size: 4.42 KiB (0%)
Title: Forced [iTunes]
Language: Ukrainian
Default: No
Forced: No
Text #6
ID: 12
Format: UTF-8
Codec ID: S_TEXT/UTF8
Codec ID/Info: UTF-8 Plain Text
Duration: 2 h 7 min
Bit rate: 50 b/s
Count of elements: 1239
Stream size: 47.1 KiB (0%)
Title: Full [iTunes]
Language: Ukrainian
Default: No
Forced: No
Text #7
ID: 13
Format: UTF-8
Codec ID: S_TEXT/UTF8
Codec ID/Info: UTF-8 Plain Text
Duration: 1 h 57 min
Bit rate: 31 b/s
Count of elements: 1078
Stream size: 27.2 KiB (0%)
Title: Full
Language: English
Default: No
Forced: No
Text #8
ID: 14
Format: UTF-8
Codec ID: S_TEXT/UTF8
Codec ID/Info: UTF-8 Plain Text
Duration: 1 h 57 min
Bit rate: 39 b/s
Count of elements: 1388
Stream size: 34.3 KiB (0%)
Title: SDH
Language: English
Default: No
Forced: No
Text #9
ID: 15
Format: UTF-8
Codec ID: S_TEXT/UTF8
Codec ID/Info: UTF-8 Plain Text
Duration: 1 h 57 min
Bit rate: 68 b/s
Count of elements: 1388
Stream size: 58.6 KiB (0%)
Title: SDH Colored
Language: English
Default: No
Forced: No
Menu
00:00:00.000: en:Глава 01
00:04:19.843: en:Глава 02
00:07:48.927: en:Глава 03
00:11:47.916: en:Глава 04
00:16:56.349: en:Глава 05
00:22:10.663: en:Глава 06
00:29:00.614: en:Глава 07
00:33:25.754: en:Глава 08
00:41:35.493: en:Глава 09
00:47:02.695: en:Глава 10
00:53:08.936: en:Глава 11
00:57:56.807: en:Глава 12
01:05:02.690: en:Глава 13
01:13:07.967: en:Глава 14
01:20:45.591: en:Глава 15
01:27:29.744: en:Глава 16
01:32:48.688: en:Глава 17
01:41:45.850: en:Глава 18
01:49:35.319: en:Глава 19
01:57:58.613: en:Глава 20

Theseus

Post 23-Jan-2020 23:13

[Quote]

Мидуэй / Midway- Год выхода: 2019
Страна: США, Гонконг, Канада, Китай
Жанр: Боевик, драма, военный, история
Продолжительность: 02:16:00
Перевод Дублированный [Чистый звук]
Субтитры: Корейские (хардсаб), русские (форсированные), английские-Режиссер: Роланд Эммерих-В ролях: Эд Скрейн, Патрик Уилсон, Вуди Харрельсон, Люк Эванс, Мэнди Мур, Люк Клеинтенк, Деннис Куэйд, Аарон Экхарт, Киан Джонсон, Ник Джонас-О фильме: История одного из самых масштабных и стратегически важных морских сражений на Тихом океане Второй мировой войны. В июне 1942 года американский флот под командованием адмирала Честера Нимица одержал победу над японцами в сражении у атолла Мидуэй, что стало ключевым моментом в Тихоокеанской войне.- -Качество: WEBRip 1080p
Формат: MKV
Видео кодек: x.264
Аудио кодек: AC-3
Видео: AVC, 1920x856 (2.25:1), 24.000 fps, 3 885 kb/s
Аудио 1: AC-3, 48.0 kHz, 2 ch, 192 kb/s (Russian)
Аудио 2: AC-3, 48.0 kHz, 2 ch, 192 kb/s (English)-Рекламы нет-

MediaInfo

Код:
General
Unique ID                                : 180874132946104215005844666884490235739 (0x88131743F36C3FAF8391D48658E78F5B)
Complete name                            : Мидуэй (Midway) 2019 WEB-DLRip (1080p).zxc117.mkv
Format                                   : Matroska
Format version                           : Version 4
File size                                : 4.06 GiB
Duration                                 : 2 h 16 min
Overall bit rate                         : 4 272 kb/s
Movie name                               : Мидуэй (Midway) 2019 WEB-DLRip (1080p).zxc117
Encoded date                             : UTC 2020-01-22 20:07:30
Writing application                      : mkvmerge v7.8.0 ('River Man') 32bit built on Mar 27 2015 16:18:02
Writing library                          : libebml v1.3.1 + libmatroska v1.4.2
Cover                                    : Yes
Attachments                              : Cover.jpg
Video
ID                                       : 1
Format                                   : AVC
Format/Info                              : Advanced Video Codec
Format profile                           : [email protected]
Format settings                          : CABAC / 4 Ref Frames
Format settings, CABAC                   : Yes
Format settings, ReFrames                : 4 frames
Codec ID                                 : V_MPEG4/ISO/AVC
Duration                                 : 2 h 16 min
Bit rate                                 : 3 885 kb/s
Width                                    : 1 920 pixels
Height                                   : 856 pixels
Display aspect ratio                     : 2.25:1
Frame rate mode                          : Constant
Frame rate                               : 24.000 FPS
Color space                              : YUV
Chroma subsampling                       : 4:2:0
Bit depth                                : 8 bits
Scan type                                : Progressive
Bits/(Pixel*Frame)                       : 0.098
Stream size                              : 3.69 GiB (91%)
Title                                    : Мидуэй (Midway) 2019 WEB-DLRip (1080p).zxc117
Language                                 : Russian
Default                                  : Yes
Forced                                   : No
Color range                              : Limited
Color primaries                          : BT.709
Transfer characteristics                 : BT.709
Matrix coefficients                      : BT.709
Audio #1
ID                                       : 2
Format                                   : AC-3
Format/Info                              : Audio Coding 3
Commercial name                          : Dolby Digital
Codec ID                                 : A_AC3
Duration                                 : 2 h 16 min
Bit rate mode                            : Constant
Bit rate                                 : 192 kb/s
Channel(s)                               : 2 channels
Channel layout                           : L R
Sampling rate                            : 48.0 kHz
Frame rate                               : 31.250 FPS (1536 SPF)
Bit depth                                : 16 bits
Compression mode                         : Lossy
Stream size                              : 187 MiB (4%)
Language                                 : Russian
Service kind                             : Complete Main
Default                                  : Yes
Forced                                   : Yes
Audio #2
ID                                       : 3
Format                                   : AC-3
Format/Info                              : Audio Coding 3
Commercial name                          : Dolby Digital
Codec ID                                 : A_AC3
Duration                                 : 2 h 16 min
Bit rate mode                            : Constant
Bit rate                                 : 192 kb/s
Channel(s)                               : 2 channels
Channel layout                           : L R
Sampling rate                            : 48.0 kHz
Frame rate                               : 31.250 FPS (1536 SPF)
Bit depth                                : 16 bits
Compression mode                         : Lossy
Stream size                              : 187 MiB (4%)
Language                                 : English
Service kind                             : Complete Main
Default                                  : No
Forced                                   : No
Text #1
ID                                       : 4
Format                                   : UTF-8
Codec ID                                 : S_TEXT/UTF8
Codec ID/Info                            : UTF-8 Plain Text
Duration                                 : 2 h 5 min
Bit rate                                 : 6 b/s
Count of elements                        : 84
Stream size                              : 5.61 KiB (0%)
Title                                    : forsed
Language                                 : Russian
Default                                  : Yes
Forced                                   : Yes
Text #2
ID                                       : 5
Format                                   : UTF-8
Codec ID                                 : S_TEXT/UTF8
Codec ID/Info                            : UTF-8 Plain Text
Duration                                 : 2 h 6 min
Bit rate                                 : 41 b/s
Count of elements                        : 1397
Stream size                              : 38.8 KiB (0%)
Language                                 : English
Default                                  : No
Forced                                   : No

Трейлер

-     -

Theseus

Post 17-Jan-2020 16:12

[Quote]

Терминатор: Темные судьбы | Terminator: Dark Fate- Год выхода: 2019
Страна: США, Китай
Жанр: Фантастика, боевик, приключения
Продолжительность: 02:08:06
Перевод Любительский (двухголосый, закадровый) | LakeFilms
Субтитры: Английские-Режиссер: Тим Миллер-В ролях: Линда Хэмилтон, Арнольд Шварценеггер, Маккензи Дэвис, Наталия Рейес, Гэбриел Луна, Диего Бонета, Алисия Боррачеро, Энрике Арсе, Стивен Кри, Ферран Фернандес-О фильме: Сара Коннор превратилась в настоящую охотницу за терминаторами и теперь занимается уничтожением роботов-убийц из будущего. Она считала, что главное - это не дать им добраться до Джона, но теперь появилась Дани Рамос, от выживания которой также зависит судьба человечества. Вместе с ней в бой вступает и загадочная девушка Грейс, смесь человека и машины.- -Качество: WEBRip 2160p (Amazon 4K)
Формат: MKV
Видео кодек: x.264
Аудио кодек: AC3
Видео: AVC, 3840x1600 (2.40:1), 23.976 fps, 32,7 Mbps
Аудио 1: 48 kHz, AC3, 2 ch, 256 kbps | RUS
Аудио 2: 48 kHz, E-AC3, 6 ch, 640 kbps | ENG-Рекламы нет | Сэмпл-

MediaInfo

Код:
General
Complete name                            : \Терминатор-Тёмные судьбы_Terminator-Dark Fate (2019) WEBRip.H.264.2160p.NNMClub.mkv
Format                                   : Matroska
Format version                           : Version 4
File size                                : 30.1 GiB
Duration                                 : 2 h 8 min
Overall bit rate                         : 33.6 Mb/s
Movie name                               : Терминатор: Тёмные судьбы_Terminator: Dark Fate (2019) WEBRip.H.264.2160p.NNMClub
Encoded date                             : UTC 2020-01-17 07:54:15
Writing application                      : mkvmerge v40.0.0 ('Old Town Road + Pony') 64-bit
Writing library                          : libebml v1.3.9 + libmatroska v1.5.2
Video
ID                                       : 1
Format                                   : AVC
Format/Info                              : Advanced Video Codec
Format profile                           : [email protected]
Format settings                          : CABAC / 7 Ref Frames
Format settings, CABAC                   : Yes
Format settings, Reference frames        : 7 frames
Codec ID                                 : V_MPEG4/ISO/AVC
Duration                                 : 2 h 8 min
Bit rate                                 : 32.7 Mb/s
Width                                    : 3 840 pixels
Height                                   : 1 600 pixels
Display aspect ratio                     : 2.40:1
Frame rate mode                          : Constant
Frame rate                               : 23.976 (24000/1001) FPS
Color space                              : YUV
Chroma subsampling                       : 4:2:0
Bit depth                                : 8 bits
Scan type                                : Progressive
Bits/(Pixel*Frame)                       : 0.222
Stream size                              : 29.3 GiB (97%)
Title                                    : Terminator: Dark Fate 2019 2160p WEBRip DD+5.1 x264-AJP69
Writing library                          : x264 core 158 r2984 3759fcb
Encoding settings                        : cabac=1 / ref=7 / deblock=1:-3:-3 / analyse=0x3:0x133 / me=umh / subme=10 / psy=1 / psy_rd=1.00:0.00 / mixed_ref=1 / me_range=48 / chroma_me=1 / trellis=2 / 8x8dct=1 / cqm=0 / deadzone=21,11 / fast_pskip=0 / chroma_qp_offset=-2 / threads=24 / lookahead_threads=4 / sliced_threads=0 / nr=0 / decimate=0 / interlaced=0 / bluray_compat=0 / constrained_intra=0 / bframes=8 / b_pyramid=2 / b_adapt=2 / b_bias=0 / direct=3 / weightb=1 / open_gop=0 / weightp=2 / keyint=250 / keyint_min=23 / scenecut=40 / intra_refresh=0 / rc=crf / mbtree=0 / crf=20.0 / qcomp=0.60 / qpmin=0 / qpmax=69 / qpstep=4 / ip_ratio=1.30 / pb_ratio=1.20 / aq=3:0.80
Language                                 : English
Default                                  : Yes
Forced                                   : No
Audio #1
ID                                       : 2
Format                                   : AC-3
Format/Info                              : Audio Coding 3
Commercial name                          : Dolby Digital
Codec ID                                 : A_AC3
Duration                                 : 2 h 8 min
Bit rate mode                            : Constant
Bit rate                                 : 256 kb/s
Channel(s)                               : 2 channels
Channel layout                           : L R
Sampling rate                            : 44.1 kHz
Frame rate                               : 28.711 FPS (1536 SPF)
Compression mode                         : Lossy
Stream size                              : 235 MiB (1%)
Title                                    : Любительский двухголосый (LakeFilms)
Language                                 : Russian
Service kind                             : Complete Main
Default                                  : Yes
Forced                                   : No
Audio #2
ID                                       : 3
Format                                   : E-AC-3
Format/Info                              : Enhanced AC-3
Commercial name                          : Dolby Digital Plus
Codec ID                                 : A_EAC3
Duration                                 : 2 h 8 min
Bit rate mode                            : Constant
Bit rate                                 : 640 kb/s
Channel(s)                               : 6 channels
Channel layout                           : L R C LFE Ls Rs
Sampling rate                            : 48.0 kHz
Frame rate                               : 31.250 FPS (1536 SPF)
Compression mode                         : Lossy
Stream size                              : 586 MiB (2%)
Title                                    : Оригинал
Language                                 : English
Service kind                             : Complete Main
Default                                  : No
Forced                                   : No
Text #1
ID                                       : 4
Format                                   : UTF-8
Codec ID                                 : S_TEXT/UTF8
Codec ID/Info                            : UTF-8 Plain Text
Duration                                 : 1 h 57 min
Bit rate                                 : 32 b/s
Count of elements                        : 1121
Stream size                              : 27.9 KiB (0%)
Title                                    : Full
Language                                 : English
Default                                  : No
Forced                                   : No
Text #2
ID                                       : 5
Format                                   : UTF-8
Codec ID                                 : S_TEXT/UTF8
Codec ID/Info                            : UTF-8 Plain Text
Duration                                 : 1 h 57 min
Bit rate                                 : 39 b/s
Count of elements                        : 1430
Stream size                              : 33.6 KiB (0%)
Title                                    : SDH
Language                                 : English
Default                                  : No
Forced                                   : No

Трейлер

-    -

Theseus

Post 17-Jan-2020 16:09

[Quote]

Терминатор: Темные судьбы | Terminator: Dark Fate- Год выхода: 2019
Страна: США, Китай
Жанр: Фантастика, боевик, приключения
Продолжительность: 02:08:06
Перевод Любительский (двухголосый, закадровый) | LakeFilms
Субтитры: Английские-Режиссер: Тим Миллер-В ролях: Линда Хэмилтон, Арнольд Шварценеггер, Маккензи Дэвис, Наталия Рейес, Гэбриел Луна, Диего Бонета, Алисия Боррачеро, Энрике Арсе, Стивен Кри, Ферран Фернандес-О фильме: Сара Коннор превратилась в настоящую охотницу за терминаторами и теперь занимается уничтожением роботов-убийц из будущего. Она считала, что главное - это не дать им добраться до Джона, но теперь появилась Дани Рамос, от выживания которой также зависит судьба человечества. Вместе с ней в бой вступает и загадочная девушка Грейс, смесь человека и машины.- -Качество: WEBRip 2160p
Формат: MKV
Видео кодек: H.265
Аудио кодек: AC3
Видео: HEVC, 3840x1600 (2.40:1), 23.976 fps, 9995 Kbps
Аудио 1: 48 kHz, AC3, 2 ch, 256 kbps | RUS
Аудио 2: 48 kHz, E-AC3, 6 ch, 640 kbps | ENG-Рекламы нет-

MediaInfo

Код:
Format                      : Matroska
Format version              : Version 4
File size                   : 9.75 GiB
Duration                    : 2 h 8 min
Overall bit rate            : 10.9 Mb/s
Encoded date                : UTC 2020-01-16 22:51:22
Writing application         : mkvmerge v7.8.0 ('River Man') 32bit built on Mar 27 2015 16:18:02
Writing library             : libebml v1.3.1 + libmatroska v1.4.2
Cover                       : Yes
Attachments                 : Cover.jpg
Video
ID                          : 1
Format                      : HEVC
Format/Info                 : High Efficiency Video Coding
Format profile              : Main [email protected]@High
Codec ID                    : V_MPEGH/ISO/HEVC
Duration                    : 2 h 8 min
Bit rate                    : 9 995 kb/s
Width                       : 3 840 pixels
Height                      : 1 600 pixels
Display aspect ratio        : 2.40:1
Frame rate mode             : Constant
Frame rate                  : 23.976 (24000/1001) FPS
Color space                 : YUV
Chroma subsampling          : 4:2:0
Bit depth                   : 10 bits
Bits/(Pixel*Frame)          : 0.068
Stream size                 : 8.94 GiB (92%)
Language                    : Russian
Default                     : Yes
Forced                      : No
Color range                 : Limited
Color primaries             : BT.709
Transfer characteristics    : BT.709
Matrix coefficients         : BT.709
Audio #1
ID                          : 2
Format                      : AC-3
Format/Info                 : Audio Coding 3
Commercial name             : Dolby Digital
Codec ID                    : A_AC3
Duration                    : 2 h 8 min
Bit rate mode               : Constant
Bit rate                    : 256 kb/s
Channel(s)                  : 2 channels
Channel layout              : L R
Sampling rate               : 44.1 kHz
Frame rate                  : 28.711 FPS (1536 SPF)
Compression mode            : Lossy
Stream size                 : 235 MiB (2%)
Language                    : Russian
Service kind                : Complete Main
Default                     : Yes
Forced                      : Yes
Audio #2
ID                          : 3
Format                      : E-AC-3
Format/Info                 : Enhanced AC-3
Commercial name             : Dolby Digital Plus
Codec ID                    : A_EAC3
Duration                    : 2 h 8 min
Bit rate mode               : Constant
Bit rate                    : 640 kb/s
Channel(s)                  : 6 channels
Channel layout              : L R C LFE Ls Rs
Sampling rate               : 48.0 kHz
Frame rate                  : 31.250 FPS (1536 SPF)
Compression mode            : Lossy
Stream size                 : 586 MiB (6%)
Language                    : English
Service kind                : Complete Main
Default                     : No
Forced                      : No
Text #1
ID                          : 4
Format                      : UTF-8
Codec ID                    : S_TEXT/UTF8
Codec ID/Info               : UTF-8 Plain Text
Duration                    : 1 h 57 min
Bit rate                    : 32 b/s
Count of elements           : 1121
Stream size                 : 27.9 KiB (0%)
Language                    : English
Default                     : No
Forced                      : No
Text #2
ID                          : 5
Format                      : UTF-8
Codec ID                    : S_TEXT/UTF8
Codec ID/Info               : UTF-8 Plain Text
Duration                    : 1 h 57 min
Bit rate                    : 39 b/s
Count of elements           : 1430
Stream size                 : 33.6 KiB (0%)
Title                       : SDH
Language                    : English
Default                     : No
Forced                      : No
Menu
00:00:00.000                : en:00:00:00.000
00:04:19.843                : en:00:04:19.843
00:07:48.927                : en:00:07:48.927
00:11:47.916                : en:00:11:47.916
00:16:56.349                : en:00:16:56.349
00:22:10.663                : en:00:22:10.663
00:29:00.614                : en:00:29:00.614
00:33:25.754                : en:00:33:25.754
00:41:35.493                : en:00:41:35.493
00:47:02.695                : en:00:47:02.695
00:53:08.936                : en:00:53:08.936
00:57:56.807                : en:00:57:56.807
01:05:02.690                : en:01:05:02.690
01:13:07.967                : en:01:13:07.967
01:20:45.591                : en:01:20:45.591
01:27:29.744                : en:01:27:29.744
01:32:48.688                : en:01:32:48.688
01:41:45.850                : en:01:41:45.850
01:49:35.319                : en:01:49:35.319
01:57:58.613                : en:01:57:58.613

Трейлер

-    -
 

The time now is: Today 07:55

All times are GMT + 3 Hours